<?xml version="1.0" standalone="no"?>
<!DOCTYPE svg PUBLIC "-//W3C//DTD SVG 1.1//EN" "http://www.w3.org/Graphics/SVG/1.1/DTD/svg11.dtd" >
<svg xmlns="http://www.w3.org/2000/svg" xmlns:xlink="http://www.w3.org/1999/xlink" version="1.1">
<metadata>
Created by FontForge 20170812 at Wed Dec  3 17:31:18 2008
 By www-data
Copyright (C) 2004, 2009 Hoefler &#38; Frere-Jones. http://www.typography.com
</metadata>
<defs>
<font id="Sentinel-Book" horiz-adv-x="711" >
  <font-face 
    font-family="Sentinel Book"
    font-weight="325"
    font-stretch="normal"
    units-per-em="1000"
    panose-1="0 0 0 0 0 0 0 0 0 0"
    ascent="800"
    descent="-200"
    x-height="450"
    cap-height="652"
    bbox="-51 -293 1124 1085"
    underline-thickness="50"
    underline-position="-100"
    stemh="52"
    stemv="78"
    unicode-range="U+0020-FB04"
  />
<missing-glyph horiz-adv-x="500" 
d="M0 -200v1000h500v-1000h-500zM71 750l179 -390l179 390h-358zM50 -76l172 376l-172 376v-752zM450 676l-172 -376l172 -376v752zM250 240l-179 -390h358z" />
    <glyph glyph-name="f_b" unicode="fb" horiz-adv-x="834" 
d="M35 0v52h74v346h-91v49h91v29c0 160 92 217 183 217c36 0 67 -8 91 -22l83 20v-338c35 68 91 105 152 105c50 0 84 -16 111 -43c43 -42 63 -105 63 -186c0 -76 -25 -146 -68 -189c-30 -30 -70 -48 -116 -48c-67 0 -120 40 -150 102l-29 -99h-41v403h-201v-346h90v-52
h-242zM593 44c68 0 114 66 114 183c0 114 -45 179 -112 179c-74 0 -131 -80 -131 -192c0 -111 62 -170 129 -170zM187 482v-35h201v102c-4 -2 -9 -2 -13 -2c-33 0 -53 20 -53 52c0 16 11 31 16 37c-17 13 -36 16 -54 16c-61 0 -97 -40 -97 -170z" />
    <glyph glyph-name="f_f" unicode="ff" horiz-adv-x="615" 
d="M297 693c66 0 117 -27 133 -69c35 49 89 69 144 69c71 0 125 -35 125 -87c0 -31 -21 -57 -50 -57c-32 0 -52 20 -52 52c0 17 10 32 16 38c-10 9 -29 13 -48 13c-63 0 -98 -40 -98 -172v-33h133v-49h-133v-346h105v-52h-248v52h66v346h-203v-346h77v-52h-228v52h73v346
h-91v49h91v27c0 162 94 219 188 219zM390 447v29c0 24 2 46 6 66c-4 -1 -8 -1 -12 -1c-32 0 -54 19 -54 52c0 17 11 33 19 39c-12 12 -33 20 -59 20c-66 0 -103 -42 -103 -169v-36h203z" />
    <glyph glyph-name="f_h" unicode="fh" horiz-adv-x="859" 
d="M332 0v52h68v346h-213v-346h79v-52h-231v52h74v346h-91v49h91v29c0 160 92 217 185 217c37 0 69 -8 93 -23l91 21v-355c52 91 110 121 169 121c75 0 122 -50 122 -142v-263h74v-52h-221v52h69v228c0 42 -7 74 -25 93c-15 15 -35 21 -58 21c-66 0 -130 -73 -130 -146v-196
h68v-52h-214zM187 480v-33h213v105c-7 -3 -14 -5 -22 -5c-33 0 -53 20 -53 52c0 16 11 31 16 37c-17 13 -36 16 -54 16c-65 0 -100 -40 -100 -172z" />
    <glyph glyph-name="fi" unicode="fi" horiz-adv-x="572" 
d="M393 398h-206v-346h72v-52h-224v52h74v346h-91v49h91v26c0 165 99 220 202 220c84 0 152 -47 152 -105c0 -37 -24 -58 -52 -58c-32 0 -52 21 -52 51c0 19 10 34 21 43c-12 13 -36 27 -76 27c-73 0 -117 -44 -117 -163v-41h283v-395h85v-52h-230v52h68v346z" />
    <glyph glyph-name="f_j" unicode="fj" horiz-adv-x="551" 
d="M470 447v-429c0 -118 -51 -181 -146 -181c-58 0 -105 33 -105 78c0 31 22 58 54 58s51 -22 51 -48c0 -17 -8 -31 -18 -40c8 -5 18 -7 27 -7c36 0 60 31 60 100v420h-206v-346h77v-52h-229v52h74v346h-91v49h91v26c0 165 99 220 202 220c84 0 152 -47 152 -105
c0 -37 -24 -58 -52 -58c-32 0 -52 21 -52 51c0 19 10 34 21 43c-12 13 -36 27 -76 27c-73 0 -117 -44 -117 -163v-41h283z" />
    <glyph glyph-name="f_k" unicode="fk" horiz-adv-x="825" 
d="M35 0v52h74v346h-91v49h91v29c0 160 92 217 185 217c37 0 69 -8 93 -23l91 21v-485l182 193h-75v51h208v-52h-68l-123 -125l156 -221h57v-52h-205v51h60l-119 173l-73 -74v-98h62v-52h-208v52h68v346h-213v-346h79v-52h-231zM187 480v-33h213v105c-7 -3 -14 -5 -22 -5
c-33 0 -53 20 -53 52c0 16 11 31 16 37c-17 13 -36 16 -54 16c-65 0 -100 -40 -100 -172z" />
    <glyph glyph-name="fl" unicode="fl" horiz-adv-x="581" 
d="M35 0v52h74v346h-91v49h91v29c0 160 92 217 185 217c37 0 69 -8 93 -23l91 21v-639h84v-52h-230v52h68v346h-213v-346h79v-52h-231zM187 480v-33h213v105c-7 -3 -14 -5 -22 -5c-33 0 -53 20 -53 52c0 16 11 31 16 37c-17 13 -36 16 -54 16c-65 0 -100 -40 -100 -172z" />
    <glyph glyph-name="f_f_b" unicode="ffb" horiz-adv-x="1118" 
d="M750 691v-338c35 68 92 105 153 105c49 0 83 -16 110 -43c43 -42 63 -105 63 -186c0 -76 -25 -146 -68 -189c-29 -30 -70 -48 -116 -48c-67 0 -120 40 -149 102l-29 -99h-41v403h-206v-346h90v-52h-233v52h66v346h-203v-346h77v-52h-228v52h73v346h-91v49h91v27
c0 162 94 219 188 219c66 0 117 -27 133 -69c35 49 89 69 142 69c37 0 69 -8 92 -23zM877 44c68 0 114 66 114 183c0 114 -44 179 -112 179c-74 0 -131 -80 -131 -192c0 -111 62 -170 129 -170zM390 447v29c0 24 2 46 6 66c-4 -1 -8 -1 -12 -1c-32 0 -54 19 -54 52
c0 17 11 33 19 39c-12 12 -33 20 -59 20c-66 0 -103 -42 -103 -169v-36h203zM467 482v-35h206v103c-6 -2 -12 -3 -18 -3c-33 0 -53 20 -53 52c0 16 11 31 16 37c-17 13 -36 16 -53 16c-61 0 -98 -40 -98 -170z" />
    <glyph glyph-name="f_f_h" unicode="ffh" horiz-adv-x="1139" 
d="M612 0v52h69v346h-214v-346h79v-52h-222v52h66v346h-203v-346h77v-52h-228v52h73v346h-91v49h91v27c0 162 94 219 188 219c66 0 117 -27 133 -69c35 49 89 69 144 69c37 0 69 -8 93 -23l91 21v-355c53 91 111 121 169 121c76 0 122 -50 122 -142v-263h75v-52h-221v52h68
v228c0 42 -6 74 -25 93c-15 15 -34 21 -57 21c-67 0 -131 -73 -131 -146v-196h69v-52h-215zM467 480v-33h214v106c-7 -4 -15 -6 -23 -6c-32 0 -53 20 -53 52c0 16 11 31 17 37c-18 13 -36 16 -55 16c-65 0 -100 -40 -100 -172zM390 476c0 24 2 46 6 66c-4 -1 -8 -1 -12 -1
c-32 0 -54 19 -54 52c0 17 11 33 19 39c-12 12 -33 20 -59 20c-66 0 -103 -42 -103 -169v-36h203v29z" />
    <glyph glyph-name="f_f_i" unicode="ffi" horiz-adv-x="853" 
d="M467 488v-41h284v-395h84v-52h-229v52h67v346h-206v-346h73v-52h-216v52h66v346h-203v-346h77v-52h-228v52h73v346h-91v49h91v27c0 162 94 219 188 219c67 0 119 -28 134 -72c38 52 98 72 160 72c85 0 152 -47 152 -105c0 -37 -24 -58 -52 -58c-31 0 -52 21 -52 51
c0 19 11 34 21 43c-11 13 -35 27 -75 27c-73 0 -118 -44 -118 -163zM390 473c0 26 2 49 7 69c-4 -1 -9 -1 -13 -1c-32 0 -54 19 -54 52c0 17 11 33 19 39c-12 12 -33 20 -59 20c-66 0 -103 -42 -103 -169v-36h203v26z" />
    <glyph glyph-name="f_f_j" unicode="ffj" horiz-adv-x="831" 
d="M751 447v-429c0 -118 -52 -181 -146 -181c-59 0 -106 33 -106 78c0 31 23 58 54 58c32 0 52 -22 52 -48c0 -17 -9 -31 -18 -40c7 -5 17 -7 26 -7c37 0 60 31 60 100v420h-206v-346h77v-52h-220v52h66v346h-203v-346h77v-52h-228v52h73v346h-91v49h91v27
c0 162 94 219 188 219c67 0 119 -28 134 -72c38 52 98 72 160 72c85 0 152 -47 152 -105c0 -37 -24 -58 -52 -58c-31 0 -52 21 -52 51c0 19 11 34 21 43c-11 13 -35 27 -75 27c-73 0 -118 -44 -118 -163v-41h284zM390 473c0 26 2 49 7 69c-4 -1 -9 -1 -13 -1
c-32 0 -54 19 -54 52c0 17 11 33 19 39c-12 12 -33 20 -59 20c-66 0 -103 -42 -103 -169v-36h203v26z" />
    <glyph glyph-name="f_f_k" unicode="ffk" horiz-adv-x="1106" 
d="M758 691v-485l183 193h-75v51h207v-52h-68l-122 -125l155 -221h57v-52h-205v51h60l-119 173l-73 -74v-98h63v-52h-209v52h69v346h-214v-346h79v-52h-222v52h66v346h-203v-346h77v-52h-228v52h73v346h-91v49h91v27c0 162 94 219 188 219c66 0 117 -27 133 -69
c35 49 89 69 144 69c37 0 69 -8 93 -23zM467 480v-33h214v106c-7 -4 -15 -6 -23 -6c-32 0 -53 20 -53 52c0 16 11 31 17 37c-18 13 -36 16 -55 16c-65 0 -100 -40 -100 -172zM390 476c0 24 2 46 6 66c-4 -1 -8 -1 -12 -1c-32 0 -54 19 -54 52c0 17 11 33 19 39
c-12 12 -33 20 -59 20c-66 0 -103 -42 -103 -169v-36h203v29z" />
    <glyph glyph-name="f_f_l" unicode="ffl" horiz-adv-x="861" 
d="M612 0v52h69v346h-214v-346h79v-52h-222v52h66v346h-203v-346h77v-52h-228v52h73v346h-91v49h91v27c0 162 94 219 188 219c66 0 117 -27 133 -69c35 49 89 69 144 69c37 0 69 -8 93 -23l91 21v-639h85v-52h-231zM467 480v-33h214v106c-7 -4 -15 -6 -23 -6
c-32 0 -53 20 -53 52c0 16 11 31 17 37c-18 13 -36 16 -55 16c-65 0 -100 -40 -100 -172zM390 447v29c0 24 2 46 6 66c-4 -1 -8 -1 -12 -1c-32 0 -54 19 -54 52c0 17 11 33 19 39c-12 12 -33 20 -59 20c-66 0 -103 -42 -103 -169v-36h203z" />
    <glyph glyph-name=".notdef" horiz-adv-x="500" 
d="M0 -200v1000h500v-1000h-500zM71 750l179 -390l179 390h-358zM50 -76l172 376l-172 376v-752zM450 676l-172 -376l172 -376v752zM250 240l-179 -390h358z" />
    <glyph glyph-name="A" unicode="A" horiz-adv-x="672" 
d="M503 52l-65 183h-242l-69 -183h88v-52h-219v52h70l238 605h70l222 -605h84v-52h-280v52h103zM320 559l-106 -277h207l-98 277h-3z" />
    <glyph glyph-name="B" unicode="B" horiz-adv-x="628" 
d="M32 0v52h111v549h-111v51h289c194 0 242 -74 242 -157c0 -53 -35 -127 -164 -150v-3c131 -10 195 -77 195 -157c0 -94 -55 -185 -272 -185h-290zM227 367h99c105 0 147 49 147 126c0 68 -33 108 -143 108h-103v-234zM227 52h100c127 0 176 42 176 139
c0 76 -56 128 -180 128h-96v-267z" />
    <glyph glyph-name="C" unicode="C" horiz-adv-x="675" 
d="M349 -16c-180 0 -302 143 -302 343c0 192 135 341 304 341c85 0 147 -33 187 -79l19 76h52v-247h-46c-41 122 -106 195 -211 195c-122 0 -209 -98 -209 -280c0 -188 88 -292 220 -292c117 0 191 89 209 214h56c-19 -173 -125 -271 -279 -271z" />
    <glyph glyph-name="D" unicode="D" horiz-adv-x="704" 
d="M32 0v52h111v549h-111v51h270c239 0 357 -127 357 -316c0 -186 -107 -336 -351 -336h-276zM227 52h83c176 0 253 89 253 284c0 172 -78 265 -260 265h-76v-549z" />
    <glyph glyph-name="E" unicode="E" horiz-adv-x="657" 
d="M32 0v52h111v549h-111v51h558v-204h-39c-27 128 -36 153 -99 153h-225v-243h99c60 0 67 10 82 100h41v-249h-41c-13 94 -22 104 -82 104h-99v-261h223c73 0 82 25 110 172h39v-224h-567z" />
    <glyph glyph-name="F" unicode="F" horiz-adv-x="634" 
d="M32 0v52h111v549h-111v51h559v-208h-39c-30 135 -46 157 -109 157h-216v-255h92c58 0 68 11 81 102h41v-255h-41c-11 95 -23 108 -81 108h-92v-249h122v-52h-317z" />
    <glyph glyph-name="G" unicode="G" 
d="M532 87c-39 -66 -106 -103 -185 -103c-183 0 -300 152 -300 344c0 185 129 340 300 340c75 0 142 -31 184 -79l19 76h52v-244h-46c-40 119 -108 192 -205 192c-128 0 -208 -100 -208 -279c0 -183 80 -292 215 -292c61 0 102 28 127 61c28 34 40 87 40 140v26h-122v52h296
v-52h-89v-276h-49z" />
    <glyph glyph-name="H" unicode="H" horiz-adv-x="772" 
d="M32 0v52h111v549h-111v51h293v-51h-98v-240h317v240h-97v51h293v-51h-111v-549h111v-52h-293v52h97v262h-317v-262h98v-52h-293z" />
    <glyph glyph-name="I" unicode="I" horiz-adv-x="384" 
d="M39 0v52h110v549h-110v51h306v-51h-111v-549h111v-52h-306z" />
    <glyph glyph-name="J" unicode="J" horiz-adv-x="530" 
d="M218 -16c-115 0 -188 69 -188 150c0 46 30 78 68 78c36 0 62 -26 62 -64c0 -28 -16 -51 -47 -60c16 -30 54 -52 103 -52c70 0 111 48 111 130v435h-107v51h291v-51h-100v-420c0 -124 -76 -197 -193 -197z" />
    <glyph glyph-name="K" unicode="K" horiz-adv-x="717" 
d="M227 229v-177h98v-52h-293v52h111v549h-111v51h293v-51h-98v-305l298 305h-90v51h251v-51h-84l-221 -219l246 -330h80v-52h-274v52h90l-199 273z" />
    <glyph glyph-name="L" unicode="L" horiz-adv-x="606" 
d="M32 652h312v-51h-117v-549h197c59 0 69 31 106 193h39v-245h-537v52h111v549h-111v51z" />
    <glyph glyph-name="M" unicode="M" horiz-adv-x="929" 
d="M34 0v52h104v549h-104v51h244l185 -509h3l189 509h239v-51h-108v-549h108v-52h-281v52h88v545h-6l-229 -598h-36l-228 598h-6v-545h94v-52h-256z" />
    <glyph glyph-name="N" unicode="N" horiz-adv-x="767" 
d="M589 -16l-388 562h-5v-494h100v-52h-262v52h104v549h-104v51h196l350 -506h5v455h-101v51h259v-51h-99v-617h-55z" />
    <glyph glyph-name="O" unicode="O" 
d="M356 -16c-173 0 -309 141 -309 342c0 196 141 341 309 341c173 0 308 -139 308 -341c0 -197 -140 -342 -308 -342zM356 37c133 0 213 111 213 289c0 176 -80 288 -213 288c-134 0 -213 -112 -213 -288s79 -289 213 -289z" />
    <glyph glyph-name="P" unicode="P" horiz-adv-x="609" 
d="M32 0v52h111v549h-111v51h284c199 0 261 -88 261 -186c0 -102 -74 -196 -257 -196h-93v-218h122v-52h-317zM227 319h91c123 0 165 61 165 147c0 77 -41 135 -164 135h-92v-282z" />
    <glyph glyph-name="Q" unicode="Q" 
d="M356 -16c-173 0 -309 141 -309 342c0 196 141 341 309 341c173 0 308 -139 308 -341c0 -118 -50 -218 -127 -278c39 -66 62 -85 92 -85c37 0 56 33 66 96h47c-7 -97 -43 -165 -124 -165c-66 0 -106 41 -143 116c-37 -17 -77 -26 -119 -26zM212 102c0 70 45 133 131 133
c72 0 118 -53 162 -129c40 50 64 125 64 220c0 176 -80 288 -213 288c-134 0 -213 -112 -213 -288c0 -96 25 -174 69 -224zM363 37c33 0 63 8 90 23c-33 70 -68 123 -123 123c-46 0 -74 -33 -74 -75c0 -38 25 -71 107 -71z" />
    <glyph glyph-name="R" unicode="R" horiz-adv-x="677" 
d="M227 293v-241h110v-52h-305v52h111v549h-111v51h319c171 0 238 -76 238 -169c0 -68 -41 -139 -157 -160v-6c93 -22 124 -67 130 -142l6 -82c3 -32 14 -46 35 -46c19 0 32 15 47 47l34 -16c-21 -55 -52 -89 -105 -89c-56 0 -101 26 -103 117l-2 79c-2 75 -25 108 -123 108
h-124zM227 341h118c109 0 148 55 148 141c0 77 -39 119 -135 119h-131v-260z" />
    <glyph glyph-name="S" unicode="S" horiz-adv-x="572" 
d="M55 -13v227h45c63 -129 126 -182 222 -182c77 0 130 42 130 120c0 88 -74 111 -178 139c-105 28 -210 62 -210 190c0 103 78 186 200 186c65 0 129 -28 167 -72l20 69h49v-215h-45c-51 127 -120 171 -196 171c-66 0 -117 -41 -117 -114c0 -92 79 -112 172 -137
c113 -29 216 -58 216 -186c0 -114 -88 -199 -210 -199c-81 0 -146 30 -194 81l-22 -78h-49z" />
    <glyph glyph-name="T" unicode="T" horiz-adv-x="670" 
d="M178 0v52h115v553h-89c-76 0 -86 -29 -120 -179h-38v226h578v-226h-38c-34 150 -44 179 -121 179h-88v-553h115v-52h-314z" />
    <glyph glyph-name="U" unicode="U" horiz-adv-x="734" 
d="M365 -16c-166 0 -247 88 -247 213v404h-96v51h281v-51h-101v-382c0 -126 66 -176 188 -176c54 0 98 18 127 47c34 34 46 78 46 153v358h-101v51h251v-51h-92v-395c0 -123 -86 -222 -256 -222z" />
    <glyph glyph-name="V" unicode="V" horiz-adv-x="678" 
d="M307 -4l-227 605h-84v51h280v-51h-103l180 -500h6l192 500h-88v51h219v-51h-70l-240 -605h-65z" />
    <glyph glyph-name="W" unicode="W" horiz-adv-x="984" 
d="M652 601h-105l143 -492h5l159 492h-88v51h218v-51h-70l-204 -605h-71l-138 464l-159 -464h-70l-190 605h-85v51h277v-51h-101l150 -492h5l146 435l-16 57h-84v51h278v-51z" />
    <glyph glyph-name="X" unicode="X" horiz-adv-x="672" 
d="M406 601v51h244v-51h-81l-187 -260l194 -289h87v-52h-276v52h90l-153 235l-166 -235h95v-52h-243v52h81l199 275l-184 274h-88v51h277v-51h-89l141 -220l153 220h-94z" />
    <glyph glyph-name="Y" unicode="Y" horiz-adv-x="637" 
d="M338 328l161 273h-84v51h221v-51h-77l-199 -326v-223h101v-52h-286v52h100v222l-187 327h-82v51h272v-51h-90z" />
    <glyph glyph-name="Z" unicode="Z" horiz-adv-x="609" 
d="M39 0v37l417 564h-250c-59 0 -71 -10 -107 -172h-40v223h506v-36l-414 -564h270c59 0 70 17 106 179h39v-231h-527z" />
    <glyph glyph-name="a" unicode="a" horiz-adv-x="483" 
d="M175 -7c-82 0 -129 47 -129 117c0 29 10 58 31 80c35 35 83 48 171 62c61 10 71 12 71 29v44c0 66 -33 90 -93 90c-35 0 -65 -9 -86 -26c17 -9 27 -25 27 -46c0 -29 -20 -51 -52 -51s-53 23 -53 54c0 65 84 111 177 111c103 0 158 -44 158 -135v-235c0 -31 10 -40 30 -40
c17 0 29 14 40 40l30 -17c-23 -51 -48 -75 -93 -75c-41 0 -75 24 -76 83h-3c-30 -51 -89 -85 -150 -85zM209 46c53 0 110 44 110 96v89c-9 -3 -25 -6 -49 -10c-102 -16 -139 -37 -139 -97c0 -50 26 -78 78 -78z" />
    <glyph glyph-name="b" unicode="b" horiz-adv-x="526" 
d="M285 44c68 0 114 66 114 183c0 114 -44 179 -112 179c-73 0 -131 -80 -131 -192c0 -111 62 -170 129 -170zM81 -5v638h-75v54h152v-334c35 68 92 105 153 105c49 0 83 -16 110 -43c43 -42 63 -105 63 -186c0 -76 -24 -146 -67 -189c-30 -30 -71 -48 -116 -48
c-67 0 -121 40 -150 102l-29 -99h-41z" />
    <glyph glyph-name="c" unicode="c" horiz-adv-x="472" 
d="M248 -9c-125 0 -209 95 -209 225c0 142 92 242 227 242c98 0 170 -69 170 -127c0 -39 -22 -69 -58 -69c-34 0 -54 25 -54 54c0 24 16 46 38 54c-16 24 -48 46 -99 46c-82 0 -140 -73 -140 -190c0 -114 54 -183 144 -183c63 0 107 36 132 103h43
c-26 -101 -97 -155 -194 -155z" />
    <glyph glyph-name="d" unicode="d" horiz-adv-x="535" 
d="M218 -8c-46 0 -84 17 -111 44c-44 43 -65 108 -65 183c0 76 26 148 69 191c30 30 68 48 116 48c62 0 112 -33 140 -87v262h-76v54h153v-635h72v-52h-147v98c-35 -71 -90 -106 -151 -106zM243 44c69 0 127 74 127 188c0 104 -51 174 -124 174s-119 -68 -119 -182
c0 -115 51 -180 116 -180z" />
    <glyph glyph-name="e" unicode="e" horiz-adv-x="476" 
d="M439 221h-316c2 -117 59 -177 144 -177c55 0 101 21 128 88h42c-27 -93 -94 -141 -187 -141c-131 0 -211 95 -211 229c0 137 94 238 214 238c131 0 189 -118 186 -237zM248 415c-66 0 -114 -51 -124 -151h235c-7 94 -42 151 -111 151z" />
    <glyph glyph-name="f" unicode="f" horiz-adv-x="334" 
d="M35 0v52h74v346h-91v49h91v29c0 160 92 217 184 217c72 0 126 -35 126 -87c0 -31 -21 -57 -50 -57c-33 0 -53 20 -53 52c0 17 11 32 17 38c-11 9 -29 13 -48 13c-63 0 -98 -40 -98 -172v-33h133v-49h-133v-346h105v-52h-257z" />
    <glyph glyph-name="g" unicode="g" horiz-adv-x="469" 
d="M404 312c0 -94 -73 -147 -176 -147c-22 0 -42 3 -61 3c-32 0 -53 -20 -53 -41c0 -26 28 -40 79 -40h119c93 0 132 -39 132 -101c0 -80 -82 -147 -226 -147c-121 0 -194 44 -194 104c0 43 39 80 96 90v3c-54 16 -74 41 -74 73c0 33 35 66 85 77c-49 25 -79 62 -79 123
c0 94 78 148 176 148c26 0 51 -5 74 -14c31 53 72 89 121 89c34 0 58 -21 58 -52c0 -25 -18 -46 -44 -46c-25 0 -40 16 -40 40c0 3 0 6 1 10c-18 1 -46 -21 -64 -56c41 -25 70 -65 70 -116zM232 203c57 0 90 38 90 108c0 61 -36 108 -97 108c-57 0 -92 -35 -92 -109
c0 -73 40 -107 99 -107zM222 -119c93 0 153 35 153 85c0 35 -22 56 -71 56h-112c-60 0 -94 -25 -94 -71c0 -40 34 -70 124 -70z" />
    <glyph glyph-name="h" unicode="h" horiz-adv-x="556" 
d="M22 0v52h75v581h-75v54h153v-351c52 91 110 121 168 121c76 0 122 -50 122 -142v-263h75v-52h-221v52h69v228c0 42 -7 74 -26 93c-14 15 -34 21 -57 21c-66 0 -130 -73 -130 -146v-196h68v-52h-221z" />
    <glyph glyph-name="i" unicode="i" horiz-adv-x="300" 
d="M154 552c-33 0 -57 21 -57 56c0 33 23 58 57 58c31 0 55 -23 55 -57s-24 -57 -55 -57zM36 0v52h85v346h-85v52h162v-398h85v-52h-247z" />
    <glyph glyph-name="j" unicode="j" horiz-adv-x="281" 
d="M156 552c-33 0 -56 21 -56 56c0 33 22 58 56 58c31 0 55 -23 55 -57s-23 -57 -55 -57zM54 -163c-58 0 -105 33 -105 78c0 31 23 58 54 58c32 0 51 -22 51 -48c0 -17 -8 -31 -17 -40c7 -5 17 -7 26 -7c37 0 60 31 60 100v420h-84v52h162v-432c0 -118 -52 -181 -147 -181z
" />
    <glyph glyph-name="k" unicode="k" horiz-adv-x="522" 
d="M422 398l-123 -125l156 -221h57v-52h-205v51h60l-119 173l-73 -74v-98h62v-52h-215v52h75v581h-75v54h153v-481l182 193h-75v51h208v-52h-68z" />
    <glyph glyph-name="l" unicode="l" horiz-adv-x="284" 
d="M18 0v52h85v581h-85v54h163v-635h84v-52h-247z" />
    <glyph glyph-name="m" unicode="m" horiz-adv-x="839" 
d="M466 338c54 89 110 119 166 119c75 0 117 -50 117 -143v-262h75v-52h-216v52h64v228c0 43 -6 75 -25 95c-13 13 -31 18 -54 18c-63 0 -125 -73 -125 -145v-196h64v-52h-205v52h63v228c0 43 -5 75 -24 95c-14 13 -31 18 -54 18c-64 0 -125 -73 -125 -145v-196h63v-52h-216
v52h75v346h-75v52h151v-116c53 92 110 123 165 123c69 0 110 -38 116 -119z" />
    <glyph glyph-name="n" unicode="n" horiz-adv-x="568" 
d="M34 0v52h75v346h-75v52h151v-116c53 92 112 123 170 123c76 0 122 -50 122 -142v-263h75v-52h-221v52h69v228c0 42 -7 74 -26 93c-14 15 -34 21 -57 21c-66 0 -130 -73 -130 -146v-196h68v-52h-221z" />
    <glyph glyph-name="o" unicode="o" horiz-adv-x="512" 
d="M256 -9c-128 0 -217 92 -217 230c0 140 94 237 217 237c128 0 217 -92 217 -230c0 -140 -94 -237 -217 -237zM260 35c74 0 128 60 128 190c0 131 -61 189 -136 189c-74 0 -129 -60 -129 -190s62 -189 137 -189z" />
    <glyph glyph-name="p" unicode="p" horiz-adv-x="539" 
d="M296 53c69 0 116 62 116 182c0 123 -52 171 -112 171c-67 0 -128 -79 -128 -185c0 -97 49 -168 124 -168zM22 -150v52h75v496h-75v52h150v-105c35 79 92 113 154 113c46 0 80 -15 110 -45c41 -41 61 -106 61 -180c0 -75 -25 -143 -67 -185c-30 -30 -68 -48 -114 -48
c-68 0 -116 41 -142 92v-190h98v-52h-250z" />
    <glyph glyph-name="q" unicode="q" horiz-adv-x="522" 
d="M245 406c-71 0 -118 -63 -118 -180c0 -126 53 -173 115 -173c68 0 126 74 126 181c0 101 -52 172 -123 172zM367 106c-33 -71 -87 -106 -150 -106c-47 0 -84 17 -114 47c-41 41 -61 107 -61 179c0 70 26 141 67 182c32 32 71 50 117 50c66 0 119 -40 148 -102l29 98h41
v-552h75v-52h-249v52h97v204z" />
    <glyph glyph-name="r" unicode="r" horiz-adv-x="405" 
d="M34 0v52h75v346h-75v52h151v-106c29 76 84 112 136 112c46 0 73 -31 73 -69c0 -32 -23 -58 -54 -58c-30 0 -54 20 -54 52c0 6 1 13 4 19c-50 5 -90 -58 -103 -105v-243h88v-52h-241z" />
    <glyph glyph-name="s" unicode="s" horiz-adv-x="433" 
d="M45 -9v170h46c24 -79 78 -129 149 -129c56 0 88 28 88 70c0 45 -32 65 -122 90c-110 31 -153 67 -153 136s61 130 151 130c51 0 94 -19 117 -54l11 54h44v-154h-44c-31 73 -62 113 -129 113c-42 0 -80 -24 -80 -65c0 -42 36 -65 118 -88c110 -30 155 -61 155 -136
c0 -68 -59 -137 -156 -137c-62 0 -110 25 -140 63l-11 -63h-44z" />
    <glyph glyph-name="t" unicode="t" horiz-adv-x="350" 
d="M98 567l78 10v-130h147v-49h-147v-283c0 -45 17 -70 56 -70c34 0 56 26 75 80l36 -14c-25 -88 -72 -120 -131 -120c-76 0 -114 46 -114 122v285h-91v49h91v120z" />
    <glyph glyph-name="u" unicode="u" horiz-adv-x="551" 
d="M212 -8c-75 0 -120 51 -120 143v263h-74v52h151v-280c0 -43 6 -75 26 -94c13 -15 33 -20 55 -20c66 0 129 73 129 145v197h-77v52h155v-398h74v-52h-150v115c-53 -91 -111 -123 -169 -123z" />
    <glyph glyph-name="v" unicode="v" horiz-adv-x="494" 
d="M216 -6l-154 404h-62v52h225v-52h-78l113 -318h3l121 318h-70v52h180v-52h-54l-162 -404h-62z" />
    <glyph glyph-name="w" unicode="w" horiz-adv-x="752" 
d="M503 398h-81l108 -318h3l109 318h-70v52h178v-52h-54l-146 -404h-64l-102 290l-118 -290h-63l-139 404h-62v52h219v-52h-76l103 -318h2l110 274l-15 44h-62v52h220v-52z" />
    <glyph glyph-name="x" unicode="x" horiz-adv-x="487" 
d="M224 400h-69l100 -137l110 137h-64v50h175v-52h-51l-140 -166l137 -180h54v-52h-208v50h68l-101 137l-112 -137h62v-50h-173v52h53l140 165l-139 181h-54v52h212v-50z" />
    <glyph glyph-name="y" unicode="y" horiz-adv-x="489" 
d="M70 -33c31 0 51 -23 51 -51c0 -14 -4 -26 -9 -34c36 2 70 22 109 119l-159 397h-62v52h224v-52h-78l116 -309l120 309h-69v52h180v-52h-55l-155 -380c-57 -142 -115 -181 -182 -181c-55 0 -87 30 -87 70c0 32 23 60 56 60z" />
    <glyph glyph-name="z" unicode="z" horiz-adv-x="457" 
d="M35 0v43l293 363h-159c-52 0 -60 -16 -82 -113h-37v157h374v-43l-295 -363h183c50 0 58 19 76 124h38v-168h-391z" />
    <glyph glyph-name="Aacute" unicode="&#xc1;" horiz-adv-x="672" 
d="M503 52l-65 183h-242l-69 -183h88v-52h-219v52h70l238 605h70l222 -605h84v-52h-280v52h103zM320 559l-106 -277h207l-98 277h-3zM315 737l50 126c19 50 35 70 60 70c19 0 36 -15 36 -37c0 -20 -14 -39 -43 -76l-65 -83h-38z" />
    <glyph glyph-name="aacute" unicode="&#xe1;" horiz-adv-x="483" 
d="M175 -7c-82 0 -129 47 -129 117c0 29 10 58 31 80c35 35 83 48 171 62c61 10 71 12 71 29v44c0 66 -33 90 -93 90c-35 0 -65 -9 -86 -26c17 -9 27 -25 27 -46c0 -29 -20 -51 -52 -51s-53 23 -53 54c0 65 84 111 177 111c103 0 158 -44 158 -135v-235c0 -31 10 -40 30 -40
c17 0 29 14 40 40l30 -17c-23 -51 -48 -75 -93 -75c-41 0 -75 24 -76 83h-3c-30 -51 -89 -85 -150 -85zM209 46c53 0 110 44 110 96v89c-9 -3 -25 -6 -49 -10c-102 -16 -139 -37 -139 -97c0 -50 26 -78 78 -78zM219 527l50 126c19 50 35 70 60 70c19 0 36 -15 36 -37
c0 -20 -14 -39 -43 -76l-65 -83h-38z" />
    <glyph glyph-name="Abreve" unicode="&#x102;" horiz-adv-x="672" 
d="M503 52l-65 183h-242l-69 -183h88v-52h-219v52h70l238 605h70l222 -605h84v-52h-280v52h103zM320 559l-106 -277h207l-98 277h-3zM340 744c-74 0 -125 56 -129 150h31c16 -55 46 -88 98 -88c53 0 82 33 98 88h31c-3 -94 -54 -150 -129 -150z" />
    <glyph glyph-name="abreve" unicode="&#x103;" horiz-adv-x="483" 
d="M175 -7c-82 0 -129 47 -129 117c0 29 10 58 31 80c35 35 83 48 171 62c61 10 71 12 71 29v44c0 66 -33 90 -93 90c-35 0 -65 -9 -86 -26c17 -9 27 -25 27 -46c0 -29 -20 -51 -52 -51s-53 23 -53 54c0 65 84 111 177 111c103 0 158 -44 158 -135v-235c0 -31 10 -40 30 -40
c17 0 29 14 40 40l30 -17c-23 -51 -48 -75 -93 -75c-41 0 -75 24 -76 83h-3c-30 -51 -89 -85 -150 -85zM209 46c53 0 110 44 110 96v89c-9 -3 -25 -6 -49 -10c-102 -16 -139 -37 -139 -97c0 -50 26 -78 78 -78zM244 534c-74 0 -125 56 -129 150h31c16 -55 46 -88 98 -88
c53 0 82 33 98 88h31c-3 -94 -54 -150 -129 -150z" />
    <glyph glyph-name="Acircumflex" unicode="&#xc2;" horiz-adv-x="672" 
d="M503 52l-65 183h-242l-69 -183h88v-52h-219v52h70l238 605h70l222 -605h84v-52h-280v52h103zM320 559l-106 -277h207l-98 277h-3zM213 738l108 181h37l109 -181h-39l-88 102l-88 -102h-39z" />
    <glyph glyph-name="acircumflex" unicode="&#xe2;" horiz-adv-x="483" 
d="M175 -7c-82 0 -129 47 -129 117c0 29 10 58 31 80c35 35 83 48 171 62c61 10 71 12 71 29v44c0 66 -33 90 -93 90c-35 0 -65 -9 -86 -26c17 -9 27 -25 27 -46c0 -29 -20 -51 -52 -51s-53 23 -53 54c0 65 84 111 177 111c103 0 158 -44 158 -135v-235c0 -31 10 -40 30 -40
c17 0 29 14 40 40l30 -17c-23 -51 -48 -75 -93 -75c-41 0 -75 24 -76 83h-3c-30 -51 -89 -85 -150 -85zM209 46c53 0 110 44 110 96v89c-9 -3 -25 -6 -49 -10c-102 -16 -139 -37 -139 -97c0 -50 26 -78 78 -78zM117 528l108 181h37l109 -181h-39l-88 102l-88 -102h-39z" />
    <glyph glyph-name="Adieresis" unicode="&#xc4;" horiz-adv-x="672" 
d="M503 52l-65 183h-242l-69 -183h88v-52h-219v52h70l238 605h70l222 -605h84v-52h-280v52h103zM320 559l-106 -277h207l-98 277h-3zM253 760c-29 0 -51 24 -51 54s22 55 51 55s52 -25 52 -55s-23 -54 -52 -54zM427 760c-29 0 -52 24 -52 54s23 55 52 55s51 -25 51 -55
s-22 -54 -51 -54z" />
    <glyph glyph-name="adieresis" unicode="&#xe4;" horiz-adv-x="483" 
d="M175 -7c-82 0 -129 47 -129 117c0 29 10 58 31 80c35 35 83 48 171 62c61 10 71 12 71 29v44c0 66 -33 90 -93 90c-35 0 -65 -9 -86 -26c17 -9 27 -25 27 -46c0 -29 -20 -51 -52 -51s-53 23 -53 54c0 65 84 111 177 111c103 0 158 -44 158 -135v-235c0 -31 10 -40 30 -40
c17 0 29 14 40 40l30 -17c-23 -51 -48 -75 -93 -75c-41 0 -75 24 -76 83h-3c-30 -51 -89 -85 -150 -85zM209 46c53 0 110 44 110 96v89c-9 -3 -25 -6 -49 -10c-102 -16 -139 -37 -139 -97c0 -50 26 -78 78 -78zM331 550c-29 0 -52 24 -52 54s23 55 52 55s51 -25 51 -55
s-22 -54 -51 -54zM157 550c-29 0 -51 24 -51 54s22 55 51 55s52 -25 52 -55s-23 -54 -52 -54z" />
    <glyph glyph-name="AE" unicode="&#xc6;" horiz-adv-x="958" 
d="M443 292v309h-7l-178 -309h185zM230 245l-110 -193h92v-52h-236v52h80l318 549h-103v51h620v-204h-40c-27 128 -35 153 -98 153h-225v-243h99c59 0 67 10 81 100h41v-249h-41c-13 94 -22 104 -81 104h-99v-261h223c72 0 81 25 109 172h40v-224h-567v52h110v193h-213z" />
    <glyph glyph-name="ae" unicode="&#xe6;" horiz-adv-x="744" 
d="M708 221h-311c1 -117 56 -177 139 -177c55 0 100 21 127 88h42c-27 -93 -93 -141 -186 -141c-85 0 -146 44 -175 106c-39 -72 -109 -104 -169 -104c-82 0 -129 47 -129 117c0 29 10 58 31 80c35 35 83 48 171 62c61 10 71 12 71 29v44c0 66 -33 90 -93 90
c-35 0 -65 -9 -86 -26c17 -9 27 -25 27 -46c0 -29 -20 -51 -52 -51s-53 23 -53 54c0 65 84 111 177 111c72 0 117 -22 138 -66c35 42 85 67 145 67c130 0 189 -118 186 -237zM518 415c-65 0 -111 -51 -120 -151h229c-7 94 -42 151 -109 151zM209 46c53 0 110 44 110 96v89
c-9 -3 -25 -6 -49 -10c-102 -16 -139 -37 -139 -97c0 -50 26 -78 78 -78z" />
    <glyph glyph-name="AEacute" unicode="&#x1fc;" horiz-adv-x="958" 
d="M484 737l50 126c19 50 35 70 60 70c19 0 36 -15 36 -37c0 -20 -14 -39 -43 -76l-65 -83h-38zM443 292v309h-7l-178 -309h185zM230 245l-110 -193h92v-52h-236v52h80l318 549h-103v51h620v-204h-40c-27 128 -35 153 -98 153h-225v-243h99c59 0 67 10 81 100h41v-249h-41
c-13 94 -22 104 -81 104h-99v-261h223c72 0 81 25 109 172h40v-224h-567v52h110v193h-213z" />
    <glyph glyph-name="aeacute" unicode="&#x1fd;" horiz-adv-x="744" 
d="M708 221h-311c1 -117 56 -177 139 -177c55 0 100 21 127 88h42c-27 -93 -93 -141 -186 -141c-85 0 -146 44 -175 106c-39 -72 -109 -104 -169 -104c-82 0 -129 47 -129 117c0 29 10 58 31 80c35 35 83 48 171 62c61 10 71 12 71 29v44c0 66 -33 90 -93 90
c-35 0 -65 -9 -86 -26c17 -9 27 -25 27 -46c0 -29 -20 -51 -52 -51s-53 23 -53 54c0 65 84 111 177 111c72 0 117 -22 138 -66c35 42 85 67 145 67c130 0 189 -118 186 -237zM518 415c-65 0 -111 -51 -120 -151h229c-7 94 -42 151 -109 151zM209 46c53 0 110 44 110 96v89
c-9 -3 -25 -6 -49 -10c-102 -16 -139 -37 -139 -97c0 -50 26 -78 78 -78zM373 527l50 126c19 50 35 70 60 70c19 0 36 -15 36 -37c0 -20 -14 -39 -43 -76l-65 -83h-38z" />
    <glyph glyph-name="Agrave" unicode="&#xc0;" horiz-adv-x="672" 
d="M503 52l-65 183h-242l-69 -183h88v-52h-219v52h70l238 605h70l222 -605h84v-52h-280v52h103zM320 559l-106 -277h207l-98 277h-3zM373 737h-38l-65 83c-29 37 -43 56 -43 76c0 22 17 37 36 37c25 0 41 -21 60 -70z" />
    <glyph glyph-name="agrave" unicode="&#xe0;" horiz-adv-x="483" 
d="M175 -7c-82 0 -129 47 -129 117c0 29 10 58 31 80c35 35 83 48 171 62c61 10 71 12 71 29v44c0 66 -33 90 -93 90c-35 0 -65 -9 -86 -26c17 -9 27 -25 27 -46c0 -29 -20 -51 -52 -51s-53 23 -53 54c0 65 84 111 177 111c103 0 158 -44 158 -135v-235c0 -31 10 -40 30 -40
c17 0 29 14 40 40l30 -17c-23 -51 -48 -75 -93 -75c-41 0 -75 24 -76 83h-3c-30 -51 -89 -85 -150 -85zM209 46c53 0 110 44 110 96v89c-9 -3 -25 -6 -49 -10c-102 -16 -139 -37 -139 -97c0 -50 26 -78 78 -78zM277 527h-38l-65 83c-29 37 -43 56 -43 76c0 22 17 37 36 37
c25 0 41 -21 60 -70z" />
    <glyph glyph-name="Amacron" unicode="&#x100;" horiz-adv-x="672" 
d="M503 52l-65 183h-242l-69 -183h88v-52h-219v52h70l238 605h70l222 -605h84v-52h-280v52h103zM320 559l-106 -277h207l-98 277h-3zM215 756v62h251v-62h-251z" />
    <glyph glyph-name="amacron" unicode="&#x101;" horiz-adv-x="483" 
d="M175 -7c-82 0 -129 47 -129 117c0 29 10 58 31 80c35 35 83 48 171 62c61 10 71 12 71 29v44c0 66 -33 90 -93 90c-35 0 -65 -9 -86 -26c17 -9 27 -25 27 -46c0 -29 -20 -51 -52 -51s-53 23 -53 54c0 65 84 111 177 111c103 0 158 -44 158 -135v-235c0 -31 10 -40 30 -40
c17 0 29 14 40 40l30 -17c-23 -51 -48 -75 -93 -75c-41 0 -75 24 -76 83h-3c-30 -51 -89 -85 -150 -85zM209 46c53 0 110 44 110 96v89c-9 -3 -25 -6 -49 -10c-102 -16 -139 -37 -139 -97c0 -50 26 -78 78 -78zM119 546v62h251v-62h-251z" />
    <glyph glyph-name="Aogonek" unicode="&#x104;" horiz-adv-x="672" 
d="M534 -237c-61 0 -98 34 -98 86c0 45 28 83 90 137l16 14h-142v52h103l-65 183h-242l-69 -183h88v-52h-219v52h70l238 605h70l222 -605h84v-52h-90l-15 -15c-60 -62 -75 -96 -75 -125c0 -35 24 -52 52 -52c24 0 43 12 57 22l19 -28c-26 -23 -59 -39 -94 -39zM320 559
l-106 -277h207l-98 277h-3z" />
    <glyph glyph-name="aogonek" unicode="&#x105;" horiz-adv-x="483" 
d="M389 -237c-60 0 -98 34 -98 86c0 45 26 83 102 147c-37 4 -64 28 -65 82h-3c-30 -51 -89 -85 -150 -85c-82 0 -129 47 -129 117c0 33 13 65 42 88c35 29 81 41 167 55c56 9 64 12 64 28v44c0 66 -33 90 -93 90c-35 0 -65 -9 -86 -26c17 -9 27 -25 27 -46
c0 -29 -20 -51 -52 -51s-53 23 -53 54c0 65 84 111 177 111c103 0 158 -44 158 -135v-235c0 -31 10 -40 30 -40c17 0 29 14 40 40l30 -17c-11 -24 -19 -39 -48 -67c-54 -54 -94 -100 -94 -143c0 -35 24 -52 52 -52c24 0 44 12 58 22l18 -28c-26 -23 -59 -39 -94 -39zM209 46
c53 0 110 44 110 96v89c-9 -3 -25 -6 -49 -10c-102 -16 -139 -37 -139 -97c0 -50 26 -78 78 -78z" />
    <glyph glyph-name="Aring" unicode="&#xc5;" horiz-adv-x="672" 
d="M337 679c37 0 59 31 59 68c0 41 -22 69 -59 69s-59 -28 -59 -69c0 -37 22 -68 59 -68zM421 282l-98 277h-3l-106 -277h207zM197 235l-70 -183h88v-52h-219v52h70l235 600c-45 13 -68 53 -68 95c0 53 35 101 104 101s104 -48 104 -101c0 -41 -21 -81 -66 -94l221 -601h84
v-52h-280v52h103l-65 183h-241z" />
    <glyph glyph-name="aring" unicode="&#xe5;" horiz-adv-x="483" 
d="M175 -7c-82 0 -129 47 -129 117c0 29 10 58 31 80c35 35 83 48 171 62c61 10 71 12 71 29v44c0 66 -33 90 -93 90c-35 0 -65 -9 -86 -26c17 -9 27 -25 27 -46c0 -29 -20 -51 -52 -51s-53 23 -53 54c0 65 84 111 177 111c103 0 158 -44 158 -135v-235c0 -31 10 -40 30 -40
c17 0 29 14 40 40l30 -17c-23 -51 -48 -75 -93 -75c-41 0 -75 24 -76 83h-3c-30 -51 -89 -85 -150 -85zM209 46c53 0 110 44 110 96v89c-9 -3 -25 -6 -49 -10c-102 -16 -139 -37 -139 -97c0 -50 26 -78 78 -78zM244 521c-69 0 -105 49 -105 101c0 53 36 101 105 101
s105 -48 105 -101c0 -52 -36 -101 -105 -101zM244 554c37 0 58 29 58 68s-21 69 -58 69s-58 -30 -58 -69s21 -68 58 -68z" />
    <glyph glyph-name="Aringacute" unicode="&#x1fa;" horiz-adv-x="672" 
d="M307 889l50 126c19 50 35 70 60 70c19 0 36 -15 36 -37c0 -20 -14 -39 -43 -76l-65 -83h-38zM337 679c37 0 59 31 59 68c0 41 -22 69 -59 69s-59 -28 -59 -69c0 -37 22 -68 59 -68zM421 282l-98 277h-3l-106 -277h207zM197 235l-70 -183h88v-52h-219v52h70l235 600
c-45 13 -68 53 -68 95c0 53 35 101 104 101s104 -48 104 -101c0 -41 -21 -81 -66 -94l221 -601h84v-52h-280v52h103l-65 183h-241z" />
    <glyph glyph-name="aringacute" unicode="&#x1fb;" horiz-adv-x="483" 
d="M175 -7c-82 0 -129 47 -129 117c0 29 10 58 31 80c35 35 83 48 171 62c61 10 71 12 71 29v44c0 66 -33 90 -93 90c-35 0 -65 -9 -86 -26c17 -9 27 -25 27 -46c0 -29 -20 -51 -52 -51s-53 23 -53 54c0 65 84 111 177 111c103 0 158 -44 158 -135v-235c0 -31 10 -40 30 -40
c17 0 29 14 40 40l30 -17c-23 -51 -48 -75 -93 -75c-41 0 -75 24 -76 83h-3c-30 -51 -89 -85 -150 -85zM209 46c53 0 110 44 110 96v89c-9 -3 -25 -6 -49 -10c-102 -16 -139 -37 -139 -97c0 -50 26 -78 78 -78zM213 765l50 126c19 50 35 70 60 70c19 0 36 -15 36 -37
c0 -20 -14 -39 -43 -76l-65 -83h-38zM242 521c-69 0 -105 49 -105 101c0 53 36 101 105 101s105 -48 105 -101c0 -52 -36 -101 -105 -101zM242 554c37 0 58 29 58 68s-21 69 -58 69s-58 -30 -58 -69s21 -68 58 -68z" />
    <glyph glyph-name="Atilde" unicode="&#xc3;" horiz-adv-x="672" 
d="M503 52l-65 183h-242l-69 -183h88v-52h-219v52h70l238 605h70l222 -605h84v-52h-280v52h103zM320 559l-106 -277h207l-98 277h-3zM194 743c12 91 38 122 89 122c52 0 93 -57 126 -57c24 0 34 24 41 63h37c-12 -91 -38 -123 -89 -123c-52 0 -93 58 -126 58
c-24 0 -34 -24 -41 -63h-37z" />
    <glyph glyph-name="atilde" unicode="&#xe3;" horiz-adv-x="483" 
d="M175 -7c-82 0 -129 47 -129 117c0 29 10 58 31 80c35 35 83 48 171 62c61 10 71 12 71 29v44c0 66 -33 90 -93 90c-35 0 -65 -9 -86 -26c17 -9 27 -25 27 -46c0 -29 -20 -51 -52 -51s-53 23 -53 54c0 65 84 111 177 111c103 0 158 -44 158 -135v-235c0 -31 10 -40 30 -40
c17 0 29 14 40 40l30 -17c-23 -51 -48 -75 -93 -75c-41 0 -75 24 -76 83h-3c-30 -51 -89 -85 -150 -85zM209 46c53 0 110 44 110 96v89c-9 -3 -25 -6 -49 -10c-102 -16 -139 -37 -139 -97c0 -50 26 -78 78 -78zM98 533c12 91 38 122 89 122c52 0 93 -57 126 -57
c24 0 34 24 41 63h37c-12 -91 -38 -123 -89 -123c-52 0 -93 58 -126 58c-24 0 -34 -24 -41 -63h-37z" />
    <glyph glyph-name="Cacute" unicode="&#x106;" horiz-adv-x="675" 
d="M325 737l50 126c19 50 35 70 60 70c19 0 36 -15 36 -37c0 -20 -14 -39 -43 -76l-65 -83h-38zM349 -16c-180 0 -302 143 -302 343c0 192 135 341 304 341c85 0 147 -33 187 -79l19 76h52v-247h-46c-41 122 -106 195 -211 195c-122 0 -209 -98 -209 -280
c0 -188 88 -292 220 -292c117 0 191 89 209 214h56c-19 -173 -125 -271 -279 -271z" />
    <glyph glyph-name="cacute" unicode="&#x107;" horiz-adv-x="472" 
d="M237 527l50 126c19 50 35 70 60 70c19 0 36 -15 36 -37c0 -20 -14 -39 -43 -76l-65 -83h-38zM248 -9c-125 0 -209 95 -209 225c0 142 92 242 227 242c98 0 170 -69 170 -127c0 -39 -22 -69 -58 -69c-34 0 -54 25 -54 54c0 24 16 46 38 54c-16 24 -48 46 -99 46
c-82 0 -140 -73 -140 -190c0 -114 54 -183 144 -183c63 0 107 36 132 103h43c-26 -101 -97 -155 -194 -155z" />
    <glyph glyph-name="Ccaron" unicode="&#x10c;" horiz-adv-x="675" 
d="M333 747l-109 181h39l88 -101l88 101h39l-108 -181h-37zM349 -16c-180 0 -302 143 -302 343c0 192 135 341 304 341c85 0 147 -33 187 -79l19 76h52v-247h-46c-41 122 -106 195 -211 195c-122 0 -209 -98 -209 -280c0 -188 88 -292 220 -292c117 0 191 89 209 214h56
c-19 -173 -125 -271 -279 -271z" />
    <glyph glyph-name="ccaron" unicode="&#x10d;" horiz-adv-x="472" 
d="M245 537l-109 181h39l88 -101l88 101h39l-108 -181h-37zM248 -9c-125 0 -209 95 -209 225c0 142 92 242 227 242c98 0 170 -69 170 -127c0 -39 -22 -69 -58 -69c-34 0 -54 25 -54 54c0 24 16 46 38 54c-16 24 -48 46 -99 46c-82 0 -140 -73 -140 -190
c0 -114 54 -183 144 -183c63 0 107 36 132 103h43c-26 -101 -97 -155 -194 -155z" />
    <glyph glyph-name="Ccedilla" unicode="&#xc7;" horiz-adv-x="675" 
d="M341 -237c-34 0 -71 10 -101 30l19 32c25 -15 48 -23 74 -23c35 0 57 16 57 43c0 30 -31 46 -70 46c-16 0 -27 -2 -38 -5l-14 19l76 79c-178 3 -297 145 -297 343c0 192 135 341 304 341c85 0 147 -33 187 -79l19 76h52v-247h-46c-41 122 -106 195 -211 195
c-122 0 -209 -98 -209 -280c0 -188 88 -292 220 -292c117 0 191 89 209 214h56c-17 -155 -104 -250 -233 -268l-54 -54l1 -3c64 -2 105 -34 105 -79c0 -54 -44 -88 -106 -88z" />
    <glyph glyph-name="ccedilla" unicode="&#xe7;" horiz-adv-x="472" 
d="M237 -237c-34 0 -71 10 -101 30l19 32c25 -15 48 -23 74 -23c35 0 57 16 57 43c0 30 -31 46 -70 46c-16 0 -27 -2 -38 -5l-14 19l82 86c-124 1 -207 95 -207 225c0 142 92 242 227 242c98 0 170 -69 170 -127c0 -39 -22 -69 -58 -69c-34 0 -54 25 -54 54
c0 24 16 46 38 54c-16 24 -48 46 -99 46c-82 0 -140 -73 -140 -190c0 -114 54 -183 144 -183c63 0 107 36 132 103h43c-21 -82 -72 -133 -141 -149l-64 -64l1 -3c64 -2 105 -34 105 -79c0 -54 -44 -88 -106 -88z" />
    <glyph glyph-name="Cdotaccent" unicode="&#x10a;" horiz-adv-x="675" 
d="M349 -16c-180 0 -302 143 -302 343c0 192 135 341 304 341c85 0 147 -33 187 -79l19 76h52v-247h-46c-41 122 -106 195 -211 195c-122 0 -209 -98 -209 -280c0 -188 88 -292 220 -292c117 0 191 89 209 214h56c-19 -173 -125 -271 -279 -271zM350 741
c-31 0 -54 22 -54 55c0 30 23 55 54 55c29 0 53 -23 53 -55c0 -31 -24 -55 -53 -55z" />
    <glyph glyph-name="cdotaccent" unicode="&#x10b;" horiz-adv-x="472" 
d="M248 -9c-125 0 -209 95 -209 225c0 142 92 242 227 242c98 0 170 -69 170 -127c0 -39 -22 -69 -58 -69c-34 0 -54 25 -54 54c0 24 16 46 38 54c-16 24 -48 46 -99 46c-82 0 -140 -73 -140 -190c0 -114 54 -183 144 -183c63 0 107 36 132 103h43
c-26 -101 -97 -155 -194 -155zM262 531c-31 0 -54 22 -54 55c0 30 23 55 54 55c29 0 53 -23 53 -55c0 -31 -24 -55 -53 -55z" />
    <glyph glyph-name="Dcaron" unicode="&#x10e;" horiz-adv-x="704" 
d="M345 747l-109 181h39l88 -101l88 101h39l-108 -181h-37zM32 0v52h111v549h-111v51h270c239 0 357 -127 357 -316c0 -186 -107 -336 -351 -336h-276zM227 52h83c176 0 253 89 253 284c0 172 -78 265 -260 265h-76v-549z" />
    <glyph glyph-name="dcaron" unicode="&#x10f;" horiz-adv-x="535" 
d="M550 532h-32l-3 144c-1 56 18 75 42 75c19 0 35 -14 35 -42c0 -15 -4 -34 -12 -63zM218 -8c-46 0 -84 17 -111 44c-44 43 -65 108 -65 183c0 76 26 148 69 191c30 30 68 48 116 48c62 0 112 -33 140 -87v262h-76v54h153v-635h72v-52h-147v98c-35 -71 -90 -106 -151 -106z
M243 44c69 0 127 74 127 188c0 104 -51 174 -124 174s-119 -68 -119 -182c0 -115 51 -180 116 -180z" />
    <glyph glyph-name="Dcroat" unicode="&#x110;" horiz-adv-x="704" 
d="M32 0v52h111v264h-111v51h111v234h-111v51h270c239 0 357 -127 357 -316c0 -186 -107 -336 -351 -336h-276zM227 52h83c176 0 253 89 253 284c0 172 -78 265 -260 265h-76v-234h143v-51h-143v-264z" />
    <glyph glyph-name="dcroat" unicode="&#x111;" horiz-adv-x="535" 
d="M218 -8c-46 0 -84 17 -111 44c-44 43 -65 108 -65 183c0 76 26 148 69 191c30 30 68 48 116 48c62 0 112 -33 140 -87v139h-129v44h129v79h-76v54h153v-133h72v-44h-72v-458h72v-52h-147v98c-35 -71 -90 -106 -151 -106zM243 44c69 0 127 74 127 188
c0 104 -51 174 -124 174s-119 -68 -119 -182c0 -115 51 -180 116 -180z" />
    <glyph glyph-name="Eacute" unicode="&#xc9;" horiz-adv-x="657" 
d="M331 737l50 126c19 50 35 70 60 70c19 0 36 -15 36 -37c0 -20 -14 -39 -43 -76l-65 -83h-38zM32 0v52h111v549h-111v51h558v-204h-39c-27 128 -36 153 -99 153h-225v-243h99c60 0 67 10 82 100h41v-249h-41c-13 94 -22 104 -82 104h-99v-261h223c73 0 82 25 110 172h39
v-224h-567z" />
    <glyph glyph-name="eacute" unicode="&#xe9;" horiz-adv-x="476" 
d="M439 221h-316c2 -117 59 -177 144 -177c55 0 101 21 128 88h42c-27 -93 -94 -141 -187 -141c-131 0 -211 95 -211 229c0 137 94 238 214 238c131 0 189 -118 186 -237zM248 415c-66 0 -114 -51 -124 -151h235c-7 94 -42 151 -111 151zM227 527l50 126c19 50 35 70 60 70
c19 0 36 -15 36 -37c0 -20 -14 -39 -43 -76l-65 -83h-38z" />
    <glyph glyph-name="Ebreve" unicode="&#x114;" horiz-adv-x="657" 
d="M32 0v52h111v549h-111v51h558v-204h-39c-27 128 -36 153 -99 153h-225v-243h99c60 0 67 10 82 100h41v-249h-41c-13 94 -22 104 -82 104h-99v-261h223c73 0 82 25 110 172h39v-224h-567zM356 744c-74 0 -125 56 -129 150h31c16 -55 46 -88 98 -88c53 0 82 33 98 88h31
c-3 -94 -54 -150 -129 -150z" />
    <glyph glyph-name="ebreve" unicode="&#x115;" horiz-adv-x="476" 
d="M439 221h-316c2 -117 59 -177 144 -177c55 0 101 21 128 88h42c-27 -93 -94 -141 -187 -141c-131 0 -211 95 -211 229c0 137 94 238 214 238c131 0 189 -118 186 -237zM248 415c-66 0 -114 -51 -124 -151h235c-7 94 -42 151 -111 151zM252 534c-74 0 -125 56 -129 150h31
c16 -55 46 -88 98 -88c53 0 82 33 98 88h31c-3 -94 -54 -150 -129 -150z" />
    <glyph glyph-name="Ecaron" unicode="&#x11a;" horiz-adv-x="657" 
d="M340 747l-109 181h39l88 -101l88 101h39l-108 -181h-37zM32 0v52h111v549h-111v51h558v-204h-39c-27 128 -36 153 -99 153h-225v-243h99c60 0 67 10 82 100h41v-249h-41c-13 94 -22 104 -82 104h-99v-261h223c73 0 82 25 110 172h39v-224h-567z" />
    <glyph glyph-name="ecaron" unicode="&#x11b;" horiz-adv-x="476" 
d="M439 221h-316c2 -117 59 -177 144 -177c55 0 101 21 128 88h42c-27 -93 -94 -141 -187 -141c-131 0 -211 95 -211 229c0 137 94 238 214 238c131 0 189 -118 186 -237zM248 415c-66 0 -114 -51 -124 -151h235c-7 94 -42 151 -111 151zM235 537l-109 181h39l88 -101
l88 101h39l-108 -181h-37z" />
    <glyph glyph-name="Ecircumflex" unicode="&#xca;" horiz-adv-x="657" 
d="M229 738l108 181h37l109 -181h-39l-88 102l-88 -102h-39zM32 0v52h111v549h-111v51h558v-204h-39c-27 128 -36 153 -99 153h-225v-243h99c60 0 67 10 82 100h41v-249h-41c-13 94 -22 104 -82 104h-99v-261h223c73 0 82 25 110 172h39v-224h-567z" />
    <glyph glyph-name="ecircumflex" unicode="&#xea;" horiz-adv-x="476" 
d="M439 221h-316c2 -117 59 -177 144 -177c55 0 101 21 128 88h42c-27 -93 -94 -141 -187 -141c-131 0 -211 95 -211 229c0 137 94 238 214 238c131 0 189 -118 186 -237zM248 415c-66 0 -114 -51 -124 -151h235c-7 94 -42 151 -111 151zM125 528l108 181h37l109 -181h-39
l-88 102l-88 -102h-39z" />
    <glyph glyph-name="Edieresis" unicode="&#xcb;" horiz-adv-x="657" 
d="M443 760c-29 0 -52 24 -52 54s23 55 52 55s51 -25 51 -55s-22 -54 -51 -54zM269 760c-29 0 -51 24 -51 54s22 55 51 55s52 -25 52 -55s-23 -54 -52 -54zM32 0v52h111v549h-111v51h558v-204h-39c-27 128 -36 153 -99 153h-225v-243h99c60 0 67 10 82 100h41v-249h-41
c-13 94 -22 104 -82 104h-99v-261h223c73 0 82 25 110 172h39v-224h-567z" />
    <glyph glyph-name="edieresis" unicode="&#xeb;" horiz-adv-x="476" 
d="M439 221h-316c2 -117 59 -177 144 -177c55 0 101 21 128 88h42c-27 -93 -94 -141 -187 -141c-131 0 -211 95 -211 229c0 137 94 238 214 238c131 0 189 -118 186 -237zM248 415c-66 0 -114 -51 -124 -151h235c-7 94 -42 151 -111 151zM165 550c-29 0 -51 24 -51 54
s22 55 51 55s52 -25 52 -55s-23 -54 -52 -54zM339 550c-29 0 -52 24 -52 54s23 55 52 55s51 -25 51 -55s-22 -54 -51 -54z" />
    <glyph glyph-name="Edotaccent" unicode="&#x116;" horiz-adv-x="657" 
d="M32 0v52h111v549h-111v51h558v-204h-39c-27 128 -36 153 -99 153h-225v-243h99c60 0 67 10 82 100h41v-249h-41c-13 94 -22 104 -82 104h-99v-261h223c73 0 82 25 110 172h39v-224h-567zM357 741c-31 0 -54 22 -54 55c0 30 23 55 54 55c29 0 53 -23 53 -55
c0 -31 -24 -55 -53 -55z" />
    <glyph glyph-name="edotaccent" unicode="&#x117;" horiz-adv-x="476" 
d="M439 221h-316c2 -117 59 -177 144 -177c55 0 101 21 128 88h42c-27 -93 -94 -141 -187 -141c-131 0 -211 95 -211 229c0 137 94 238 214 238c131 0 189 -118 186 -237zM248 415c-66 0 -114 -51 -124 -151h235c-7 94 -42 151 -111 151zM252 531c-31 0 -54 22 -54 55
c0 30 23 55 54 55c29 0 53 -23 53 -55c0 -31 -24 -55 -53 -55z" />
    <glyph glyph-name="Egrave" unicode="&#xc8;" horiz-adv-x="657" 
d="M32 0v52h111v549h-111v51h558v-204h-39c-27 128 -36 153 -99 153h-225v-243h99c60 0 67 10 82 100h41v-249h-41c-13 94 -22 104 -82 104h-99v-261h223c73 0 82 25 110 172h39v-224h-567zM390 737h-38l-65 83c-29 37 -43 56 -43 76c0 22 17 37 36 37c25 0 41 -21 60 -70z
" />
    <glyph glyph-name="egrave" unicode="&#xe8;" horiz-adv-x="476" 
d="M439 221h-316c2 -117 59 -177 144 -177c55 0 101 21 128 88h42c-27 -93 -94 -141 -187 -141c-131 0 -211 95 -211 229c0 137 94 238 214 238c131 0 189 -118 186 -237zM248 415c-66 0 -114 -51 -124 -151h235c-7 94 -42 151 -111 151zM285 527h-38l-65 83
c-29 37 -43 56 -43 76c0 22 17 37 36 37c25 0 41 -21 60 -70z" />
    <glyph glyph-name="Emacron" unicode="&#x112;" horiz-adv-x="657" 
d="M32 0v52h111v549h-111v51h558v-204h-39c-27 128 -36 153 -99 153h-225v-243h99c60 0 67 10 82 100h41v-249h-41c-13 94 -22 104 -82 104h-99v-261h223c73 0 82 25 110 172h39v-224h-567zM231 756v62h251v-62h-251z" />
    <glyph glyph-name="emacron" unicode="&#x113;" horiz-adv-x="476" 
d="M439 221h-316c2 -117 59 -177 144 -177c55 0 101 21 128 88h42c-27 -93 -94 -141 -187 -141c-131 0 -211 95 -211 229c0 137 94 238 214 238c131 0 189 -118 186 -237zM248 415c-66 0 -114 -51 -124 -151h235c-7 94 -42 151 -111 151zM127 546v62h251v-62h-251z" />
    <glyph glyph-name="Eogonek" unicode="&#x118;" horiz-adv-x="657" 
d="M32 0v52h111v549h-111v51h558v-204h-39c-27 128 -36 153 -99 153h-225v-243h99c60 0 67 10 82 100h41v-249h-41c-13 94 -22 104 -82 104h-99v-261h223c73 0 82 25 110 172h39v-224h-36l-15 -15c-60 -62 -75 -96 -75 -125c0 -35 24 -52 52 -52c24 0 43 12 57 22l19 -28
c-26 -23 -59 -39 -94 -39c-61 0 -98 34 -98 86c0 45 28 83 90 137l16 14h-483z" />
    <glyph glyph-name="eogonek" unicode="&#x119;" horiz-adv-x="476" 
d="M439 221h-316c2 -117 59 -177 144 -177c55 0 101 21 128 88h42c-17 -55 -44 -85 -67 -112l-39 -43c-53 -60 -66 -89 -66 -117c0 -35 24 -52 52 -52c24 0 44 12 58 22l18 -28c-26 -23 -58 -39 -94 -39c-60 0 -98 34 -98 86c0 45 29 82 89 136l13 12c-20 -4 -37 -6 -53 -6
c-131 0 -211 95 -211 229c0 137 94 238 214 238c131 0 189 -118 186 -237zM248 415c-66 0 -114 -51 -124 -151h235c-7 94 -42 151 -111 151z" />
    <glyph glyph-name="Eth" unicode="&#xd0;" horiz-adv-x="704" 
d="M32 0v52h111v264h-111v51h111v234h-111v51h270c239 0 357 -127 357 -316c0 -186 -107 -336 -351 -336h-276zM227 52h83c176 0 253 89 253 284c0 172 -78 265 -260 265h-76v-234h143v-51h-143v-264z" />
    <glyph glyph-name="eth" unicode="&#xf0;" horiz-adv-x="518" 
d="M446 622l-92 -41c68 -82 119 -179 119 -295c0 -181 -87 -295 -226 -295c-121 0 -208 92 -208 226c0 137 89 241 210 241c65 0 111 -37 133 -77c-10 58 -43 118 -86 175l-111 -49l-18 40l101 44c-22 26 -45 51 -69 76l65 9c20 -19 40 -39 60 -60l105 46zM259 35
c73 0 129 62 129 190c0 131 -61 189 -136 189c-74 0 -129 -60 -129 -190s60 -189 136 -189z" />
    <glyph glyph-name="Gbreve" unicode="&#x11e;" 
d="M532 87c-39 -66 -106 -103 -185 -103c-183 0 -300 152 -300 344c0 185 129 340 300 340c75 0 142 -31 184 -79l19 76h52v-244h-46c-40 119 -108 192 -205 192c-128 0 -208 -100 -208 -279c0 -183 80 -292 215 -292c61 0 102 28 127 61c28 34 40 87 40 140v26h-122v52h296
v-52h-89v-276h-49zM349 744c-74 0 -125 56 -129 150h31c16 -55 46 -88 98 -88c53 0 82 33 98 88h31c-3 -94 -54 -150 -129 -150z" />
    <glyph glyph-name="gbreve" unicode="&#x11f;" horiz-adv-x="469" 
d="M404 312c0 -94 -73 -147 -176 -147c-22 0 -42 3 -61 3c-32 0 -53 -20 -53 -41c0 -26 28 -40 79 -40h119c93 0 132 -39 132 -101c0 -80 -82 -147 -226 -147c-121 0 -194 44 -194 104c0 43 39 80 96 90v3c-54 16 -74 41 -74 73c0 33 35 66 85 77c-49 25 -79 62 -79 123
c0 94 78 148 176 148c26 0 51 -5 74 -14c31 53 72 89 121 89c34 0 58 -21 58 -52c0 -25 -18 -46 -44 -46c-25 0 -40 16 -40 40c0 3 0 6 1 10c-18 1 -46 -21 -64 -56c41 -25 70 -65 70 -116zM232 203c57 0 90 38 90 108c0 61 -36 108 -97 108c-57 0 -92 -35 -92 -109
c0 -73 40 -107 99 -107zM222 -119c93 0 153 35 153 85c0 35 -22 56 -71 56h-112c-60 0 -94 -25 -94 -71c0 -40 34 -70 124 -70zM229 534c-74 0 -125 56 -129 150h31c16 -55 46 -88 98 -88c53 0 82 33 98 88h31c-3 -94 -54 -150 -129 -150z" />
    <glyph glyph-name="Gcommaaccent" unicode="&#x122;" 
d="M296 -293l-15 29c53 26 76 56 81 92l-3 2c-6 -4 -14 -7 -24 -7c-22 0 -42 20 -42 47c0 28 22 53 52 53c38 0 60 -28 60 -69c0 -62 -31 -112 -109 -147zM532 87c-39 -66 -106 -103 -185 -103c-183 0 -300 152 -300 344c0 185 129 340 300 340c75 0 142 -31 184 -79l19 76
h52v-244h-46c-40 119 -108 192 -205 192c-128 0 -208 -100 -208 -279c0 -183 80 -292 215 -292c61 0 102 28 127 61c28 34 40 87 40 140v26h-122v52h296v-52h-89v-276h-49z" />
    <glyph glyph-name="gcommaaccent" unicode="&#x123;" horiz-adv-x="469" 
d="M404 312c0 -94 -73 -147 -176 -147c-22 0 -42 3 -61 3c-32 0 -53 -20 -53 -41c0 -26 28 -40 79 -40h119c93 0 132 -39 132 -101c0 -80 -82 -147 -226 -147c-121 0 -194 44 -194 104c0 43 39 80 96 90v3c-54 16 -74 41 -74 73c0 33 35 66 85 77c-49 25 -79 62 -79 123
c0 94 78 148 176 148c26 0 51 -5 74 -14c31 53 72 89 121 89c34 0 58 -21 58 -52c0 -25 -18 -46 -44 -46c-25 0 -40 16 -40 40c0 3 0 6 1 10c-18 1 -46 -21 -64 -56c41 -25 70 -65 70 -116zM232 203c57 0 90 38 90 108c0 61 -36 108 -97 108c-57 0 -92 -35 -92 -109
c0 -73 40 -107 99 -107zM222 -119c93 0 153 35 153 85c0 35 -22 56 -71 56h-112c-60 0 -94 -25 -94 -71c0 -40 34 -70 124 -70zM282 747l15 -29c-53 -26 -76 -56 -81 -92l3 -2c6 4 14 7 24 7c22 0 42 -20 42 -47c0 -28 -22 -53 -52 -53c-38 0 -60 28 -60 69
c0 62 31 112 109 147z" />
    <glyph glyph-name="Gdotaccent" unicode="&#x120;" 
d="M532 87c-39 -66 -106 -103 -185 -103c-183 0 -300 152 -300 344c0 185 129 340 300 340c75 0 142 -31 184 -79l19 76h52v-244h-46c-40 119 -108 192 -205 192c-128 0 -208 -100 -208 -279c0 -183 80 -292 215 -292c61 0 102 28 127 61c28 34 40 87 40 140v26h-122v52h296
v-52h-89v-276h-49zM350 741c-31 0 -54 22 -54 55c0 30 23 55 54 55c29 0 53 -23 53 -55c0 -31 -24 -55 -53 -55z" />
    <glyph glyph-name="gdotaccent" unicode="&#x121;" horiz-adv-x="469" 
d="M404 312c0 -94 -73 -147 -176 -147c-22 0 -42 3 -61 3c-32 0 -53 -20 -53 -41c0 -26 28 -40 79 -40h119c93 0 132 -39 132 -101c0 -80 -82 -147 -226 -147c-121 0 -194 44 -194 104c0 43 39 80 96 90v3c-54 16 -74 41 -74 73c0 33 35 66 85 77c-49 25 -79 62 -79 123
c0 94 78 148 176 148c26 0 51 -5 74 -14c31 53 72 89 121 89c34 0 58 -21 58 -52c0 -25 -18 -46 -44 -46c-25 0 -40 16 -40 40c0 3 0 6 1 10c-18 1 -46 -21 -64 -56c41 -25 70 -65 70 -116zM232 203c57 0 90 38 90 108c0 61 -36 108 -97 108c-57 0 -92 -35 -92 -109
c0 -73 40 -107 99 -107zM222 -119c93 0 153 35 153 85c0 35 -22 56 -71 56h-112c-60 0 -94 -25 -94 -71c0 -40 34 -70 124 -70zM230 531c-31 0 -54 22 -54 55c0 30 23 55 54 55c29 0 53 -23 53 -55c0 -31 -24 -55 -53 -55z" />
    <glyph glyph-name="Hbar" unicode="&#x126;" horiz-adv-x="772" 
d="M32 453v46h111v102h-111v51h293v-51h-98v-102h317v102h-97v51h293v-51h-111v-102h111v-46h-111v-401h111v-52h-293v52h97v252h-317v-252h98v-52h-293v52h111v401h-111zM227 351h317v102h-317v-102z" />
    <glyph glyph-name="hbar" unicode="&#x127;" horiz-adv-x="556" 
d="M22 0v52h75v458h-75v44h75v79h-75v54h153v-133h126v-44h-126v-174c52 91 110 121 168 121c76 0 122 -50 122 -142v-263h75v-52h-221v52h69v228c0 42 -7 74 -26 93c-14 15 -34 21 -57 21c-66 0 -130 -73 -130 -146v-196h68v-52h-221z" />
    <glyph glyph-name="Iacute" unicode="&#xcd;" horiz-adv-x="384" 
d="M39 0v52h110v549h-110v51h306v-51h-111v-549h111v-52h-306zM166 737l50 126c19 50 35 70 60 70c19 0 36 -15 36 -37c0 -20 -14 -39 -43 -76l-65 -83h-38z" />
    <glyph glyph-name="iacute" unicode="&#xed;" horiz-adv-x="300" 
d="M121 527l50 126c19 50 35 70 60 70c19 0 36 -15 36 -37c0 -20 -14 -39 -43 -76l-65 -83h-38zM36 0v52h85v346h-85v52h162v-398h85v-52h-247z" />
    <glyph glyph-name="Ibreve" unicode="&#x12c;" horiz-adv-x="384" 
d="M39 0v52h110v549h-110v51h306v-51h-111v-549h111v-52h-306zM191 744c-74 0 -125 56 -129 150h31c16 -55 46 -88 98 -88c53 0 82 33 98 88h31c-3 -94 -54 -150 -129 -150z" />
    <glyph glyph-name="ibreve" unicode="&#x12d;" horiz-adv-x="300" 
d="M36 0v52h85v346h-85v52h162v-398h85v-52h-247zM147 534c-74 0 -125 56 -129 150h31c16 -55 46 -88 98 -88c53 0 82 33 98 88h31c-3 -94 -54 -150 -129 -150z" />
    <glyph glyph-name="Icircumflex" unicode="&#xce;" horiz-adv-x="384" 
d="M39 0v52h110v549h-110v51h306v-51h-111v-549h111v-52h-306zM64 738l108 181h37l109 -181h-39l-88 102l-88 -102h-39z" />
    <glyph glyph-name="icircumflex" unicode="&#xee;" horiz-adv-x="300" 
d="M20 528l108 181h37l109 -181h-39l-88 102l-88 -102h-39zM36 0v52h85v346h-85v52h162v-398h85v-52h-247z" />
    <glyph glyph-name="Idieresis" unicode="&#xcf;" horiz-adv-x="384" 
d="M39 0v52h110v549h-110v51h306v-51h-111v-549h111v-52h-306zM278 760c-29 0 -52 24 -52 54s23 55 52 55s51 -25 51 -55s-22 -54 -51 -54zM104 760c-29 0 -51 24 -51 54s22 55 51 55s52 -25 52 -55s-23 -54 -52 -54z" />
    <glyph glyph-name="idieresis" unicode="&#xef;" horiz-adv-x="300" 
d="M234 550c-29 0 -52 24 -52 54s23 55 52 55s51 -25 51 -55s-22 -54 -51 -54zM60 550c-29 0 -51 24 -51 54s22 55 51 55s52 -25 52 -55s-23 -54 -52 -54zM36 0v52h85v346h-85v52h162v-398h85v-52h-247z" />
    <glyph glyph-name="Idotaccent" unicode="&#x130;" horiz-adv-x="384" 
d="M39 0v52h110v549h-110v51h306v-51h-111v-549h111v-52h-306zM192 741c-31 0 -54 22 -54 55c0 30 23 55 54 55c29 0 53 -23 53 -55c0 -31 -24 -55 -53 -55z" />
    <glyph glyph-name="dotlessi" unicode="&#x131;" horiz-adv-x="300" 
d="M36 0v52h85v346h-85v52h162v-398h85v-52h-247z" />
    <glyph glyph-name="Igrave" unicode="&#xcc;" horiz-adv-x="384" 
d="M39 0v52h110v549h-110v51h306v-51h-111v-549h111v-52h-306zM224 737h-38l-65 83c-29 37 -43 56 -43 76c0 22 17 37 36 37c25 0 41 -21 60 -70z" />
    <glyph glyph-name="igrave" unicode="&#xec;" horiz-adv-x="300" 
d="M36 0v52h85v346h-85v52h162v-398h85v-52h-247zM180 527h-38l-65 83c-29 37 -43 56 -43 76c0 22 17 37 36 37c25 0 41 -21 60 -70z" />
    <glyph glyph-name="Imacron" unicode="&#x12a;" horiz-adv-x="384" 
d="M39 0v52h110v549h-110v51h306v-51h-111v-549h111v-52h-306zM66 756v62h251v-62h-251z" />
    <glyph glyph-name="imacron" unicode="&#x12b;" horiz-adv-x="300" 
d="M36 0v52h85v346h-85v52h162v-398h85v-52h-247zM22 546v62h251v-62h-251z" />
    <glyph glyph-name="Iogonek" unicode="&#x12e;" horiz-adv-x="384" 
d="M39 0v52h110v549h-110v51h306v-51h-111v-549h111v-52h-101l-15 -15c-60 -62 -75 -96 -75 -125c0 -35 24 -52 52 -52c24 0 43 12 57 22l19 -28c-26 -23 -59 -39 -94 -39c-61 0 -98 34 -98 86c0 45 28 83 90 137l16 14h-157z" />
    <glyph glyph-name="iogonek" unicode="&#x12f;" horiz-adv-x="300" 
d="M36 0v52h85v346h-85v52h162v-398h85v-52h-73l-15 -15c-60 -62 -75 -96 -75 -125c0 -35 24 -52 52 -52c24 0 43 12 57 22l19 -28c-26 -23 -59 -39 -94 -39c-61 0 -98 34 -98 86c0 45 28 83 90 137l16 14h-126zM154 552c-33 0 -57 21 -57 56c0 33 23 58 57 58
c31 0 55 -23 55 -57s-24 -57 -55 -57z" />
    <glyph glyph-name="Kcommaaccent" unicode="&#x136;" horiz-adv-x="717" 
d="M227 229v-177h98v-52h-293v52h111v549h-111v51h293v-51h-98v-305l298 305h-90v51h251v-51h-84l-221 -219l246 -330h80v-52h-274v52h90l-199 273zM308 -293l-15 29c53 26 76 56 81 92l-3 2c-6 -4 -14 -7 -24 -7c-22 0 -42 20 -42 47c0 28 22 53 52 53c38 0 60 -28 60 -69
c0 -62 -31 -112 -109 -147z" />
    <glyph glyph-name="kcommaaccent" unicode="&#x137;" horiz-adv-x="522" 
d="M422 398l-123 -125l156 -221h57v-52h-205v51h60l-119 173l-73 -74v-98h62v-52h-215v52h75v581h-75v54h153v-481l182 193h-75v51h208v-52h-68zM203 -293l-15 29c53 26 76 56 81 92l-3 2c-6 -4 -14 -7 -24 -7c-22 0 -42 20 -42 47c0 28 22 53 52 53c38 0 60 -28 60 -69
c0 -62 -31 -112 -109 -147z" />
    <glyph glyph-name="Lacute" unicode="&#x139;" horiz-adv-x="606" 
d="M164 737l50 126c19 50 35 70 60 70c19 0 36 -15 36 -37c0 -20 -14 -39 -43 -76l-65 -83h-38zM32 652h312v-51h-117v-549h197c59 0 69 31 106 193h39v-245h-537v52h111v549h-111v51z" />
    <glyph glyph-name="lacute" unicode="&#x13a;" horiz-adv-x="284" 
d="M107 764l50 126c19 50 35 70 60 70c19 0 36 -15 36 -37c0 -20 -14 -39 -43 -76l-65 -83h-38zM18 0v52h85v581h-85v54h163v-635h84v-52h-247z" />
    <glyph glyph-name="Lcaron" unicode="&#x13d;" horiz-adv-x="606" 
d="M445 498h-32l-3 144c-1 56 18 75 42 75c19 0 35 -14 35 -42c0 -15 -4 -34 -12 -63zM32 652h312v-51h-117v-549h197c59 0 69 31 106 193h39v-245h-537v52h111v549h-111v51z" />
    <glyph glyph-name="lcaron" unicode="&#x13e;" horiz-adv-x="284" 
d="M287 532h-32l-3 144c-1 56 18 75 42 75c19 0 35 -14 35 -42c0 -15 -4 -34 -12 -63zM18 0v52h85v581h-85v54h163v-635h84v-52h-247z" />
    <glyph glyph-name="Lcommaaccent" unicode="&#x13b;" horiz-adv-x="606" 
d="M264 -293l-15 29c53 26 76 56 81 92l-3 2c-6 -4 -14 -7 -24 -7c-22 0 -42 20 -42 47c0 28 22 53 52 53c38 0 60 -28 60 -69c0 -62 -31 -112 -109 -147zM32 652h312v-51h-117v-549h197c59 0 69 31 106 193h39v-245h-537v52h111v549h-111v51z" />
    <glyph glyph-name="lcommaaccent" unicode="&#x13c;" horiz-adv-x="284" 
d="M88 -293l-15 29c53 26 76 56 81 92l-3 2c-6 -4 -14 -7 -24 -7c-22 0 -42 20 -42 47c0 28 22 53 52 53c38 0 60 -28 60 -69c0 -62 -31 -112 -109 -147zM18 0v52h85v581h-85v54h163v-635h84v-52h-247z" />
    <glyph glyph-name="Ldot" unicode="&#x13f;" horiz-adv-x="606" 
d="M32 652h312v-51h-117v-549h197c59 0 69 29 106 182h39v-234h-537v52h111v549h-111v51zM475 307c-31 0 -54 21 -54 54c0 30 23 55 54 55c29 0 52 -23 52 -55c0 -31 -24 -54 -52 -54z" />
    <glyph glyph-name="ldot" unicode="&#x140;" horiz-adv-x="359" 
d="M322 295c-30 0 -53 21 -53 53c0 30 23 54 53 54c29 0 52 -22 52 -53c0 -32 -23 -54 -52 -54zM18 0v52h85v581h-85v54h163v-635h84v-52h-247z" />
    <glyph glyph-name="Lslash" unicode="&#x141;" horiz-adv-x="606" 
d="M32 652h312v-51h-117v-237l179 59v-49l-179 -60v-262h197c59 0 69 31 106 193h39v-245h-537v52h111v233l-87 -29v51l87 29v265h-111v51z" />
    <glyph glyph-name="lslash" unicode="&#x142;" horiz-adv-x="300" 
d="M26 0v52h85v259l-85 -28v46l85 29v275h-85v54h163v-303l91 31v-47l-91 -31v-285h84v-52h-247z" />
    <glyph glyph-name="Nacute" unicode="&#x143;" horiz-adv-x="767" 
d="M361 737l50 126c19 50 35 70 60 70c19 0 36 -15 36 -37c0 -20 -14 -39 -43 -76l-65 -83h-38zM589 -16l-388 562h-5v-494h100v-52h-262v52h104v549h-104v51h196l350 -506h5v455h-101v51h259v-51h-99v-617h-55z" />
    <glyph glyph-name="nacute" unicode="&#x144;" horiz-adv-x="568" 
d="M270 527l50 126c19 50 35 70 60 70c19 0 36 -15 36 -37c0 -20 -14 -39 -43 -76l-65 -83h-38zM34 0v52h75v346h-75v52h151v-116c53 92 112 123 170 123c76 0 122 -50 122 -142v-263h75v-52h-221v52h69v228c0 42 -7 74 -26 93c-14 15 -34 21 -57 21
c-66 0 -130 -73 -130 -146v-196h68v-52h-221z" />
    <glyph glyph-name="Ncaron" unicode="&#x147;" horiz-adv-x="767" 
d="M370 747l-109 181h39l88 -101l88 101h39l-108 -181h-37zM589 -16l-388 562h-5v-494h100v-52h-262v52h104v549h-104v51h196l350 -506h5v455h-101v51h259v-51h-99v-617h-55z" />
    <glyph glyph-name="ncaron" unicode="&#x148;" horiz-adv-x="568" 
d="M278 537l-109 181h39l88 -101l88 101h39l-108 -181h-37zM34 0v52h75v346h-75v52h151v-116c53 92 112 123 170 123c76 0 122 -50 122 -142v-263h75v-52h-221v52h69v228c0 42 -7 74 -26 93c-14 15 -34 21 -57 21c-66 0 -130 -73 -130 -146v-196h68v-52h-221z" />
    <glyph glyph-name="Ncommaaccent" unicode="&#x145;" horiz-adv-x="767" 
d="M336 -293l-15 29c53 26 76 56 81 92l-3 2c-6 -4 -14 -7 -24 -7c-22 0 -42 20 -42 47c0 28 22 53 52 53c38 0 60 -28 60 -69c0 -62 -31 -112 -109 -147zM589 -16l-388 562h-5v-494h100v-52h-262v52h104v549h-104v51h196l350 -506h5v455h-101v51h259v-51h-99v-617h-55z" />
    <glyph glyph-name="ncommaaccent" unicode="&#x146;" horiz-adv-x="568" 
d="M244 -293l-15 29c53 26 76 56 81 92l-3 2c-6 -4 -14 -7 -24 -7c-22 0 -42 20 -42 47c0 28 22 53 52 53c38 0 60 -28 60 -69c0 -62 -31 -112 -109 -147zM34 0v52h75v346h-75v52h151v-116c53 92 112 123 170 123c76 0 122 -50 122 -142v-263h75v-52h-221v52h69v228
c0 42 -7 74 -26 93c-14 15 -34 21 -57 21c-66 0 -130 -73 -130 -146v-196h68v-52h-221z" />
    <glyph glyph-name="Ntilde" unicode="&#xd1;" horiz-adv-x="767" 
d="M589 -16l-388 562h-5v-494h100v-52h-262v52h104v549h-104v51h196l350 -506h5v455h-101v51h259v-51h-99v-617h-55zM240 743c12 91 38 122 89 122c52 0 93 -57 126 -57c24 0 34 24 41 63h37c-12 -91 -38 -123 -89 -123c-52 0 -93 58 -126 58c-24 0 -34 -24 -41 -63h-37z
" />
    <glyph glyph-name="ntilde" unicode="&#xf1;" horiz-adv-x="568" 
d="M34 0v52h75v346h-75v52h151v-116c53 92 112 123 170 123c76 0 122 -50 122 -142v-263h75v-52h-221v52h69v228c0 42 -7 74 -26 93c-14 15 -34 21 -57 21c-66 0 -130 -73 -130 -146v-196h68v-52h-221zM149 533c12 91 38 122 89 122c52 0 93 -57 126 -57c24 0 34 24 41 63
h37c-12 -91 -38 -123 -89 -123c-52 0 -93 58 -126 58c-24 0 -34 -24 -41 -63h-37z" />
    <glyph glyph-name="Oacute" unicode="&#xd3;" 
d="M330 737l50 126c19 50 35 70 60 70c19 0 36 -15 36 -37c0 -20 -14 -39 -43 -76l-65 -83h-38zM356 -16c-173 0 -309 141 -309 342c0 196 141 341 309 341c173 0 308 -139 308 -341c0 -197 -140 -342 -308 -342zM356 37c133 0 213 111 213 289c0 176 -80 288 -213 288
c-134 0 -213 -112 -213 -288s79 -289 213 -289z" />
    <glyph glyph-name="oacute" unicode="&#xf3;" horiz-adv-x="512" 
d="M230 527l50 126c19 50 35 70 60 70c19 0 36 -15 36 -37c0 -20 -14 -39 -43 -76l-65 -83h-38zM256 -9c-128 0 -217 92 -217 230c0 140 94 237 217 237c128 0 217 -92 217 -230c0 -140 -94 -237 -217 -237zM260 35c74 0 128 60 128 190c0 131 -61 189 -136 189
c-74 0 -129 -60 -129 -190s62 -189 137 -189z" />
    <glyph glyph-name="Obreve" unicode="&#x14e;" 
d="M356 -16c-173 0 -309 141 -309 342c0 196 141 341 309 341c173 0 308 -139 308 -341c0 -197 -140 -342 -308 -342zM356 37c133 0 213 111 213 289c0 176 -80 288 -213 288c-134 0 -213 -112 -213 -288s79 -289 213 -289zM355 744c-74 0 -125 56 -129 150h31
c16 -55 46 -88 98 -88c53 0 82 33 98 88h31c-3 -94 -54 -150 -129 -150z" />
    <glyph glyph-name="obreve" unicode="&#x14f;" horiz-adv-x="512" 
d="M256 -9c-128 0 -217 92 -217 230c0 140 94 237 217 237c128 0 217 -92 217 -230c0 -140 -94 -237 -217 -237zM260 35c74 0 128 60 128 190c0 131 -61 189 -136 189c-74 0 -129 -60 -129 -190s62 -189 137 -189zM255 534c-74 0 -125 56 -129 150h31c16 -55 46 -88 98 -88
c53 0 82 33 98 88h31c-3 -94 -54 -150 -129 -150z" />
    <glyph glyph-name="Ocircumflex" unicode="&#xd4;" 
d="M228 738l108 181h37l109 -181h-39l-88 102l-88 -102h-39zM356 -16c-173 0 -309 141 -309 342c0 196 141 341 309 341c173 0 308 -139 308 -341c0 -197 -140 -342 -308 -342zM356 37c133 0 213 111 213 289c0 176 -80 288 -213 288c-134 0 -213 -112 -213 -288
s79 -289 213 -289z" />
    <glyph glyph-name="ocircumflex" unicode="&#xf4;" horiz-adv-x="512" 
d="M128 528l108 181h37l109 -181h-39l-88 102l-88 -102h-39zM256 -9c-128 0 -217 92 -217 230c0 140 94 237 217 237c128 0 217 -92 217 -230c0 -140 -94 -237 -217 -237zM260 35c74 0 128 60 128 190c0 131 -61 189 -136 189c-74 0 -129 -60 -129 -190s62 -189 137 -189z
" />
    <glyph glyph-name="Odieresis" unicode="&#xd6;" 
d="M442 760c-29 0 -52 24 -52 54s23 55 52 55s51 -25 51 -55s-22 -54 -51 -54zM268 760c-29 0 -51 24 -51 54s22 55 51 55s52 -25 52 -55s-23 -54 -52 -54zM356 -16c-173 0 -309 141 -309 342c0 196 141 341 309 341c173 0 308 -139 308 -341c0 -197 -140 -342 -308 -342z
M356 37c133 0 213 111 213 289c0 176 -80 288 -213 288c-134 0 -213 -112 -213 -288s79 -289 213 -289z" />
    <glyph glyph-name="odieresis" unicode="&#xf6;" horiz-adv-x="512" 
d="M342 550c-29 0 -52 24 -52 54s23 55 52 55s51 -25 51 -55s-22 -54 -51 -54zM168 550c-29 0 -51 24 -51 54s22 55 51 55s52 -25 52 -55s-23 -54 -52 -54zM256 -9c-128 0 -217 92 -217 230c0 140 94 237 217 237c128 0 217 -92 217 -230c0 -140 -94 -237 -217 -237zM260 35
c74 0 128 60 128 190c0 131 -61 189 -136 189c-74 0 -129 -60 -129 -190s62 -189 137 -189z" />
    <glyph glyph-name="OE" unicode="&#x152;" horiz-adv-x="991" 
d="M403 0c-240 0 -357 127 -357 316c0 186 107 336 351 336h527v-204h-39c-27 128 -36 153 -99 153h-224v-243h98c60 0 67 10 82 100h41v-249h-41c-13 94 -22 104 -82 104h-98v-261h222c73 0 82 25 110 172h39v-224h-530zM401 52h76v549h-83c-175 0 -253 -89 -253 -285
c0 -172 79 -264 260 -264z" />
    <glyph glyph-name="oe" unicode="&#x153;" horiz-adv-x="823" 
d="M787 221h-316c1 -117 58 -177 143 -177c55 0 101 21 128 88h42c-27 -93 -94 -141 -187 -141c-78 0 -137 38 -170 98c-37 -60 -98 -98 -171 -98c-128 0 -217 92 -217 230c0 140 94 237 217 237c78 0 140 -36 176 -98c37 61 97 98 168 98c131 0 190 -118 187 -237zM260 35
c74 0 128 60 128 190c0 131 -61 189 -136 189c-74 0 -129 -60 -129 -190s62 -189 137 -189zM596 415c-67 0 -115 -51 -124 -151h234c-7 94 -42 151 -110 151z" />
    <glyph glyph-name="Ograve" unicode="&#xd2;" 
d="M356 -16c-173 0 -309 141 -309 342c0 196 141 341 309 341c173 0 308 -139 308 -341c0 -197 -140 -342 -308 -342zM356 37c133 0 213 111 213 289c0 176 -80 288 -213 288c-134 0 -213 -112 -213 -288s79 -289 213 -289zM388 737h-38l-65 83c-29 37 -43 56 -43 76
c0 22 17 37 36 37c25 0 41 -21 60 -70z" />
    <glyph glyph-name="ograve" unicode="&#xf2;" horiz-adv-x="512" 
d="M256 -9c-128 0 -217 92 -217 230c0 140 94 237 217 237c128 0 217 -92 217 -230c0 -140 -94 -237 -217 -237zM260 35c74 0 128 60 128 190c0 131 -61 189 -136 189c-74 0 -129 -60 -129 -190s62 -189 137 -189zM289 527h-38l-65 83c-29 37 -43 56 -43 76
c0 22 17 37 36 37c25 0 41 -21 60 -70z" />
    <glyph glyph-name="Ohungarumlaut" unicode="&#x150;" 
d="M409 737l55 126c22 49 36 70 62 70c18 0 34 -14 34 -36c0 -19 -13 -39 -44 -76l-69 -84h-38zM265 737l55 126c21 49 36 70 61 70c19 0 35 -14 35 -36c0 -19 -14 -39 -44 -76l-69 -84h-38zM356 -16c-173 0 -309 141 -309 342c0 196 141 341 309 341
c173 0 308 -139 308 -341c0 -197 -140 -342 -308 -342zM356 37c133 0 213 111 213 289c0 176 -80 288 -213 288c-134 0 -213 -112 -213 -288s79 -289 213 -289z" />
    <glyph glyph-name="ohungarumlaut" unicode="&#x151;" horiz-adv-x="512" 
d="M309 527l55 126c22 49 36 70 62 70c18 0 34 -14 34 -36c0 -19 -13 -39 -44 -76l-69 -84h-38zM165 527l55 126c21 49 36 70 61 70c19 0 35 -14 35 -36c0 -19 -14 -39 -44 -76l-69 -84h-38zM256 -9c-128 0 -217 92 -217 230c0 140 94 237 217 237c128 0 217 -92 217 -230
c0 -140 -94 -237 -217 -237zM260 35c74 0 128 60 128 190c0 131 -61 189 -136 189c-74 0 -129 -60 -129 -190s62 -189 137 -189z" />
    <glyph glyph-name="Omacron" unicode="&#x14c;" 
d="M230 756v62h251v-62h-251zM356 -16c-173 0 -309 141 -309 342c0 196 141 341 309 341c173 0 308 -139 308 -341c0 -197 -140 -342 -308 -342zM356 37c133 0 213 111 213 289c0 176 -80 288 -213 288c-134 0 -213 -112 -213 -288s79 -289 213 -289z" />
    <glyph glyph-name="omacron" unicode="&#x14d;" horiz-adv-x="512" 
d="M130 546v62h251v-62h-251zM256 -9c-128 0 -217 92 -217 230c0 140 94 237 217 237c128 0 217 -92 217 -230c0 -140 -94 -237 -217 -237zM260 35c74 0 128 60 128 190c0 131 -61 189 -136 189c-74 0 -129 -60 -129 -190s62 -189 137 -189z" />
    <glyph glyph-name="Oslash" unicode="&#xd8;" 
d="M118 -34h-63l84 111c-57 60 -92 147 -92 249c0 196 141 341 309 341c68 0 130 -22 181 -61l56 79h64l-84 -111c56 -60 91 -146 91 -248c0 -197 -140 -342 -308 -342c-69 0 -131 22 -182 61zM356 37c133 0 213 111 213 289c0 77 -16 142 -44 190l-309 -421
c35 -37 82 -58 140 -58zM143 326c0 -78 15 -143 44 -192l308 422c-35 37 -82 58 -139 58c-134 0 -213 -112 -213 -288z" />
    <glyph glyph-name="oslash" unicode="&#xf8;" horiz-adv-x="512" 
d="M89 -27h-52l62 81c-38 40 -60 98 -60 167c0 140 94 237 217 237c48 0 91 -13 126 -37l41 55h52l-63 -81c38 -41 61 -98 61 -167c0 -140 -94 -237 -217 -237c-49 0 -91 13 -126 37zM123 224c0 -47 8 -84 21 -113l200 262c-24 28 -57 41 -92 41c-74 0 -129 -60 -129 -190z
M260 35c74 0 128 60 128 190c0 46 -8 84 -22 113l-198 -263c24 -27 57 -40 92 -40z" />
    <glyph glyph-name="Oslashacute" unicode="&#x1fe;" 
d="M118 -34h-63l84 111c-57 60 -92 147 -92 249c0 196 141 341 309 341c68 0 130 -22 181 -61l56 79h64l-84 -111c56 -60 91 -146 91 -248c0 -197 -140 -342 -308 -342c-69 0 -131 22 -182 61zM356 37c133 0 213 111 213 289c0 77 -16 142 -44 190l-309 -421
c35 -37 82 -58 140 -58zM143 326c0 -78 15 -143 44 -192l308 422c-35 37 -82 58 -139 58c-134 0 -213 -112 -213 -288zM330 737l50 126c19 50 35 70 60 70c19 0 36 -15 36 -37c0 -20 -14 -39 -43 -76l-65 -83h-38z" />
    <glyph glyph-name="oslashacute" unicode="&#x1ff;" horiz-adv-x="512" 
d="M89 -27h-52l62 81c-38 40 -60 98 -60 167c0 140 94 237 217 237c48 0 91 -13 126 -37l41 55h52l-63 -81c38 -41 61 -98 61 -167c0 -140 -94 -237 -217 -237c-49 0 -91 13 -126 37zM123 224c0 -47 8 -84 21 -113l200 262c-24 28 -57 41 -92 41c-74 0 -129 -60 -129 -190z
M260 35c74 0 128 60 128 190c0 46 -8 84 -22 113l-198 -263c24 -27 57 -40 92 -40zM230 527l50 126c19 50 35 70 60 70c19 0 36 -15 36 -37c0 -20 -14 -39 -43 -76l-65 -83h-38z" />
    <glyph glyph-name="Otilde" unicode="&#xd5;" 
d="M356 -16c-173 0 -309 141 -309 342c0 196 141 341 309 341c173 0 308 -139 308 -341c0 -197 -140 -342 -308 -342zM356 37c133 0 213 111 213 289c0 176 -80 288 -213 288c-134 0 -213 -112 -213 -288s79 -289 213 -289zM209 743c12 91 38 122 89 122
c52 0 93 -57 126 -57c24 0 34 24 41 63h37c-12 -91 -38 -123 -89 -123c-52 0 -93 58 -126 58c-24 0 -34 -24 -41 -63h-37z" />
    <glyph glyph-name="otilde" unicode="&#xf5;" horiz-adv-x="512" 
d="M256 -9c-128 0 -217 92 -217 230c0 140 94 237 217 237c128 0 217 -92 217 -230c0 -140 -94 -237 -217 -237zM260 35c74 0 128 60 128 190c0 131 -61 189 -136 189c-74 0 -129 -60 -129 -190s62 -189 137 -189zM109 533c12 91 38 122 89 122c52 0 93 -57 126 -57
c24 0 34 24 41 63h37c-12 -91 -38 -123 -89 -123c-52 0 -93 58 -126 58c-24 0 -34 -24 -41 -63h-37z" />
    <glyph glyph-name="Racute" unicode="&#x154;" horiz-adv-x="677" 
d="M322 737l50 126c19 50 35 70 60 70c19 0 36 -15 36 -37c0 -20 -14 -39 -43 -76l-65 -83h-38zM227 293v-241h110v-52h-305v52h111v549h-111v51h319c171 0 238 -76 238 -169c0 -68 -41 -139 -157 -160v-6c93 -22 124 -67 130 -142l6 -82c3 -32 14 -46 35 -46
c19 0 32 15 47 47l34 -16c-21 -55 -52 -89 -105 -89c-56 0 -101 26 -103 117l-2 79c-2 75 -25 108 -123 108h-124zM227 341h118c109 0 148 55 148 141c0 77 -39 119 -135 119h-131v-260z" />
    <glyph glyph-name="racute" unicode="&#x155;" horiz-adv-x="405" 
d="M197 527l50 126c19 50 35 70 60 70c19 0 36 -15 36 -37c0 -20 -14 -39 -43 -76l-65 -83h-38zM34 0v52h75v346h-75v52h151v-106c29 76 84 112 136 112c46 0 73 -31 73 -69c0 -32 -23 -58 -54 -58c-30 0 -54 20 -54 52c0 6 1 13 4 19c-50 5 -90 -58 -103 -105v-243h88v-52
h-241z" />
    <glyph glyph-name="Rcaron" unicode="&#x158;" horiz-adv-x="677" 
d="M330 747l-109 181h39l88 -101l88 101h39l-108 -181h-37zM227 293v-241h110v-52h-305v52h111v549h-111v51h319c171 0 238 -76 238 -169c0 -68 -41 -139 -157 -160v-6c93 -22 124 -67 130 -142l6 -82c3 -32 14 -46 35 -46c19 0 32 15 47 47l34 -16
c-21 -55 -52 -89 -105 -89c-56 0 -101 26 -103 117l-2 79c-2 75 -25 108 -123 108h-124zM227 341h118c109 0 148 55 148 141c0 77 -39 119 -135 119h-131v-260z" />
    <glyph glyph-name="rcaron" unicode="&#x159;" horiz-adv-x="405" 
d="M206 537l-109 181h39l88 -101l88 101h39l-108 -181h-37zM34 0v52h75v346h-75v52h151v-106c29 76 84 112 136 112c46 0 73 -31 73 -69c0 -32 -23 -58 -54 -58c-30 0 -54 20 -54 52c0 6 1 13 4 19c-50 5 -90 -58 -103 -105v-243h88v-52h-241z" />
    <glyph glyph-name="Rcommaaccent" unicode="&#x156;" horiz-adv-x="677" 
d="M303 -293l-15 29c53 26 76 56 81 92l-3 2c-6 -4 -14 -7 -24 -7c-22 0 -42 20 -42 47c0 28 22 53 52 53c38 0 60 -28 60 -69c0 -62 -31 -112 -109 -147zM227 293v-241h110v-52h-305v52h111v549h-111v51h319c171 0 238 -76 238 -169c0 -68 -41 -139 -157 -160v-6
c93 -22 124 -67 130 -142l6 -82c3 -32 14 -46 35 -46c19 0 32 15 47 47l34 -16c-21 -55 -52 -89 -105 -89c-56 0 -101 26 -103 117l-2 79c-2 75 -25 108 -123 108h-124zM227 341h118c109 0 148 55 148 141c0 77 -39 119 -135 119h-131v-260z" />
    <glyph glyph-name="rcommaaccent" unicode="&#x157;" horiz-adv-x="405" 
d="M102 -293l-15 29c53 26 76 56 81 92l-3 2c-6 -4 -14 -7 -24 -7c-22 0 -42 20 -42 47c0 28 22 53 52 53c38 0 60 -28 60 -69c0 -62 -31 -112 -109 -147zM34 0v52h75v346h-75v52h151v-106c29 76 84 112 136 112c46 0 73 -31 73 -69c0 -32 -23 -58 -54 -58
c-30 0 -54 20 -54 52c0 6 1 13 4 19c-50 5 -90 -58 -103 -105v-243h88v-52h-241z" />
    <glyph glyph-name="Sacute" unicode="&#x15a;" horiz-adv-x="572" 
d="M264 737l50 126c19 50 35 70 60 70c19 0 36 -15 36 -37c0 -20 -14 -39 -43 -76l-65 -83h-38zM55 -13v227h45c63 -129 126 -182 222 -182c77 0 130 42 130 120c0 88 -74 111 -178 139c-105 28 -210 62 -210 190c0 103 78 186 200 186c65 0 129 -28 167 -72l20 69h49v-215
h-45c-51 127 -120 171 -196 171c-66 0 -117 -41 -117 -114c0 -92 79 -112 172 -137c113 -29 216 -58 216 -186c0 -114 -88 -199 -210 -199c-81 0 -146 30 -194 81l-22 -78h-49z" />
    <glyph glyph-name="sacute" unicode="&#x15b;" horiz-adv-x="433" 
d="M195 527l50 126c19 50 35 70 60 70c19 0 36 -15 36 -37c0 -20 -14 -39 -43 -76l-65 -83h-38zM45 -9v170h46c24 -79 78 -129 149 -129c56 0 88 28 88 70c0 45 -32 65 -122 90c-110 31 -153 67 -153 136s61 130 151 130c51 0 94 -19 117 -54l11 54h44v-154h-44
c-31 73 -62 113 -129 113c-42 0 -80 -24 -80 -65c0 -42 36 -65 118 -88c110 -30 155 -61 155 -136c0 -68 -59 -137 -156 -137c-62 0 -110 25 -140 63l-11 -63h-44z" />
    <glyph glyph-name="Scaron" unicode="&#x160;" horiz-adv-x="572" 
d="M272 747l-109 181h39l88 -101l88 101h39l-108 -181h-37zM55 -13v227h45c63 -129 126 -182 222 -182c77 0 130 42 130 120c0 88 -74 111 -178 139c-105 28 -210 62 -210 190c0 103 78 186 200 186c65 0 129 -28 167 -72l20 69h49v-215h-45c-51 127 -120 171 -196 171
c-66 0 -117 -41 -117 -114c0 -92 79 -112 172 -137c113 -29 216 -58 216 -186c0 -114 -88 -199 -210 -199c-81 0 -146 30 -194 81l-22 -78h-49z" />
    <glyph glyph-name="scaron" unicode="&#x161;" horiz-adv-x="433" 
d="M203 537l-109 181h39l88 -101l88 101h39l-108 -181h-37zM45 -9v170h46c24 -79 78 -129 149 -129c56 0 88 28 88 70c0 45 -32 65 -122 90c-110 31 -153 67 -153 136s61 130 151 130c51 0 94 -19 117 -54l11 54h44v-154h-44c-31 73 -62 113 -129 113c-42 0 -80 -24 -80 -65
c0 -42 36 -65 118 -88c110 -30 155 -61 155 -136c0 -68 -59 -137 -156 -137c-62 0 -110 25 -140 63l-11 -63h-44z" />
    <glyph glyph-name="Scedilla" unicode="&#x15e;" horiz-adv-x="572" 
d="M286 -237c-34 0 -71 10 -101 30l19 32c25 -15 48 -23 74 -23c35 0 57 16 57 43c0 30 -31 46 -70 46c-16 0 -27 -2 -38 -5l-14 19l77 81c-67 6 -122 34 -164 79l-22 -78h-49v227h45c63 -129 126 -182 222 -182c77 0 130 42 130 120c0 88 -74 111 -178 139
c-105 28 -210 62 -210 190c0 103 78 186 200 186c65 0 129 -28 167 -72l20 69h49v-215h-45c-51 127 -120 171 -196 171c-66 0 -117 -41 -117 -114c0 -92 79 -112 172 -137c113 -29 216 -58 216 -186c0 -109 -80 -191 -193 -198l-51 -52l1 -3c64 -2 105 -34 105 -79
c0 -54 -44 -88 -106 -88z" />
    <glyph glyph-name="scedilla" unicode="&#x15f;" horiz-adv-x="433" 
d="M207 -237c-34 0 -71 10 -101 30l19 32c25 -15 48 -23 74 -23c35 0 57 16 57 43c0 30 -31 46 -70 46c-16 0 -27 -2 -38 -5l-14 19l83 87c-51 6 -91 28 -117 62l-11 -63h-44v170h46c24 -79 78 -129 149 -129c56 0 88 28 88 70c0 45 -32 65 -122 90
c-110 31 -153 67 -153 136s61 130 151 130c51 0 94 -19 117 -54l11 54h44v-154h-44c-31 73 -62 113 -129 113c-42 0 -80 -24 -80 -65c0 -42 36 -65 118 -88c110 -30 155 -61 155 -136c0 -62 -48 -124 -129 -135l-60 -60l1 -3c64 -2 105 -34 105 -79c0 -54 -44 -88 -106 -88z
" />
    <glyph glyph-name="Scommaaccent" unicode="&#x218;" horiz-adv-x="572" 
d="M238 -293l-15 29c53 26 76 56 81 92l-3 2c-6 -4 -14 -7 -24 -7c-22 0 -42 20 -42 47c0 28 22 53 52 53c38 0 60 -28 60 -69c0 -62 -31 -112 -109 -147zM55 -13v227h45c63 -129 126 -182 222 -182c77 0 130 42 130 120c0 88 -74 111 -178 139c-105 28 -210 62 -210 190
c0 103 78 186 200 186c65 0 129 -28 167 -72l20 69h49v-215h-45c-51 127 -120 171 -196 171c-66 0 -117 -41 -117 -114c0 -92 79 -112 172 -137c113 -29 216 -58 216 -186c0 -114 -88 -199 -210 -199c-81 0 -146 30 -194 81l-22 -78h-49z" />
    <glyph glyph-name="scommaaccent" unicode="&#x219;" horiz-adv-x="433" 
d="M169 -293l-15 29c53 26 76 56 81 92l-3 2c-6 -4 -14 -7 -24 -7c-22 0 -42 20 -42 47c0 28 22 53 52 53c38 0 60 -28 60 -69c0 -62 -31 -112 -109 -147zM45 -9v170h46c24 -79 78 -129 149 -129c56 0 88 28 88 70c0 45 -32 65 -122 90c-110 31 -153 67 -153 136
s61 130 151 130c51 0 94 -19 117 -54l11 54h44v-154h-44c-31 73 -62 113 -129 113c-42 0 -80 -24 -80 -65c0 -42 36 -65 118 -88c110 -30 155 -61 155 -136c0 -68 -59 -137 -156 -137c-62 0 -110 25 -140 63l-11 -63h-44z" />
    <glyph glyph-name="Tcaron" unicode="&#x164;" horiz-adv-x="670" 
d="M318 747l-109 181h39l88 -101l88 101h39l-108 -181h-37zM178 0v52h115v553h-89c-76 0 -86 -29 -120 -179h-38v226h578v-226h-38c-34 150 -44 179 -121 179h-88v-553h115v-52h-314z" />
    <glyph glyph-name="tcaron" unicode="&#x165;" horiz-adv-x="350" 
d="M281 532h-32l-3 144c-1 56 18 75 42 75c19 0 35 -14 35 -42c0 -15 -4 -34 -12 -63zM98 567l78 10v-130h147v-49h-147v-283c0 -45 17 -70 56 -70c34 0 56 26 75 80l36 -14c-25 -88 -72 -120 -131 -120c-76 0 -114 46 -114 122v285h-91v49h91v120z" />
    <glyph glyph-name="Tcommaaccent" unicode="&#x162;" horiz-adv-x="670" 
d="M283 -293l-15 29c53 26 76 56 81 92l-3 2c-6 -4 -14 -7 -24 -7c-22 0 -42 20 -42 47c0 28 22 53 52 53c38 0 60 -28 60 -69c0 -62 -31 -112 -109 -147zM178 0v52h115v553h-89c-76 0 -86 -29 -120 -179h-38v226h578v-226h-38c-34 150 -44 179 -121 179h-88v-553h115v-52
h-314z" />
    <glyph glyph-name="tcommaaccent" unicode="&#x163;" horiz-adv-x="350" 
d="M135 -293l-15 29c53 26 76 56 81 92l-3 2c-6 -4 -14 -7 -24 -7c-22 0 -42 20 -42 47c0 28 22 53 52 53c38 0 60 -28 60 -69c0 -62 -31 -112 -109 -147zM98 567l78 10v-130h147v-49h-147v-283c0 -45 17 -70 56 -70c34 0 56 26 75 80l36 -14c-25 -88 -72 -120 -131 -120
c-76 0 -114 46 -114 122v285h-91v49h91v120z" />
    <glyph glyph-name="Thorn" unicode="&#xde;" horiz-adv-x="613" 
d="M32 0v52h111v549h-111v51h303v-51h-108v-75h89c199 0 261 -84 261 -180c0 -100 -74 -190 -257 -190h-93v-104h108v-52h-303zM227 206h91c123 0 165 57 165 142c0 74 -41 128 -164 128h-92v-270z" />
    <glyph glyph-name="thorn" unicode="&#xfe;" horiz-adv-x="525" 
d="M6 -150v52h75v731h-75v54h152v-334c35 68 92 105 153 105c48 0 81 -15 111 -44c41 -41 60 -106 60 -184c0 -70 -22 -137 -66 -182c-30 -30 -70 -48 -115 -48c-69 0 -117 40 -143 91v-189h97v-52h-249zM284 48c66 0 114 62 114 182c0 122 -49 176 -111 176
c-73 0 -131 -80 -131 -188c0 -103 59 -170 128 -170z" />
    <glyph glyph-name="Uacute" unicode="&#xda;" horiz-adv-x="734" 
d="M355 737l50 126c19 50 35 70 60 70c19 0 36 -15 36 -37c0 -20 -14 -39 -43 -76l-65 -83h-38zM365 -16c-166 0 -247 88 -247 213v404h-96v51h281v-51h-101v-382c0 -126 66 -176 188 -176c54 0 98 18 127 47c34 34 46 78 46 153v358h-101v51h251v-51h-92v-395
c0 -123 -86 -222 -256 -222z" />
    <glyph glyph-name="uacute" unicode="&#xfa;" horiz-adv-x="551" 
d="M246 527l50 126c19 50 35 70 60 70c19 0 36 -15 36 -37c0 -20 -14 -39 -43 -76l-65 -83h-38zM212 -8c-75 0 -120 51 -120 143v263h-74v52h151v-280c0 -43 6 -75 26 -94c13 -15 33 -20 55 -20c66 0 129 73 129 145v197h-77v52h155v-398h74v-52h-150v115
c-53 -91 -111 -123 -169 -123z" />
    <glyph glyph-name="Ubreve" unicode="&#x16c;" horiz-adv-x="734" 
d="M365 -16c-166 0 -247 88 -247 213v404h-96v51h281v-51h-101v-382c0 -126 66 -176 188 -176c54 0 98 18 127 47c34 34 46 78 46 153v358h-101v51h251v-51h-92v-395c0 -123 -86 -222 -256 -222zM380 744c-74 0 -125 56 -129 150h31c16 -55 46 -88 98 -88c53 0 82 33 98 88
h31c-3 -94 -54 -150 -129 -150z" />
    <glyph glyph-name="ubreve" unicode="&#x16d;" horiz-adv-x="551" 
d="M212 -8c-75 0 -120 51 -120 143v263h-74v52h151v-280c0 -43 6 -75 26 -94c13 -15 33 -20 55 -20c66 0 129 73 129 145v197h-77v52h155v-398h74v-52h-150v115c-53 -91 -111 -123 -169 -123zM271 534c-74 0 -125 56 -129 150h31c16 -55 46 -88 98 -88c53 0 82 33 98 88h31
c-3 -94 -54 -150 -129 -150z" />
    <glyph glyph-name="Ucircumflex" unicode="&#xdb;" horiz-adv-x="734" 
d="M253 738l108 181h37l109 -181h-39l-88 102l-88 -102h-39zM365 -16c-166 0 -247 88 -247 213v404h-96v51h281v-51h-101v-382c0 -126 66 -176 188 -176c54 0 98 18 127 47c34 34 46 78 46 153v358h-101v51h251v-51h-92v-395c0 -123 -86 -222 -256 -222z" />
    <glyph glyph-name="ucircumflex" unicode="&#xfb;" horiz-adv-x="551" 
d="M144 528l108 181h37l109 -181h-39l-88 102l-88 -102h-39zM212 -8c-75 0 -120 51 -120 143v263h-74v52h151v-280c0 -43 6 -75 26 -94c13 -15 33 -20 55 -20c66 0 129 73 129 145v197h-77v52h155v-398h74v-52h-150v115c-53 -91 -111 -123 -169 -123z" />
    <glyph glyph-name="Udieresis" unicode="&#xdc;" horiz-adv-x="734" 
d="M467 760c-29 0 -52 24 -52 54s23 55 52 55s51 -25 51 -55s-22 -54 -51 -54zM293 760c-29 0 -51 24 -51 54s22 55 51 55s52 -25 52 -55s-23 -54 -52 -54zM365 -16c-166 0 -247 88 -247 213v404h-96v51h281v-51h-101v-382c0 -126 66 -176 188 -176c54 0 98 18 127 47
c34 34 46 78 46 153v358h-101v51h251v-51h-92v-395c0 -123 -86 -222 -256 -222z" />
    <glyph glyph-name="udieresis" unicode="&#xfc;" horiz-adv-x="551" 
d="M358 550c-29 0 -52 24 -52 54s23 55 52 55s51 -25 51 -55s-22 -54 -51 -54zM184 550c-29 0 -51 24 -51 54s22 55 51 55s52 -25 52 -55s-23 -54 -52 -54zM212 -8c-75 0 -120 51 -120 143v263h-74v52h151v-280c0 -43 6 -75 26 -94c13 -15 33 -20 55 -20
c66 0 129 73 129 145v197h-77v52h155v-398h74v-52h-150v115c-53 -91 -111 -123 -169 -123z" />
    <glyph glyph-name="Ugrave" unicode="&#xd9;" horiz-adv-x="734" 
d="M365 -16c-166 0 -247 88 -247 213v404h-96v51h281v-51h-101v-382c0 -126 66 -176 188 -176c54 0 98 18 127 47c34 34 46 78 46 153v358h-101v51h251v-51h-92v-395c0 -123 -86 -222 -256 -222zM413 737h-38l-65 83c-29 37 -43 56 -43 76c0 22 17 37 36 37
c25 0 41 -21 60 -70z" />
    <glyph glyph-name="ugrave" unicode="&#xf9;" horiz-adv-x="551" 
d="M212 -8c-75 0 -120 51 -120 143v263h-74v52h151v-280c0 -43 6 -75 26 -94c13 -15 33 -20 55 -20c66 0 129 73 129 145v197h-77v52h155v-398h74v-52h-150v115c-53 -91 -111 -123 -169 -123zM304 527h-38l-65 83c-29 37 -43 56 -43 76c0 22 17 37 36 37c25 0 41 -21 60 -70
z" />
    <glyph glyph-name="Uhungarumlaut" unicode="&#x170;" horiz-adv-x="734" 
d="M365 -16c-166 0 -247 88 -247 213v404h-96v51h281v-51h-101v-382c0 -126 66 -176 188 -176c54 0 98 18 127 47c34 34 46 78 46 153v358h-101v51h251v-51h-92v-395c0 -123 -86 -222 -256 -222zM434 737l55 126c22 49 36 70 62 70c18 0 34 -14 34 -36
c0 -19 -13 -39 -44 -76l-69 -84h-38zM290 737l55 126c21 49 36 70 61 70c19 0 35 -14 35 -36c0 -19 -14 -39 -44 -76l-69 -84h-38z" />
    <glyph glyph-name="uhungarumlaut" unicode="&#x171;" horiz-adv-x="551" 
d="M212 -8c-75 0 -120 51 -120 143v263h-74v52h151v-280c0 -43 6 -75 26 -94c13 -15 33 -20 55 -20c66 0 129 73 129 145v197h-77v52h155v-398h74v-52h-150v115c-53 -91 -111 -123 -169 -123zM325 527l55 126c22 49 36 70 62 70c18 0 34 -14 34 -36c0 -19 -13 -39 -44 -76
l-69 -84h-38zM181 527l55 126c21 49 36 70 61 70c19 0 35 -14 35 -36c0 -19 -14 -39 -44 -76l-69 -84h-38z" />
    <glyph glyph-name="Umacron" unicode="&#x16a;" horiz-adv-x="734" 
d="M365 -16c-166 0 -247 88 -247 213v404h-96v51h281v-51h-101v-382c0 -126 66 -176 188 -176c54 0 98 18 127 47c34 34 46 78 46 153v358h-101v51h251v-51h-92v-395c0 -123 -86 -222 -256 -222zM255 756v62h251v-62h-251z" />
    <glyph glyph-name="umacron" unicode="&#x16b;" horiz-adv-x="551" 
d="M212 -8c-75 0 -120 51 -120 143v263h-74v52h151v-280c0 -43 6 -75 26 -94c13 -15 33 -20 55 -20c66 0 129 73 129 145v197h-77v52h155v-398h74v-52h-150v115c-53 -91 -111 -123 -169 -123zM146 546v62h251v-62h-251z" />
    <glyph glyph-name="Uogonek" unicode="&#x172;" horiz-adv-x="734" 
d="M366 -237c-61 0 -98 34 -98 86c0 45 27 82 87 135c-159 4 -237 90 -237 213v404h-96v51h281v-51h-101v-382c0 -126 66 -176 188 -176c54 0 98 18 127 47c34 34 46 78 46 153v358h-101v51h251v-51h-92v-395c0 -112 -72 -204 -213 -219l-1 -2c-60 -62 -75 -96 -75 -125
c0 -35 24 -52 52 -52c24 0 43 12 57 22l19 -28c-26 -23 -59 -39 -94 -39z" />
    <glyph glyph-name="uogonek" unicode="&#x173;" horiz-adv-x="551" 
d="M212 -8c-75 0 -120 51 -120 143v263h-74v52h151v-280c0 -43 6 -75 26 -94c13 -15 33 -20 55 -20c66 0 129 73 129 145v197h-77v52h155v-398h74v-52h-33l-15 -15c-60 -62 -75 -96 -75 -125c0 -35 24 -52 52 -52c24 0 43 12 57 22l19 -28c-26 -23 -59 -39 -94 -39
c-61 0 -98 34 -98 86c0 45 28 83 90 137l16 14h-69v115c-53 -91 -111 -123 -169 -123z" />
    <glyph glyph-name="Uring" unicode="&#x16e;" horiz-adv-x="734" 
d="M380 731c-69 0 -105 49 -105 101c0 53 36 101 105 101s105 -48 105 -101c0 -52 -36 -101 -105 -101zM380 764c37 0 58 29 58 68s-21 69 -58 69s-58 -30 -58 -69s21 -68 58 -68zM365 -16c-166 0 -247 88 -247 213v404h-96v51h281v-51h-101v-382c0 -126 66 -176 188 -176
c54 0 98 18 127 47c34 34 46 78 46 153v358h-101v51h251v-51h-92v-395c0 -123 -86 -222 -256 -222z" />
    <glyph glyph-name="uring" unicode="&#x16f;" horiz-adv-x="551" 
d="M271 521c-69 0 -105 49 -105 101c0 53 36 101 105 101s105 -48 105 -101c0 -52 -36 -101 -105 -101zM271 554c37 0 58 29 58 68s-21 69 -58 69s-58 -30 -58 -69s21 -68 58 -68zM212 -8c-75 0 -120 51 -120 143v263h-74v52h151v-280c0 -43 6 -75 26 -94
c13 -15 33 -20 55 -20c66 0 129 73 129 145v197h-77v52h155v-398h74v-52h-150v115c-53 -91 -111 -123 -169 -123z" />
    <glyph glyph-name="Wacute" unicode="&#x1e82;" horiz-adv-x="984" 
d="M652 601h-105l143 -492h5l159 492h-88v51h218v-51h-70l-204 -605h-71l-138 464l-159 -464h-70l-190 605h-85v51h277v-51h-101l150 -492h5l146 435l-16 57h-84v51h278v-51zM484 737l50 126c19 50 35 70 60 70c19 0 36 -15 36 -37c0 -20 -14 -39 -43 -76l-65 -83h-38z" />
    <glyph glyph-name="wacute" unicode="&#x1e83;" horiz-adv-x="752" 
d="M503 398h-81l108 -318h3l109 318h-70v52h178v-52h-54l-146 -404h-64l-102 290l-118 -290h-63l-139 404h-62v52h219v-52h-76l103 -318h2l110 274l-15 44h-62v52h220v-52zM364 527l50 126c19 50 35 70 60 70c19 0 36 -15 36 -37c0 -20 -14 -39 -43 -76l-65 -83h-38z" />
    <glyph glyph-name="Wcircumflex" unicode="&#x174;" horiz-adv-x="984" 
d="M652 601h-105l143 -492h5l159 492h-88v51h218v-51h-70l-204 -605h-71l-138 464l-159 -464h-70l-190 605h-85v51h277v-51h-101l150 -492h5l146 435l-16 57h-84v51h278v-51zM382 738l108 181h37l109 -181h-39l-88 102l-88 -102h-39z" />
    <glyph glyph-name="wcircumflex" unicode="&#x175;" horiz-adv-x="752" 
d="M503 398h-81l108 -318h3l109 318h-70v52h178v-52h-54l-146 -404h-64l-102 290l-118 -290h-63l-139 404h-62v52h219v-52h-76l103 -318h2l110 274l-15 44h-62v52h220v-52zM262 528l108 181h37l109 -181h-39l-88 102l-88 -102h-39z" />
    <glyph glyph-name="Wdieresis" unicode="&#x1e84;" horiz-adv-x="984" 
d="M652 601h-105l143 -492h5l159 492h-88v51h218v-51h-70l-204 -605h-71l-138 464l-159 -464h-70l-190 605h-85v51h277v-51h-101l150 -492h5l146 435l-16 57h-84v51h278v-51zM422 760c-29 0 -51 24 -51 54s22 55 51 55s52 -25 52 -55s-23 -54 -52 -54zM596 760
c-29 0 -52 24 -52 54s23 55 52 55s51 -25 51 -55s-22 -54 -51 -54z" />
    <glyph glyph-name="wdieresis" unicode="&#x1e85;" horiz-adv-x="752" 
d="M503 398h-81l108 -318h3l109 318h-70v52h178v-52h-54l-146 -404h-64l-102 290l-118 -290h-63l-139 404h-62v52h219v-52h-76l103 -318h2l110 274l-15 44h-62v52h220v-52zM302 550c-29 0 -51 24 -51 54s22 55 51 55s52 -25 52 -55s-23 -54 -52 -54zM476 550
c-29 0 -52 24 -52 54s23 55 52 55s51 -25 51 -55s-22 -54 -51 -54z" />
    <glyph glyph-name="Wgrave" unicode="&#x1e80;" horiz-adv-x="984" 
d="M652 601h-105l143 -492h5l159 492h-88v51h218v-51h-70l-204 -605h-71l-138 464l-159 -464h-70l-190 605h-85v51h277v-51h-101l150 -492h5l146 435l-16 57h-84v51h278v-51zM542 737h-38l-65 83c-29 37 -43 56 -43 76c0 22 17 37 36 37c25 0 41 -21 60 -70z" />
    <glyph glyph-name="wgrave" unicode="&#x1e81;" horiz-adv-x="752" 
d="M503 398h-81l108 -318h3l109 318h-70v52h178v-52h-54l-146 -404h-64l-102 290l-118 -290h-63l-139 404h-62v52h219v-52h-76l103 -318h2l110 274l-15 44h-62v52h220v-52zM422 527h-38l-65 83c-29 37 -43 56 -43 76c0 22 17 37 36 37c25 0 41 -21 60 -70z" />
    <glyph glyph-name="Yacute" unicode="&#xdd;" horiz-adv-x="637" 
d="M338 328l161 273h-84v51h221v-51h-77l-199 -326v-223h101v-52h-286v52h100v222l-187 327h-82v51h272v-51h-90zM311 737l50 126c19 50 35 70 60 70c19 0 36 -15 36 -37c0 -20 -14 -39 -43 -76l-65 -83h-38z" />
    <glyph glyph-name="yacute" unicode="&#xfd;" horiz-adv-x="489" 
d="M70 -33c31 0 51 -23 51 -51c0 -14 -4 -26 -9 -34c36 2 70 22 109 119l-159 397h-62v52h224v-52h-78l116 -309l120 309h-69v52h180v-52h-55l-155 -380c-57 -142 -115 -181 -182 -181c-55 0 -87 30 -87 70c0 32 23 60 56 60zM236 527l50 126c19 50 35 70 60 70
c19 0 36 -15 36 -37c0 -20 -14 -39 -43 -76l-65 -83h-38z" />
    <glyph glyph-name="Ycircumflex" unicode="&#x176;" horiz-adv-x="637" 
d="M338 328l161 273h-84v51h221v-51h-77l-199 -326v-223h101v-52h-286v52h100v222l-187 327h-82v51h272v-51h-90zM209 738l108 181h37l109 -181h-39l-88 102l-88 -102h-39z" />
    <glyph glyph-name="ycircumflex" unicode="&#x177;" horiz-adv-x="489" 
d="M70 -33c31 0 51 -23 51 -51c0 -14 -4 -26 -9 -34c36 2 70 22 109 119l-159 397h-62v52h224v-52h-78l116 -309l120 309h-69v52h180v-52h-55l-155 -380c-57 -142 -115 -181 -182 -181c-55 0 -87 30 -87 70c0 32 23 60 56 60zM134 528l108 181h37l109 -181h-39l-88 102
l-88 -102h-39z" />
    <glyph glyph-name="Ydieresis" unicode="&#x178;" horiz-adv-x="637" 
d="M338 328l161 273h-84v51h221v-51h-77l-199 -326v-223h101v-52h-286v52h100v222l-187 327h-82v51h272v-51h-90zM423 760c-29 0 -52 24 -52 54s23 55 52 55s51 -25 51 -55s-22 -54 -51 -54zM249 760c-29 0 -51 24 -51 54s22 55 51 55s52 -25 52 -55s-23 -54 -52 -54z" />
    <glyph glyph-name="ydieresis" unicode="&#xff;" horiz-adv-x="489" 
d="M70 -33c31 0 51 -23 51 -51c0 -14 -4 -26 -9 -34c36 2 70 22 109 119l-159 397h-62v52h224v-52h-78l116 -309l120 309h-69v52h180v-52h-55l-155 -380c-57 -142 -115 -181 -182 -181c-55 0 -87 30 -87 70c0 32 23 60 56 60zM174 550c-29 0 -51 24 -51 54s22 55 51 55
s52 -25 52 -55s-23 -54 -52 -54zM348 550c-29 0 -52 24 -52 54s23 55 52 55s51 -25 51 -55s-22 -54 -51 -54z" />
    <glyph glyph-name="Ygrave" unicode="&#x1ef2;" horiz-adv-x="637" 
d="M338 328l161 273h-84v51h221v-51h-77l-199 -326v-223h101v-52h-286v52h100v222l-187 327h-82v51h272v-51h-90zM370 737h-38l-65 83c-29 37 -43 56 -43 76c0 22 17 37 36 37c25 0 41 -21 60 -70z" />
    <glyph glyph-name="ygrave" unicode="&#x1ef3;" horiz-adv-x="489" 
d="M70 -33c31 0 51 -23 51 -51c0 -14 -4 -26 -9 -34c36 2 70 22 109 119l-159 397h-62v52h224v-52h-78l116 -309l120 309h-69v52h180v-52h-55l-155 -380c-57 -142 -115 -181 -182 -181c-55 0 -87 30 -87 70c0 32 23 60 56 60zM295 527h-38l-65 83c-29 37 -43 56 -43 76
c0 22 17 37 36 37c25 0 41 -21 60 -70z" />
    <glyph glyph-name="Zacute" unicode="&#x179;" horiz-adv-x="609" 
d="M284 737l50 126c19 50 35 70 60 70c19 0 36 -15 36 -37c0 -20 -14 -39 -43 -76l-65 -83h-38zM39 0v37l417 564h-250c-59 0 -71 -10 -107 -172h-40v223h506v-36l-414 -564h270c59 0 70 17 106 179h39v-231h-527z" />
    <glyph glyph-name="zacute" unicode="&#x17a;" horiz-adv-x="457" 
d="M216 527l50 126c19 50 35 70 60 70c19 0 36 -15 36 -37c0 -20 -14 -39 -43 -76l-65 -83h-38zM35 0v43l293 363h-159c-52 0 -60 -16 -82 -113h-37v157h374v-43l-295 -363h183c50 0 58 19 76 124h38v-168h-391z" />
    <glyph glyph-name="Zcaron" unicode="&#x17d;" horiz-adv-x="609" 
d="M292 747l-109 181h39l88 -101l88 101h39l-108 -181h-37zM39 0v37l417 564h-250c-59 0 -71 -10 -107 -172h-40v223h506v-36l-414 -564h270c59 0 70 17 106 179h39v-231h-527z" />
    <glyph glyph-name="zcaron" unicode="&#x17e;" horiz-adv-x="457" 
d="M225 537l-109 181h39l88 -101l88 101h39l-108 -181h-37zM35 0v43l293 363h-159c-52 0 -60 -16 -82 -113h-37v157h374v-43l-295 -363h183c50 0 58 19 76 124h38v-168h-391z" />
    <glyph glyph-name="Zdotaccent" unicode="&#x17b;" horiz-adv-x="609" 
d="M39 0v37l417 564h-250c-59 0 -71 -10 -107 -172h-40v223h506v-36l-414 -564h270c59 0 70 17 106 179h39v-231h-527zM309 741c-31 0 -54 22 -54 55c0 30 23 55 54 55c29 0 53 -23 53 -55c0 -31 -24 -55 -53 -55z" />
    <glyph glyph-name="zdotaccent" unicode="&#x17c;" horiz-adv-x="457" 
d="M35 0v43l293 363h-159c-52 0 -60 -16 -82 -113h-37v157h374v-43l-295 -363h183c50 0 58 19 76 124h38v-168h-391zM242 531c-31 0 -54 22 -54 55c0 30 23 55 54 55c29 0 53 -23 53 -55c0 -31 -24 -55 -53 -55z" />
    <glyph glyph-name="schwa" unicode="&#x259;" horiz-adv-x="476" 
d="M223 -1c-131 0 -189 118 -186 237h316c-3 116 -59 177 -144 177c-55 0 -101 -21 -128 -88h-42c27 93 94 141 187 141c131 0 211 -95 211 -229c0 -137 -94 -238 -214 -238zM228 42c65 0 113 51 123 151h-234c7 -94 42 -151 111 -151z" />
    <glyph glyph-name="germandbls" unicode="&#xdf;" horiz-adv-x="547" 
d="M378 -9c-68 0 -135 34 -135 95c0 32 21 55 51 55s48 -23 48 -47c0 -20 -10 -34 -22 -43c15 -12 37 -18 62 -18c55 0 84 38 84 76c0 25 -13 59 -87 104c-80 48 -111 74 -111 130c0 34 22 60 60 98c47 46 60 71 60 112c0 55 -37 95 -94 95c-72 0 -107 -46 -107 -153v-495
h-152v52h74v346h-91v49h91v25c0 166 94 221 189 221c92 0 166 -63 166 -141c0 -53 -28 -87 -82 -127c-44 -32 -51 -47 -51 -65c0 -24 14 -34 89 -80c65 -39 109 -74 109 -145c0 -72 -54 -144 -151 -144z" />
    <glyph glyph-name="zero" unicode="0" horiz-adv-x="558" 
d="M279 -16c-151 0 -235 143 -235 328c0 186 90 331 234 331c151 0 236 -142 236 -327c0 -186 -91 -332 -235 -332zM281 33c101 0 142 111 142 280c0 170 -47 281 -147 281s-142 -110 -142 -280c0 -169 49 -281 147 -281z" />
    <glyph glyph-name="one" unicode="1" horiz-adv-x="448" 
d="M56 0v52h145v469c-21 -10 -54 -16 -87 -16c-21 0 -46 3 -61 8v42c76 -1 148 27 177 80h53v-583h140v-52h-367z" />
    <glyph glyph-name="two" unicode="2" horiz-adv-x="545" 
d="M48 55c0 70 60 140 196 224c102 62 149 106 149 188c0 73 -48 128 -129 128c-64 0 -110 -32 -130 -70c28 -8 47 -29 47 -59c0 -33 -23 -60 -58 -60c-36 0 -63 29 -63 73c0 81 90 164 215 164c136 0 205 -86 205 -180c0 -93 -65 -153 -190 -216
c-116 -58 -160 -107 -175 -152l2 -3c25 14 56 22 86 22c69 0 119 -53 167 -53c49 0 72 38 95 139l39 -3c-15 -157 -68 -213 -144 -213c-83 0 -131 85 -193 85c-8 0 -20 -2 -25 -4c5 -8 9 -19 9 -31c0 -28 -18 -50 -46 -50c-37 0 -57 32 -57 71z" />
    <glyph glyph-name="three" unicode="3" horiz-adv-x="523" 
d="M246 -16c-118 0 -208 63 -208 138c0 36 26 67 63 67c34 0 56 -26 56 -56c0 -26 -16 -46 -32 -57c19 -21 58 -44 119 -44c91 0 141 57 141 132c0 81 -52 135 -177 135h-29v49h24c121 0 170 53 170 133c0 69 -46 114 -123 114c-66 0 -103 -27 -121 -50c23 -9 41 -29 41 -56
c0 -28 -19 -58 -55 -58c-34 0 -61 27 -61 67c0 72 82 145 204 145c128 0 203 -72 203 -159c0 -78 -61 -136 -168 -158v-2c115 -14 180 -70 180 -152c0 -103 -88 -188 -227 -188z" />
    <glyph glyph-name="four" unicode="4" horiz-adv-x="554" 
d="M322 233v316h-3l-228 -316h231zM401 51h98v-51h-277v51h99v129h-294v54l296 404h78v-405h131v-53h-131v-129z" />
    <glyph glyph-name="five" unicode="5" horiz-adv-x="514" 
d="M153 550l-13 -195c31 25 81 44 136 44c124 0 196 -84 196 -191c0 -109 -74 -224 -226 -224c-105 0 -201 65 -201 146c0 40 27 72 63 72c37 0 55 -27 55 -55c0 -27 -18 -51 -41 -60c20 -28 62 -55 121 -55c91 0 143 66 143 168c0 100 -46 150 -127 150
c-59 0 -101 -25 -136 -59l-41 12l22 325l13 10c63 -25 119 -37 179 -37c65 0 107 14 148 36l13 -28c-40 -56 -95 -86 -170 -86c-53 0 -102 14 -134 27z" />
    <glyph glyph-name="six" unicode="6" horiz-adv-x="532" 
d="M133 301c37 55 89 94 163 94c121 0 189 -84 189 -192c0 -113 -71 -219 -213 -219c-141 0 -224 123 -224 295c0 215 107 364 272 364c98 0 154 -53 154 -113c0 -42 -25 -71 -61 -71c-35 0 -56 24 -56 54c0 23 15 47 40 56c-15 16 -41 26 -77 26
c-113 0 -186 -100 -187 -294zM139 191c0 -84 55 -158 136 -158c83 0 124 66 124 165c0 77 -39 147 -124 147c-79 0 -136 -64 -136 -154z" />
    <glyph glyph-name="seven" unicode="7" horiz-adv-x="521" 
d="M267 45c-3 -41 -18 -61 -50 -61c-26 0 -47 17 -47 53c-1 98 71 280 194 413c30 33 58 65 76 89l-4 4c-35 -20 -69 -31 -100 -31c-72 0 -107 44 -155 44c-45 0 -70 -32 -82 -157h-49v230h52l4 -81h4c20 59 48 86 96 86c79 0 103 -81 167 -81c12 0 28 2 45 10
c-8 10 -14 21 -14 34c0 26 21 47 48 47c32 0 51 -24 51 -53c0 -40 -25 -71 -82 -137c-95 -110 -143 -222 -154 -409z" />
    <glyph glyph-name="eight" unicode="8" horiz-adv-x="532" 
d="M65 465c0 96 80 178 207 178c121 0 195 -75 195 -158c0 -69 -36 -121 -115 -152c92 -35 135 -87 135 -157c0 -106 -94 -192 -226 -192c-131 0 -214 77 -214 169c0 59 30 123 124 160c-75 34 -106 84 -106 152zM223 294c-2 0 -4 1 -6 1c-63 -25 -95 -73 -95 -133
c0 -72 56 -131 148 -131c84 0 140 59 140 122c0 68 -52 101 -187 141zM143 484c0 -70 49 -106 161 -136c69 31 94 81 94 131c0 63 -47 116 -130 116c-80 0 -125 -53 -125 -111z" />
    <glyph glyph-name="nine" unicode="9" horiz-adv-x="532" 
d="M399 318c-37 -55 -89 -93 -163 -93c-121 0 -189 83 -189 194c0 118 71 224 213 224c141 0 224 -122 224 -294c0 -218 -101 -365 -268 -365c-108 0 -166 55 -166 119c0 40 25 69 61 69c35 0 56 -24 56 -53c0 -24 -15 -47 -40 -57c21 -20 50 -30 88 -30
c113 0 182 97 184 286zM393 433c0 88 -55 161 -136 161c-83 0 -124 -66 -124 -169c0 -81 38 -151 124 -151c79 0 136 65 136 159z" />
    <glyph glyph-name="period" unicode="." horiz-adv-x="214" 
d="M107 -15c-32 0 -57 25 -57 56c0 32 25 57 57 57s57 -25 57 -57c0 -31 -25 -56 -57 -56z" />
    <glyph glyph-name="comma" unicode="," horiz-adv-x="214" 
d="M32 -141l-15 31c72 34 99 67 106 107l-4 2c-7 -4 -14 -6 -23 -6c-25 0 -45 21 -45 49c0 30 22 56 54 56c39 0 63 -31 63 -74c0 -67 -38 -121 -136 -165z" />
    <glyph glyph-name="colon" unicode=":" horiz-adv-x="218" 
d="M109 284c-32 0 -57 25 -57 56c0 32 25 57 57 57s57 -25 57 -57c0 -31 -25 -56 -57 -56zM109 -15c-32 0 -57 25 -57 56c0 32 25 57 57 57s57 -25 57 -57c0 -31 -25 -56 -57 -56z" />
    <glyph glyph-name="semicolon" unicode=";" horiz-adv-x="218" 
d="M111 284c-32 0 -57 25 -57 56c0 32 25 57 57 57c31 0 57 -25 57 -57c0 -31 -26 -56 -57 -56zM32 -141l-15 31c72 34 99 67 106 107l-4 2c-7 -4 -14 -6 -23 -6c-25 0 -45 21 -45 49c0 30 22 56 54 56c39 0 63 -31 63 -74c0 -67 -38 -121 -136 -165z" />
    <glyph glyph-name="ellipsis" unicode="&#x2026;" horiz-adv-x="633" 
d="M526 -15c-32 0 -57 25 -57 56c0 32 25 57 57 57s57 -25 57 -57c0 -31 -25 -56 -57 -56zM317 -15c-32 0 -58 25 -58 56c0 32 26 57 58 57c31 0 56 -25 56 -57c0 -31 -25 -56 -56 -56zM107 -15c-32 0 -57 25 -57 56c0 32 25 57 57 57s57 -25 57 -57c0 -31 -25 -56 -57 -56z
" />
    <glyph glyph-name="periodcentered" unicode="&#xb7;" horiz-adv-x="214" 
d="M107 264c-32 0 -57 25 -57 56c0 32 25 57 57 57s57 -25 57 -57c0 -31 -25 -56 -57 -56z" />
    <glyph glyph-name="bullet" unicode="&#x2022;" horiz-adv-x="460" 
d="M230 193c-67 0 -121 54 -121 122s54 123 121 123s121 -55 121 -123s-54 -122 -121 -122z" />
    <glyph glyph-name="ampersand" unicode="&#x26;" horiz-adv-x="719" 
d="M480 377h212v-49h-77c-29 -67 -69 -138 -122 -202c39 -63 59 -81 88 -81c25 0 43 17 63 62l36 -16c-23 -64 -61 -107 -123 -107c-50 0 -84 22 -124 89c-55 -58 -115 -89 -191 -89c-125 0 -190 81 -190 163c0 85 52 143 165 190c-41 43 -65 86 -65 136
c0 88 73 151 162 151c90 0 143 -60 143 -123c0 -68 -41 -115 -132 -162c62 -60 104 -114 140 -174c38 47 73 110 94 163h-79v49zM265 43c53 0 98 24 143 69c-38 66 -81 121 -159 196c-75 -36 -111 -79 -111 -145c0 -62 48 -120 127 -120zM224 495c0 -38 15 -74 72 -129
c61 35 90 77 90 128c0 47 -27 86 -77 86c-53 0 -85 -38 -85 -85z" />
    <glyph glyph-name="exclam" unicode="!" horiz-adv-x="266" 
d="M133 678c31 0 51 -20 51 -61c0 -37 -7 -103 -13 -170c-8 -74 -16 -161 -21 -261h-33c-5 100 -14 187 -21 261c-7 67 -14 134 -14 170c0 41 20 61 51 61zM133 -15c-32 0 -57 25 -57 56c0 32 25 57 57 57s57 -25 57 -57c0 -31 -25 -56 -57 -56z" />
    <glyph glyph-name="exclamdown" unicode="&#xa1;" horiz-adv-x="266" 
d="M146 -15c-31 0 -51 20 -51 61c0 37 7 103 13 170c8 74 16 161 21 261h33c5 -100 14 -187 21 -261c7 -67 14 -134 14 -170c0 -41 -20 -61 -51 -61zM146 678c32 0 57 -25 57 -56c0 -32 -25 -57 -57 -57s-57 25 -57 57c0 31 25 56 57 56z" />
    <glyph glyph-name="question" unicode="?" horiz-adv-x="430" 
d="M176 192c1 69 19 123 63 177c49 60 82 91 82 155c0 62 -43 110 -110 110c-53 0 -95 -26 -110 -60c26 -7 45 -30 45 -58c0 -32 -22 -60 -58 -60s-63 30 -63 68c0 79 81 154 187 154c129 0 195 -76 195 -161c0 -67 -31 -112 -111 -179c-50 -43 -69 -86 -76 -146h-44z
M201 -15c-32 0 -57 25 -57 56c0 32 25 57 57 57s57 -25 57 -57c0 -31 -25 -56 -57 -56z" />
    <glyph glyph-name="questiondown" unicode="&#xbf;" horiz-adv-x="422" 
d="M249 471c-1 -69 -19 -123 -63 -177c-49 -60 -82 -91 -82 -155c0 -62 43 -110 110 -110c53 0 95 26 110 60c-26 7 -45 30 -45 58c0 32 22 60 58 60s63 -30 63 -68c0 -79 -81 -154 -187 -154c-129 0 -195 76 -195 161c0 67 31 112 111 179c50 43 69 86 76 146h44zM224 678
c32 0 57 -25 57 -56c0 -32 -25 -57 -57 -57s-57 25 -57 57c0 31 25 56 57 56z" />
    <glyph glyph-name="quotedblleft" unicode="&#x201c;" horiz-adv-x="389" 
d="M287 433c-39 0 -63 31 -63 73c0 68 37 121 136 165l15 -30c-72 -34 -99 -67 -106 -107l4 -3c7 5 14 7 23 7c25 0 45 -21 45 -49c0 -30 -22 -56 -54 -56zM111 433c-40 0 -63 31 -63 73c0 68 37 121 135 165l16 -30c-72 -34 -100 -67 -107 -107l4 -3c8 5 14 7 23 7
c25 0 45 -21 45 -49c0 -30 -22 -56 -53 -56z" />
    <glyph glyph-name="quotedblright" unicode="&#x201d;" horiz-adv-x="389" 
d="M209 429l-16 30c72 34 100 68 107 108l-4 2c-8 -4 -15 -6 -23 -6c-25 0 -46 21 -46 49c0 29 23 55 54 55c40 0 63 -30 63 -73c0 -68 -37 -121 -135 -165zM32 429l-15 30c72 34 99 68 106 108l-4 2c-7 -4 -14 -6 -23 -6c-25 0 -45 21 -45 49c0 29 22 55 54 55
c39 0 63 -30 63 -73c0 -68 -38 -121 -136 -165z" />
    <glyph glyph-name="quoteleft" unicode="&#x2018;" horiz-adv-x="214" 
d="M111 433c-39 0 -63 31 -63 73c0 68 37 121 135 165l16 -30c-72 -34 -99 -67 -106 -107l4 -3c7 5 14 7 23 7c25 0 45 -21 45 -49c0 -30 -22 -56 -54 -56z" />
    <glyph glyph-name="quoteright" unicode="&#x2019;" horiz-adv-x="214" 
d="M32 429l-15 30c72 34 99 68 106 108l-4 2c-7 -4 -14 -6 -23 -6c-25 0 -45 21 -45 49c0 29 22 55 54 55c39 0 63 -30 63 -73c0 -68 -38 -121 -136 -165z" />
    <glyph glyph-name="quotedblbase" unicode="&#x201e;" horiz-adv-x="389" 
d="M209 -140l-16 30c72 34 100 68 107 108l-4 2c-8 -4 -15 -6 -23 -6c-25 0 -46 21 -46 49c0 29 23 55 54 55c40 0 63 -30 63 -73c0 -68 -37 -121 -135 -165zM32 -140l-15 30c72 34 99 68 106 108l-4 2c-7 -4 -14 -6 -23 -6c-25 0 -45 21 -45 49c0 29 22 55 54 55
c39 0 63 -30 63 -73c0 -68 -38 -121 -136 -165z" />
    <glyph glyph-name="quotesinglbase" unicode="&#x201a;" horiz-adv-x="214" 
d="M32 -140l-15 30c72 34 99 68 106 108l-4 2c-7 -4 -14 -6 -23 -6c-25 0 -45 21 -45 49c0 29 22 55 54 55c39 0 63 -30 63 -73c0 -68 -38 -121 -136 -165z" />
    <glyph glyph-name="guillemotleft" unicode="&#xab;" horiz-adv-x="492" 
d="M124 225l125 -173l-29 -20l-150 152c-21 21 -27 31 -27 40s6 19 27 40l150 152l29 -20zM318 225l125 -173l-30 -20l-149 152c-21 21 -27 31 -27 40s6 19 27 40l149 152l30 -20z" />
    <glyph glyph-name="guillemotright" unicode="&#xbb;" horiz-adv-x="492" 
d="M368 223l-125 173l29 20l150 -152c21 -21 27 -31 27 -40s-6 -19 -27 -40l-150 -152l-29 20zM174 223l-125 173l30 20l149 -152c21 -21 27 -31 27 -40s-6 -19 -27 -40l-149 -152l-30 20z" />
    <glyph glyph-name="guilsinglleft" unicode="&#x2039;" horiz-adv-x="298" 
d="M124 225l125 -173l-29 -20l-150 152c-21 21 -27 31 -27 40s6 19 27 40l150 152l29 -20z" />
    <glyph glyph-name="guilsinglright" unicode="&#x203a;" horiz-adv-x="298" 
d="M174 223l-125 173l29 20l150 -152c21 -21 27 -31 27 -40s-6 -19 -27 -40l-150 -152l-29 20z" />
    <glyph glyph-name="hyphen" unicode="-" horiz-adv-x="366" 
d="M55 210v65h256v-65h-256z" />
    <glyph glyph-name="endash" unicode="&#x2013;" horiz-adv-x="540" 
d="M55 211v57h430v-57h-430z" />
    <glyph glyph-name="emdash" unicode="&#x2014;" horiz-adv-x="790" 
d="M55 211v57h680v-57h-680z" />
    <glyph glyph-name="underscore" unicode="_" horiz-adv-x="440" 
d="M-2 0v54h444v-54h-444z" />
    <glyph glyph-name="slash" unicode="/" horiz-adv-x="418" 
d="M-48 -203l386 901h61l-386 -901h-61z" />
    <glyph glyph-name="backslash" unicode="\" horiz-adv-x="418" 
d="M405 -203l-386 901h61l386 -901h-61z" />
    <glyph glyph-name="bar" unicode="|" horiz-adv-x="279" 
d="M112 -203v901h55v-901h-55z" />
    <glyph glyph-name="parenleft" unicode="(" horiz-adv-x="361" 
d="M342 -157c-156 81 -272 221 -272 441c0 219 116 359 272 440l24 -37c-137 -85 -214 -212 -214 -403s77 -319 214 -404z" />
    <glyph glyph-name="parenright" unicode=")" horiz-adv-x="361" 
d="M19 724c156 -81 272 -221 272 -441c0 -219 -116 -359 -272 -440l-24 37c137 85 214 212 214 403s-77 319 -214 404z" />
    <glyph glyph-name="bracketleft" unicode="[" horiz-adv-x="338" 
d="M89 -152v872h249v-49h-171v-774h171v-49h-249z" />
    <glyph glyph-name="bracketright" unicode="]" horiz-adv-x="338" 
d="M249 720v-872h-249v49h171v774h-171v49h249z" />
    <glyph glyph-name="braceleft" unicode="{" horiz-adv-x="388" 
d="M16 308h30c95 0 137 38 137 92c0 48 -15 99 -15 144c0 106 68 172 210 177v-46c-104 -9 -131 -51 -131 -123c0 -32 8 -83 8 -127c0 -80 -44 -127 -136 -139v-3c92 -12 136 -59 136 -140c0 -44 -8 -95 -8 -127c0 -72 27 -114 131 -123v-46c-142 5 -210 71 -210 177
c0 45 15 96 15 145c0 54 -42 91 -137 91h-30v48z" />
    <glyph glyph-name="braceright" unicode="}" horiz-adv-x="388" 
d="M372 260h-30c-95 0 -137 -38 -137 -92c0 -48 15 -99 15 -144c0 -106 -68 -172 -210 -177v46c104 9 131 51 131 123c0 32 -8 83 -8 127c0 80 44 127 136 139v3c-92 12 -136 59 -136 140c0 44 8 95 8 127c0 72 -27 114 -131 123v46c142 -5 210 -71 210 -177
c0 -45 -15 -96 -15 -145c0 -54 42 -91 137 -91h30v-48z" />
    <glyph glyph-name="at" unicode="@" horiz-adv-x="907" 
d="M459 -146c-225 0 -399 140 -399 389c0 252 190 435 429 435c194 0 358 -132 358 -345c0 -177 -112 -273 -222 -273c-71 0 -113 37 -102 109l-5 1c-40 -64 -90 -99 -140 -99c-66 0 -118 49 -118 138c0 77 36 154 88 203c39 37 86 61 135 61c44 0 85 -26 93 -82l24 77h65
l-76 -245c-32 -103 1 -122 48 -122c82 0 164 89 164 229c0 186 -134 309 -317 309c-219 0 -378 -176 -378 -397c0 -212 140 -348 357 -348c103 0 191 34 261 85l20 -31c-76 -58 -177 -94 -285 -94zM397 120c86 0 154 142 154 224c0 42 -16 89 -67 89
c-87 0 -151 -134 -151 -231c0 -52 23 -82 64 -82z" />
    <glyph glyph-name="copyright" unicode="&#xa9;" horiz-adv-x="787" 
d="M393 -32c-201 0 -359 157 -359 362c0 203 158 360 359 360c202 0 360 -157 360 -360c0 -205 -158 -362 -360 -362zM393 2c181 0 321 144 321 328c0 182 -140 326 -321 326c-179 0 -320 -144 -320 -326c0 -184 141 -328 320 -328zM395 143c-100 0 -171 79 -171 191
c0 107 78 188 173 188c47 0 80 -18 102 -44l11 43h35v-136h-31c-23 65 -57 102 -114 102c-69 0 -114 -53 -114 -150c0 -101 43 -157 118 -157c65 0 102 45 111 114h36c-11 -96 -70 -151 -156 -151z" />
    <glyph glyph-name="published" unicode="&#x2117;" horiz-adv-x="787" 
d="M393 -32c-201 0 -359 157 -359 362c0 203 158 360 359 360c202 0 360 -157 360 -360c0 -205 -158 -362 -360 -362zM393 2c181 0 321 144 321 328c0 182 -140 326 -321 326c-179 0 -320 -144 -320 -326c0 -184 141 -328 320 -328zM247 151v32h60v299h-60v33h168
c111 0 146 -50 146 -106c0 -59 -43 -112 -144 -112h-55v-114h66v-32h-181zM362 328h49c67 0 90 34 90 81c0 42 -22 74 -89 74h-50v-155z" />
    <glyph glyph-name="registered.alt" horiz-adv-x="787" 
d="M393 -32c-201 0 -359 157 -359 362c0 203 158 360 359 360c202 0 360 -157 360 -360c0 -205 -158 -362 -360 -362zM393 2c181 0 321 144 321 328c0 182 -140 326 -321 326c-179 0 -320 -144 -320 -326c0 -184 141 -328 320 -328zM339 313v-130h61v-32h-176v32h61v299h-61
v33h185c95 0 134 -43 134 -95c0 -39 -25 -79 -92 -90v-2c54 -12 72 -38 75 -80l4 -42c1 -18 8 -25 19 -25c10 0 18 6 26 25l21 -9c-11 -33 -30 -53 -64 -53c-35 0 -60 17 -61 68l-1 42c-1 40 -14 59 -67 59h-64zM339 343h62c59 0 82 29 82 75c0 41 -23 64 -75 64h-69v-139z
" />
    <glyph glyph-name="registered" unicode="&#xae;" horiz-adv-x="517" 
d="M258 248c-125 0 -221 95 -221 222s96 220 221 220c126 0 222 -93 222 -220s-96 -222 -222 -222zM258 276c115 0 189 79 189 194c0 114 -74 192 -189 192c-113 0 -188 -78 -188 -192c0 -115 75 -194 188 -194zM228 459v-77h36v-23h-112v23h36v181h-36v24h116
c69 0 89 -31 89 -60c0 -24 -18 -49 -65 -55v-3c38 -6 51 -24 54 -49l2 -23c1 -13 4 -17 10 -17s11 4 16 18l16 -6c-7 -22 -20 -38 -42 -38c-25 0 -40 13 -42 47l-1 22c-1 24 -10 36 -40 36h-37zM228 481h36c32 0 48 15 48 43c0 26 -14 39 -45 39h-39v-82z" />
    <glyph glyph-name="servicemark" unicode="&#x2120;" horiz-adv-x="777" 
d="M51 353v104h27c28 -55 57 -77 100 -77c34 0 56 16 56 50c0 36 -33 45 -79 56c-50 13 -100 29 -100 89c0 47 38 86 96 86c29 0 56 -13 73 -33l10 31h27v-99h-26c-23 54 -51 73 -85 73c-28 0 -52 -15 -52 -47c0 -38 35 -46 76 -56c55 -13 102 -27 102 -87
c0 -52 -41 -91 -99 -91c-37 0 -66 13 -87 36l-10 -35h-29zM322 358v29h44v237h-44v29l127 -1l78 -226h4l81 226h123v-28h-45v-237h45v-29h-131v29h35v225h-9l-94 -254h-34l-92 254h-10v-225h38v-29h-116z" />
    <glyph glyph-name="trademark" unicode="&#x2122;" horiz-adv-x="819" 
d="M365 358v29h44v237h-44v28h127l78 -226h3l82 226h123v-28h-45v-237h45v-29h-132v29h36v225h-9l-94 -254h-35l-91 254h-10v-225h37v-29h-115zM101 358v29h57v238h-33c-36 0 -40 -13 -57 -82h-23v109h277v-109h-23c-15 68 -21 82 -56 82h-33v-238h56v-29h-165z" />
    <glyph glyph-name="asterisk" unicode="*" horiz-adv-x="408" 
d="M214 393c-8 24 -7 82 -9 114l-13 4c-20 -24 -55 -73 -74 -88c-22 -16 -38 -14 -52 4c-14 19 -11 36 11 51c20 14 78 33 107 46v12c-30 11 -87 30 -107 44c-22 15 -26 32 -12 51c13 19 31 21 53 4c19 -14 54 -63 74 -87l12 4c3 32 1 91 9 114c9 26 23 35 46 27
c21 -6 27 -22 19 -48c-7 -22 -43 -70 -59 -97l7 -11c31 9 88 27 112 27c27 0 39 -10 39 -34c0 -23 -11 -34 -40 -34c-22 0 -80 19 -111 26l-7 -10c17 -27 52 -75 59 -98c9 -26 3 -41 -19 -48c-21 -7 -36 1 -45 27z" />
    <glyph glyph-name="dagger" unicode="&#x2020;" horiz-adv-x="518" 
d="M242 425c-43 18 -88 29 -103 29c-4 0 -9 0 -12 -1c3 -5 7 -15 7 -27c0 -27 -18 -47 -44 -47c-25 0 -48 17 -48 47s23 66 85 66c30 0 61 -8 115 -30l-28 178l8 21c8 20 17 39 37 39s29 -19 37 -39l8 -21l-29 -189c43 -18 89 -29 104 -29c4 0 9 0 12 1c-3 5 -7 15 -7 27
c0 27 18 47 44 47c25 0 48 -17 48 -47s-23 -66 -85 -66c-30 0 -60 8 -114 30l17 -269v-153c0 -49 -26 -93 -35 -93c-10 0 -36 44 -36 93v153z" />
    <glyph glyph-name="daggerdbl" unicode="&#x2021;" horiz-adv-x="518" 
d="M242 462l-28 178l8 21c8 20 17 39 37 39s29 -19 37 -39l8 -21l-29 -189c43 -18 89 -29 104 -29c4 0 9 0 12 1c-3 5 -7 15 -7 27c0 27 18 47 44 47c25 0 48 -17 48 -47s-23 -66 -85 -66c-30 0 -60 8 -114 30l17 -125l-17 -116c42 -18 87 -29 102 -29c4 0 9 0 12 1
c-3 6 -7 16 -7 28c0 26 18 47 44 47c25 0 48 -18 48 -48c0 -29 -23 -65 -85 -65c-30 0 -61 8 -115 30l28 -178l-8 -22c-8 -19 -17 -38 -37 -38s-29 19 -37 38l-8 22l29 188c-43 19 -89 30 -104 30c-4 0 -9 0 -12 -1c3 -6 7 -16 7 -28c0 -26 -18 -47 -44 -47
c-25 0 -48 18 -48 48c0 29 23 65 85 65c30 0 60 -7 114 -29l-17 125l17 116c-43 17 -87 28 -102 28c-4 0 -9 0 -12 -1c3 -5 7 -15 7 -27c0 -27 -18 -47 -44 -47c-25 0 -48 17 -48 47s23 66 85 66c30 0 61 -8 115 -30z" />
    <glyph glyph-name="asciicircum" unicode="^" horiz-adv-x="333" 
d="M30 512l118 197h40l114 -197h-40l-96 116l-97 -116h-39z" />
    <glyph glyph-name="asciitilde" unicode="~" horiz-adv-x="371" 
d="M41 251c12 91 38 122 89 122c52 0 93 -57 126 -57c24 0 35 25 42 64h36c-12 -91 -38 -122 -89 -122c-52 0 -93 57 -126 57c-24 0 -35 -25 -42 -64h-36z" />
    <glyph glyph-name="dollar" unicode="$" horiz-adv-x="534" 
d="M297 -79h-47v79c-122 7 -205 69 -205 132c0 34 24 64 59 64c34 0 56 -27 56 -56c0 -23 -13 -42 -32 -53c17 -18 61 -39 122 -44v241c-117 36 -184 72 -184 170c0 84 67 160 184 173v70h47v-69c106 -4 184 -63 184 -124c0 -37 -21 -61 -52 -61c-35 0 -55 23 -55 51
c0 22 14 41 31 49c-17 19 -53 39 -108 42v-230c132 -40 187 -82 187 -175c0 -80 -58 -170 -187 -180v-79zM415 155c0 54 -30 85 -118 115v-226c74 7 118 53 118 111zM138 477c0 -52 27 -81 112 -108v215c-76 -10 -112 -60 -112 -107z" />
    <glyph glyph-name="sterling" unicode="&#xa3;" horiz-adv-x="587" 
d="M459 285h-174c1 -10 3 -21 3 -31c0 -27 -6 -65 -30 -111c81 -25 133 -78 180 -78c41 0 63 29 77 112l40 -3c-8 -134 -46 -189 -128 -189c-73 0 -130 66 -196 100c-29 -70 -71 -101 -121 -101c-43 0 -77 27 -77 71c0 49 45 102 146 102c12 0 24 -1 35 -3c8 25 9 43 9 57
c0 27 -9 51 -20 74h-146v51h119c-13 27 -23 57 -23 96c0 132 94 211 209 211c107 0 168 -65 168 -128c0 -44 -28 -73 -63 -73s-59 24 -59 58c0 27 16 47 37 55c-14 23 -47 40 -88 40c-70 0 -125 -45 -125 -121c0 -50 22 -93 39 -138h188v-51zM117 29c32 0 54 31 70 73
c-12 4 -25 7 -38 7c-44 0 -64 -25 -64 -48c0 -21 15 -32 32 -32z" />
    <glyph glyph-name="Euro" unicode="&#x20ac;" horiz-adv-x="643" 
d="M38 351v47h94c33 141 140 245 273 245c112 0 195 -66 195 -136c0 -34 -22 -69 -62 -69c-38 0 -60 24 -60 59c0 23 12 43 30 55c-20 29 -65 41 -102 41c-73 0 -164 -44 -189 -195h198v-47h-204c-1 -14 -1 -29 -1 -44c0 -14 0 -27 1 -40h204v-47h-197
c22 -110 88 -173 180 -173c89 0 148 62 160 155h47c-6 -112 -86 -218 -223 -218c-141 0 -228 103 -253 236h-91v47h84c-1 12 -1 25 -1 38c0 15 1 31 2 46h-85z" />
    <glyph glyph-name="yen" unicode="&#xa5;" horiz-adv-x="654" 
d="M99 309h161l-153 269h-78v50h261v-50h-89l140 -259l150 259h-82v50h217v-50h-73l-163 -269h160v-47h-185v-72h185v-47h-185v-91h118v-52h-316v52h119v91h-187v47h187v72h-187v47z" />
    <glyph glyph-name="cent" unicode="&#xa2;" horiz-adv-x="514" 
d="M275 -102l-46 3l7 94c-107 17 -177 105 -177 221c0 135 86 233 219 241l8 89l46 -3l-8 -87c92 -10 157 -71 157 -126c0 -38 -23 -64 -58 -64s-55 25 -55 54c0 24 16 46 38 54c-14 20 -44 36 -86 41l-34 -372h9c63 0 115 35 141 103h42c-25 -99 -101 -152 -195 -155z
M143 226c0 -91 36 -154 99 -175l33 364c-80 -10 -132 -81 -132 -189z" />
    <glyph glyph-name="numbersign" unicode="#" horiz-adv-x="663" 
d="M209 414h-138v50h148l38 193h59l-38 -193h165l39 193h59l-39 -193h130v-50h-139l-40 -203h138v-51h-148l-39 -200h-60l40 200h-165l-39 -200h-60l39 200h-128v51h138zM433 414h-165l-39 -203h164z" />
    <glyph glyph-name="paragraph" unicode="&#xb6;" horiz-adv-x="641" 
d="M324 -104v274c-163 1 -265 87 -265 222c0 117 78 214 275 214h271v-51h-92v-659h-56v659h-78v-659h-55z" />
    <glyph glyph-name="section" unicode="&#xa7;" horiz-adv-x="516" 
d="M257 -118c-103 0 -188 50 -188 117c0 34 22 63 56 63s54 -25 54 -52c0 -22 -14 -40 -30 -49c13 -12 49 -34 112 -34c77 0 108 38 108 77s-21 70 -126 105c-126 42 -166 77 -166 148c0 54 45 100 112 125v5c-59 27 -96 60 -96 114c0 79 74 143 182 143
c90 0 160 -53 160 -110c0 -34 -20 -58 -51 -58c-32 0 -52 23 -52 49c0 20 12 36 26 44c-12 11 -40 30 -86 30c-74 0 -109 -38 -109 -76s24 -64 131 -101c117 -40 159 -74 159 -148c0 -49 -39 -100 -105 -126v-5c57 -25 91 -59 91 -113c0 -73 -55 -148 -182 -148zM294 166
c60 18 87 54 87 92c0 41 -23 69 -111 98l-29 10c-62 -19 -90 -56 -90 -94c0 -43 27 -68 117 -97z" />
    <glyph glyph-name="ordfeminine" unicode="&#xaa;" horiz-adv-x="403" 
d="M151 310c-61 0 -97 34 -97 86c0 23 10 46 31 64c25 21 60 30 123 40c39 7 45 9 45 21v29c0 47 -23 62 -66 62c-24 0 -46 -6 -61 -16c12 -7 19 -19 19 -34c0 -21 -15 -38 -39 -38s-40 17 -40 39c0 48 63 83 132 83c74 0 116 -32 116 -99v-167c0 -22 9 -29 22 -29
c11 0 20 10 29 30l25 -13c-17 -37 -38 -56 -72 -56c-29 0 -54 16 -58 56h-3c-23 -35 -63 -58 -106 -58zM175 352c38 0 78 32 78 69v59c-6 -2 -15 -4 -31 -7c-75 -12 -102 -25 -102 -67c0 -36 19 -54 55 -54z" />
    <glyph glyph-name="ordmasculine" unicode="&#xba;" horiz-adv-x="416" 
d="M208 309c-93 0 -162 65 -162 166s73 171 162 171c94 0 162 -66 162 -166c0 -102 -72 -171 -162 -171zM211 345c53 0 94 44 94 134s-46 131 -100 131c-53 0 -94 -43 -94 -134c0 -90 46 -131 100 -131z" />
    <glyph glyph-name="degree" unicode="&#xb0;" horiz-adv-x="391" 
d="M195 349c-99 0 -157 70 -157 157c0 88 64 161 158 161c99 0 157 -70 157 -158c0 -87 -63 -160 -158 -160zM198 395c54 0 93 38 93 113c0 73 -43 113 -98 113c-52 0 -92 -40 -92 -113s42 -113 97 -113z" />
    <glyph glyph-name="percent" unicode="%" horiz-adv-x="779" 
d="M165 266c-77 0 -123 53 -123 133c0 114 90 221 193 221c39 0 71 -15 90 -45c31 -16 62 -20 91 -20c57 0 114 21 163 79h50l-428 -660h-66l392 578l-3 3c-28 -22 -67 -42 -122 -42c-17 0 -37 1 -59 8c0 -7 1 -13 1 -20c0 -93 -63 -235 -179 -235zM559 -14
c-77 0 -124 53 -124 133c0 114 90 221 193 221c65 0 109 -40 109 -120c0 -92 -62 -234 -178 -234zM567 28c72 0 125 108 125 192c0 48 -20 75 -59 74c-71 -1 -126 -107 -126 -187c0 -51 24 -79 60 -79zM174 309c72 0 125 107 125 191c0 13 -2 25 -5 35c-18 9 -36 22 -55 39
c-71 -2 -125 -108 -125 -187c0 -51 24 -78 60 -78z" />
    <glyph glyph-name="quotedbl" unicode="&#x22;" horiz-adv-x="378" 
d="M241 412l-27 12l25 97c15 63 22 90 30 109c10 20 23 26 36 26c23 0 45 -14 45 -37c0 -11 -3 -22 -7 -30c-11 -22 -27 -53 -52 -94zM85 412l-27 12l25 97c15 63 22 90 30 109c10 20 23 26 36 26c23 0 45 -14 45 -37c0 -11 -4 -22 -7 -30c-11 -22 -27 -53 -52 -94z" />
    <glyph glyph-name="quotesingle" unicode="'" horiz-adv-x="224" 
d="M85 412l-27 12l25 97c15 63 22 90 30 109c10 20 23 26 36 26c23 0 45 -14 45 -37c0 -11 -4 -22 -7 -30c-11 -22 -27 -53 -52 -94z" />
    <glyph glyph-name="plus" unicode="+" horiz-adv-x="524" 
d="M236 67v186h-182v49h182v186h53v-186h181v-49h-181v-186h-53z" />
    <glyph glyph-name="minus" unicode="&#x2212;" horiz-adv-x="522" 
d="M446 251h-370v54h370v-54z" />
    <glyph glyph-name="divide" unicode="&#xf7;" horiz-adv-x="512" 
d="M256 484c30 0 54 -24 54 -54s-24 -54 -54 -54s-54 24 -54 54s24 54 54 54zM465 253h-417v49h417v-49zM256 180c30 0 54 -25 54 -55s-24 -54 -54 -54s-54 24 -54 54s24 55 54 55z" />
    <glyph glyph-name="equal" unicode="=" horiz-adv-x="526" 
d="M57 344v49h411v-49h-411zM57 163v48h411v-48h-411z" />
    <glyph glyph-name="multiply" unicode="&#xd7;" horiz-adv-x="512" 
d="M291 278l144 -148l-36 -36l-143 148l-142 -147l-36 36l143 147l-144 148l36 36l143 -148l142 147l36 -37z" />
    <glyph glyph-name="less" unicode="&#x3c;" horiz-adv-x="516" 
d="M437 72l-357 184v44l357 183v-54l-300 -151l300 -150v-56z" />
    <glyph glyph-name="greater" unicode="&#x3e;" horiz-adv-x="516" 
d="M79 483l357 -184v-44l-357 -183v54l300 151l-300 150v56z" />
    <glyph glyph-name="plusminus" unicode="&#xb1;" horiz-adv-x="539" 
d="M246 159v165h-160v44h160v163h49v-163h159v-44h-159v-165h-49zM455 29h-371v46h371v-46z" />
    <glyph glyph-name="zero.osf" horiz-adv-x="558" 
d="M280 -16c-147 0 -238 132 -238 287c0 156 96 290 237 290c147 0 238 -132 238 -287s-96 -290 -237 -290zM283 33c97 0 143 100 143 239s-53 240 -150 240s-144 -100 -144 -239s54 -240 151 -240z" />
    <glyph glyph-name="one.osf" horiz-adv-x="438" 
d="M56 0v52h140v386c-21 -11 -52 -16 -83 -16c-21 0 -45 3 -60 8v42c76 -1 143 28 172 81h53v-501h135v-52h-357z" />
    <glyph glyph-name="two.osf" horiz-adv-x="530" 
d="M457 403c0 -84 -54 -135 -176 -181c-100 -36 -152 -88 -168 -131l2 -3c23 14 55 22 83 22c68 0 112 -49 162 -49c45 0 66 31 88 119l39 -3c-13 -140 -71 -193 -138 -193c-79 0 -124 81 -184 81c-8 0 -18 -3 -25 -5c5 -8 8 -18 8 -29c0 -26 -17 -47 -45 -47
c-35 0 -55 31 -55 66c0 73 63 145 189 204c99 47 134 81 134 152c0 63 -43 107 -116 107c-61 0 -101 -28 -120 -57c27 -8 46 -28 46 -57c0 -32 -23 -58 -58 -58s-60 30 -60 68c0 74 83 152 200 152c129 0 194 -75 194 -158z" />
    <glyph glyph-name="three.osf" horiz-adv-x="511" 
d="M241 -86c-114 0 -203 62 -203 138c0 36 25 66 61 66s57 -28 57 -58c0 -25 -14 -45 -31 -56c18 -19 52 -42 116 -42c83 0 131 55 131 129c0 80 -44 132 -166 132h-23v49h18c118 0 160 52 160 128c0 70 -43 113 -117 113c-63 0 -97 -26 -115 -49c25 -9 43 -31 43 -56
c0 -30 -19 -58 -56 -58c-34 0 -61 26 -61 66c0 73 78 145 197 145c124 0 197 -74 197 -156c0 -78 -56 -134 -159 -156v-2c111 -13 170 -68 170 -148c0 -101 -83 -185 -219 -185z" />
    <glyph glyph-name="four.osf" horiz-adv-x="553" 
d="M322 164v303h-3l-226 -303h229zM401 -25h84v-50h-249v50h85v136h-293v53l294 392h79v-392h131v-53h-131v-136z" />
    <glyph glyph-name="five.osf" horiz-adv-x="505" 
d="M155 468l-13 -190c31 24 78 43 131 43c121 0 191 -83 191 -188c0 -106 -72 -219 -220 -219c-102 0 -198 64 -198 144c0 40 27 72 63 72s54 -27 54 -55s-18 -50 -41 -60c20 -26 62 -53 119 -53c88 0 137 65 137 163s-45 147 -122 147c-57 0 -96 -25 -131 -58l-40 12
l22 320l12 10c61 -25 116 -36 173 -36c61 0 102 13 141 35l13 -28c-38 -55 -92 -85 -163 -85c-50 0 -97 14 -128 26z" />
    <glyph glyph-name="six.osf" horiz-adv-x="525" 
d="M133 295c36 54 87 91 160 91c121 0 189 -82 189 -187c0 -111 -72 -215 -212 -215c-139 0 -222 120 -222 289c0 199 115 358 269 358c99 0 153 -53 153 -111c0 -41 -24 -70 -61 -70s-56 24 -56 53c0 23 14 45 41 54c-19 17 -41 26 -78 26c-101 0 -180 -110 -183 -288z
M139 186c0 -81 55 -153 135 -153s122 65 122 161c0 74 -39 142 -122 142c-78 0 -135 -63 -135 -150z" />
    <glyph glyph-name="seven.osf" horiz-adv-x="497" 
d="M159 -38c0 91 73 285 195 417c18 19 62 68 68 82l-3 3c-35 -20 -64 -30 -96 -30c-68 0 -100 42 -146 42c-43 0 -68 -32 -79 -152h-49v226h53l4 -81h3c19 58 48 86 93 86c75 0 99 -81 160 -81c8 0 23 2 39 10c-8 9 -12 21 -12 35c0 24 19 46 45 46c33 0 51 -25 51 -54
c0 -39 -24 -71 -78 -133c-95 -107 -136 -217 -151 -404c-3 -40 -17 -60 -49 -60c-27 0 -48 16 -48 48z" />
    <glyph glyph-name="eight.osf" horiz-adv-x="524" 
d="M66 456c0 94 78 175 203 175c117 0 190 -74 190 -155c0 -68 -34 -119 -110 -150c89 -33 131 -86 131 -153c0 -104 -93 -189 -222 -189c-130 0 -212 76 -212 166c0 57 30 120 121 157c-72 33 -101 82 -101 149zM220 287c-3 0 -5 1 -7 2c-61 -26 -91 -71 -91 -130
c0 -71 54 -127 144 -127c82 0 136 56 136 118c0 67 -49 98 -182 137zM144 475c0 -69 46 -103 157 -133c66 30 89 79 89 128c0 61 -46 113 -125 113c-78 0 -121 -51 -121 -108z" />
    <glyph glyph-name="nine.osf" horiz-adv-x="525" 
d="M392 244c-33 -57 -88 -91 -159 -91c-117 0 -190 81 -190 189c0 114 84 219 218 219c145 0 216 -124 216 -293c0 -193 -99 -354 -260 -354c-106 0 -166 56 -166 117c0 41 26 73 62 73s55 -25 55 -55c0 -23 -14 -45 -39 -55c18 -18 45 -32 88 -32c112 0 169 107 175 282z
M386 359c0 82 -47 153 -125 153c-84 0 -132 -73 -132 -163c0 -81 39 -147 123 -147c80 0 134 62 134 157z" />
    <glyph glyph-name="dollar.osf" horiz-adv-x="521" 
d="M290 -85h-47v79c-118 6 -200 67 -200 130c0 34 24 64 60 64c34 0 55 -27 55 -56c0 -23 -13 -42 -31 -53c17 -18 59 -38 116 -42v204c-108 31 -178 64 -178 152c0 80 65 148 178 160v69h47v-68c102 -4 179 -63 179 -125c0 -35 -24 -59 -54 -59c-32 0 -53 23 -53 50
c0 23 14 41 31 50c-16 18 -51 38 -103 41v-195c125 -36 181 -77 181 -158c0 -73 -57 -155 -181 -164v-79zM402 133c0 42 -28 69 -112 95v-191c70 6 112 47 112 96zM138 419c0 -43 25 -66 105 -90v181c-72 -9 -105 -51 -105 -91z" />
    <glyph glyph-name="sterling.osf" horiz-adv-x="575" 
d="M435 243h-161c1 -4 1 -8 1 -11c0 -27 -4 -55 -28 -94c77 -24 129 -75 176 -75c40 0 60 26 74 106l40 -3c-7 -129 -44 -181 -124 -181c-73 0 -130 64 -194 96c-28 -67 -69 -97 -116 -97c-43 0 -77 25 -77 68c0 47 44 99 142 99c11 0 24 -1 36 -3c5 18 6 30 6 42
c0 19 -7 36 -16 53h-142v50h110c-14 23 -25 50 -25 85c0 108 92 183 210 183c115 0 175 -64 175 -124c0 -38 -26 -68 -61 -68c-33 0 -59 23 -59 56c0 23 16 43 33 51c-12 20 -43 37 -92 37c-75 0 -127 -43 -127 -100c0 -47 26 -82 44 -120h175v-50zM109 29c29 0 51 28 66 67
c-12 4 -24 6 -36 6c-44 0 -61 -22 -61 -43c0 -20 15 -30 31 -30z" />
    <glyph glyph-name="Euro.osf" horiz-adv-x="635" 
d="M36 305v47h96c35 121 141 209 271 209c112 0 195 -65 195 -132c0 -35 -22 -68 -62 -68c-37 0 -60 24 -60 57c0 22 12 42 30 52c-20 28 -64 41 -103 41c-73 0 -161 -38 -187 -159h195v-47h-202c-1 -10 -1 -21 -1 -32c0 -14 0 -28 2 -40h201v-47h-193
c24 -90 86 -139 174 -139c93 0 150 60 163 150h48c-8 -108 -85 -213 -223 -213c-141 0 -227 88 -253 202h-91v47h84c-1 9 -1 18 -1 27c0 15 1 30 3 45h-86z" />
    <glyph glyph-name="yen.osf" horiz-adv-x="647" 
d="M98 307h125l-116 188h-79v50h259v-50h-87l138 -228l147 228h-80v50h215v-50h-73l-124 -188h122v-47h-153l-30 -46v-25h183v-47h-183v-90h115v-52h-311v52h117v90h-185v47h185v22l-31 49h-154v47z" />
    <glyph glyph-name="space" unicode=" " horiz-adv-x="178" 
 />
    <glyph glyph-name="uni00A0" unicode="&#xa0;" horiz-adv-x="178" 
 />
    <glyph glyph-name="emspace" unicode="&#x2003;" horiz-adv-x="1000" 
 />
    <glyph glyph-name="enspace" unicode="&#x2002;" horiz-adv-x="500" 
 />
    <glyph glyph-name="threeperemspace" unicode="&#x2004;" horiz-adv-x="333" 
 />
    <glyph glyph-name="fourperemspace" unicode="&#x2005;" horiz-adv-x="250" 
 />
    <glyph glyph-name="thinspace" unicode="&#x2009;" horiz-adv-x="133" 
 />
    <glyph glyph-name="hairspace" unicode="&#x200a;" horiz-adv-x="75" 
 />
    <glyph glyph-name="hfjslug" horiz-adv-x="694" 
d="M644 -200h-208l-8 14h-163l-8 -14h-207v303c18 0 32 14 32 32c0 17 -14 32 -32 32v554h100l30 79h334l29 -79h101v-921zM400 563v-172h15v78h38v14h-38v66h43v14h-58zM184 563v-172h15v79h47v-79h15v172h-15v-79h-47v79h-15zM460 394c5 -2 14 -4 21 -4c20 0 31 11 31 36
v137h-16v-137c0 -16 -5 -22 -16 -22c-6 0 -15 3 -20 5v-15zM371 465l-13 3c-2 -9 -5 -21 -8 -30h-1l-16 31c13 12 23 26 23 42c0 17 -9 31 -27 31c-17 0 -28 -14 -28 -31c0 -15 6 -24 14 -39c-15 -12 -23 -28 -23 -47c0 -22 12 -37 29 -37c13 0 23 9 29 24h1l12 -24l12 6
l-17 32c5 12 9 25 13 39zM523 323v-46h8v12l8 8l15 -20h10l-20 26l18 20h-10l-20 -24h-1v24h-8zM488 292l10 -15h9l-12 17c5 2 10 6 10 14c0 9 -7 15 -17 15h-20v-46h8v15h12zM426 276c14 0 24 11 24 24c0 12 -10 24 -24 24s-24 -12 -24 -24c0 -13 10 -24 24 -24zM370 301
l-13 22h-9l18 -29v-17h8v17l18 29h-9zM193 323v-46h34v7h-26v13h23v7h-23v12h26v7h-34zM132 323v-46h8v32l25 -32h7v46h-8v-32l-25 32h-7zM241 323l14 -47h8l11 34h1l11 -34h8l14 47h-8l-10 -35h-1l-11 35h-7l-11 -35h-1l-10 35h-8zM327 479c-7 13 -12 22 -12 32
c0 11 6 19 14 19s13 -8 13 -19c0 -12 -5 -21 -15 -32zM342 423c-5 -13 -12 -21 -20 -21c-9 0 -16 10 -16 25c0 13 7 26 16 35zM487 299h-11v17h11c6 0 10 -3 10 -8s-4 -9 -10 -9zM426 283c-10 0 -16 8 -16 17c0 8 6 17 16 17s16 -9 16 -17c0 -9 -6 -17 -16 -17z" />
    <glyph glyph-name="i.dot" horiz-adv-x="300" 
d="M154 552c-33 0 -57 21 -57 56c0 33 23 58 57 58c31 0 55 -23 55 -57s-24 -57 -55 -57zM36 0v52h85v346h-85v52h162v-398h85v-52h-247z" />
    <glyph glyph-name="acute" unicode="&#xb4;" horiz-adv-x="237" 
d="M55 527l50 126c19 50 35 70 60 70c19 0 36 -15 36 -37c0 -20 -14 -39 -43 -76l-65 -83h-38z" />
    <glyph glyph-name="hungarumlaut" unicode="&#x2dd;" horiz-adv-x="288" 
d="M139 527l55 126c22 49 36 70 62 70c18 0 34 -14 34 -36c0 -19 -13 -39 -44 -76l-69 -84h-38zM-5 527l55 126c21 49 36 70 61 70c19 0 35 -14 35 -36c0 -19 -14 -39 -44 -76l-69 -84h-38z" />
    <glyph glyph-name="caron.alt" horiz-adv-x="238" 
d="M109 532h-32l-3 144c-1 56 18 75 42 75c19 0 35 -14 35 -42c0 -15 -4 -34 -12 -63z" />
    <glyph glyph-name="grave" unicode="`" horiz-adv-x="238" 
d="M170 527h-38l-65 83c-29 37 -43 56 -43 76c0 22 17 37 36 37c25 0 41 -21 60 -70z" />
    <glyph glyph-name="circumflex" unicode="&#x2c6;" horiz-adv-x="299" 
d="M23 528l108 181h37l109 -181h-39l-88 102l-88 -102h-39z" />
    <glyph glyph-name="caron" unicode="&#x2c7;" horiz-adv-x="299" 
d="M132 537l-109 181h39l88 -101l88 101h39l-108 -181h-37z" />
    <glyph glyph-name="breve" unicode="&#x2d8;" horiz-adv-x="336" 
d="M168 534c-74 0 -125 56 -129 150h31c16 -55 46 -88 98 -88c53 0 82 33 98 88h31c-3 -94 -54 -150 -129 -150z" />
    <glyph glyph-name="tilde" unicode="&#x2dc;" horiz-adv-x="331" 
d="M19 533c12 91 38 122 89 122c52 0 93 -57 126 -57c24 0 34 24 41 63h37c-12 -91 -38 -123 -89 -123c-52 0 -93 58 -126 58c-24 0 -34 -24 -41 -63h-37z" />
    <glyph glyph-name="macron" unicode="&#xaf;" horiz-adv-x="321" 
d="M35 546v62h251v-62h-251z" />
    <glyph glyph-name="dieresis" unicode="&#xa8;" horiz-adv-x="322" 
d="M248 550c-29 0 -52 24 -52 54s23 55 52 55s51 -25 51 -55s-22 -54 -51 -54zM74 550c-29 0 -51 24 -51 54s22 55 51 55s52 -25 52 -55s-23 -54 -52 -54z" />
    <glyph glyph-name="dotaccent" unicode="&#x2d9;" horiz-adv-x="192" 
d="M96 531c-31 0 -54 22 -54 55c0 30 23 55 54 55c29 0 53 -23 53 -55c0 -31 -24 -55 -53 -55z" />
    <glyph glyph-name="ring" unicode="&#x2da;" horiz-adv-x="258" 
d="M129 521c-69 0 -105 49 -105 101c0 53 36 101 105 101s105 -48 105 -101c0 -52 -36 -101 -105 -101zM129 554c37 0 58 29 58 68s-21 69 -58 69s-58 -30 -58 -69s21 -68 58 -68z" />
    <glyph glyph-name="commaaccent" unicode="&#x326;" horiz-adv-x="225" 
d="M51 -293l-15 29c53 26 76 56 81 92l-3 2c-6 -4 -14 -7 -24 -7c-22 0 -42 20 -42 47c0 28 22 53 52 53c38 0 60 -28 60 -69c0 -62 -31 -112 -109 -147z" />
    <glyph glyph-name="cedilla" unicode="&#xb8;" horiz-adv-x="282" 
d="M113 -237c-34 0 -71 10 -101 30l19 32c25 -15 48 -23 74 -23c35 0 57 16 57 43c0 30 -31 46 -70 46c-16 0 -27 -2 -38 -5l-14 19l96 100h49l-72 -72l1 -3c64 -2 105 -34 105 -79c0 -54 -44 -88 -106 -88z" />
    <glyph glyph-name="ogonek" unicode="&#x2db;" horiz-adv-x="269" 
d="M108 -237c-61 0 -98 34 -98 86c0 45 28 83 90 137l32 28h46l-29 -29c-60 -62 -75 -96 -75 -125c0 -35 24 -52 52 -52c24 0 43 12 57 22l19 -28c-26 -23 -59 -39 -94 -39z" />
    </font>
</defs>
</svg>
