<?xml version="1.0" standalone="no"?>
<!DOCTYPE svg PUBLIC "-//W3C//DTD SVG 1.1//EN" "http://www.w3.org/Graphics/SVG/1.1/DTD/svg11.dtd" >
<svg xmlns="http://www.w3.org/2000/svg" xmlns:xlink="http://www.w3.org/1999/xlink" version="1.1">
<metadata>
Created by FontForge 20170812 at Wed Dec  3 17:39:40 2008
 By www-data
Copyright (C) 2004, 2009 Hoefler &#38; Frere-Jones. http://www.typography.com
</metadata>
<defs>
<font id="Sentinel-SemiboldItalic" horiz-adv-x="673" >
  <font-face 
    font-family="Sentinel Semibold"
    font-weight="375"
    font-style="italic"
    font-stretch="normal"
    units-per-em="1000"
    panose-1="0 0 0 0 0 0 0 0 0 0"
    ascent="800"
    descent="-200"
    x-height="471"
    cap-height="658"
    bbox="-139 -337 1144 1107"
    underline-thickness="50"
    underline-position="-100"
    slope="-12"
    stemh="74"
    stemv="117"
    unicode-range="U+0020-FB04"
  />
<missing-glyph horiz-adv-x="500" 
d="M0 -200v1000h500v-1000h-500zM71 750l179 -390l179 390h-358zM50 -76l172 376l-172 376v-752zM450 676l-172 -376l172 -376v752zM250 240l-179 -390h358z" />
    <glyph glyph-name="f_b" unicode="fb" horiz-adv-x="818" 
d="M597 694l-101 -339l7 -3c42 78 100 119 156 119c85 0 131 -71 131 -164c0 -167 -133 -317 -278 -317c-111 0 -164 67 -164 159c0 40 14 101 31 163l21 77h-151l-66 -318c-39 -182 -127 -241 -211 -241c-61 0 -91 33 -91 71c0 37 26 71 66 71c33 0 51 -24 51 -51
c0 -20 -7 -37 -14 -44c34 -1 48 17 74 143l76 369h-92l16 61h89c28 136 110 244 245 244c35 0 63 -7 84 -17zM615 393c-80 0 -152 -157 -152 -252c0 -60 22 -86 62 -86c92 0 145 173 145 252c0 55 -18 86 -55 86zM268 476l-6 -26h155l20 72c-21 8 -34 26 -34 52
c0 21 10 43 25 58c-6 5 -20 10 -39 10c-71 0 -97 -54 -121 -166z" />
    <glyph glyph-name="f_f" unicode="ff" horiz-adv-x="644" 
d="M259 -170c-61 0 -91 33 -91 71c0 37 26 71 66 71c33 0 51 -24 51 -51c0 -20 -7 -37 -14 -44c33 -1 51 17 77 143l76 369h-174l-67 -318c-39 -182 -127 -241 -211 -241c-61 0 -91 33 -91 71c0 37 26 71 66 71c33 0 51 -24 51 -51c0 -20 -7 -37 -14 -44c34 -1 48 17 74 143
l76 369h-92l16 61h89c35 161 128 243 246 243c74 0 116 -28 132 -61c38 38 87 62 148 62c87 0 126 -44 126 -91c0 -45 -29 -84 -72 -84c-33 0 -57 20 -57 55c0 21 10 47 28 62c-6 4 -16 6 -27 6c-71 0 -90 -57 -113 -167l-6 -25h133l-17 -61h-129l-67 -318
c-38 -182 -130 -241 -213 -241zM268 474l-5 -24h174c5 23 11 46 19 68c-30 2 -50 22 -50 55c0 20 9 43 24 58c-6 5 -21 10 -40 10c-73 0 -99 -55 -122 -167z" />
    <glyph glyph-name="f_h" unicode="fh" horiz-adv-x="867" 
d="M610 694l-129 -431l7 -3c65 142 145 211 217 211c55 0 90 -44 90 -104c0 -85 -74 -213 -74 -274c0 -15 6 -22 18 -22c20 0 42 32 68 101l47 -15c-40 -121 -96 -167 -153 -167c-53 0 -89 35 -89 93c0 100 66 199 66 267c0 23 -10 33 -27 33c-45 0 -138 -76 -221 -383h-120
l103 389h-164l-66 -318c-39 -182 -127 -241 -211 -241c-61 0 -91 33 -91 71c0 37 26 71 66 71c33 0 51 -24 51 -51c0 -20 -7 -37 -14 -44c34 -1 48 17 74 143l76 369h-92l16 61h89c28 136 110 244 245 244c36 0 65 -7 86 -18zM268 476l-6 -26h167l19 70c-27 4 -45 23 -45 54
c0 21 10 43 25 58c-6 5 -20 10 -39 10c-71 0 -97 -54 -121 -166z" />
    <glyph glyph-name="fi" unicode="fi" horiz-adv-x="594" 
d="M402 389h-152l-67 -318c-39 -182 -127 -241 -211 -241c-61 0 -91 33 -91 71c0 37 26 71 66 71c33 0 51 -24 51 -51c0 -20 -7 -37 -14 -44c34 -1 48 17 74 143l76 369h-92l16 61h89c31 141 115 244 256 244c106 0 155 -49 155 -101c0 -41 -28 -81 -77 -81
c-38 0 -63 21 -63 57c0 21 10 47 26 62c-9 7 -29 11 -48 11c-75 0 -104 -53 -128 -167l-5 -25h269l-78 -283c-6 -22 -15 -55 -15 -72s9 -24 21 -24c22 0 41 25 70 101l48 -15c-40 -121 -94 -167 -156 -167c-59 0 -93 36 -93 94c0 31 11 77 27 136z" />
    <glyph glyph-name="f_j" unicode="fj" horiz-adv-x="555" 
d="M418 389h-168l-67 -318c-39 -182 -127 -241 -211 -241c-61 0 -91 33 -91 71c0 37 26 71 66 71c33 0 51 -24 51 -51c0 -20 -7 -37 -14 -44c34 -1 48 17 74 143l76 369h-92l16 61h89c31 141 115 244 256 244c106 0 155 -49 155 -101c0 -41 -28 -81 -77 -81
c-38 0 -63 21 -63 57c0 21 10 47 26 62c-9 7 -29 11 -48 11c-75 0 -104 -53 -128 -167l-5 -25h283l-107 -403c-44 -163 -122 -217 -205 -217c-62 0 -92 33 -92 71c0 36 24 69 63 69c33 0 52 -24 52 -51c0 -20 -8 -36 -19 -46c37 -1 53 15 89 157z" />
    <glyph glyph-name="f_k" unicode="fk" horiz-adv-x="828" 
d="M586 258c72 -6 95 -37 95 -84c0 -29 -9 -58 -9 -76c0 -20 8 -27 19 -27c22 0 41 32 67 101l47 -15c-38 -121 -90 -167 -148 -167c-55 0 -93 37 -93 102c0 28 11 68 11 90c0 37 -16 46 -88 46h-2l-61 -228h-114l103 389h-164l-66 -318c-39 -182 -127 -241 -211 -241
c-61 0 -91 33 -91 71c0 37 26 71 66 71c33 0 51 -24 51 -51c0 -20 -7 -37 -14 -44c34 -1 48 17 74 143l76 369h-92l16 61h89c28 136 110 244 245 244c36 0 65 -7 86 -18l132 18l-113 -421h4c53 0 75 30 119 103c33 54 66 95 125 95c48 0 74 -30 74 -73
c0 -42 -27 -84 -67 -84s-62 35 -47 76c-15 -3 -30 -20 -52 -58c-21 -37 -37 -58 -67 -74zM268 476l-6 -26h167l19 70c-27 4 -45 23 -45 54c0 21 10 43 25 58c-6 5 -20 10 -39 10c-71 0 -97 -54 -121 -166z" />
    <glyph glyph-name="fl" unicode="fl" horiz-adv-x="597" 
d="M392 694c35 0 63 -7 84 -17l126 17l-143 -526c-7 -23 -16 -55 -16 -72c0 -18 8 -25 21 -25c22 0 41 25 70 101l48 -15c-40 -121 -94 -167 -156 -167c-59 0 -93 35 -93 94c0 30 11 78 27 137l44 168h-155l-66 -318c-39 -182 -127 -241 -211 -241c-61 0 -91 33 -91 71
c0 37 26 71 66 71c33 0 51 -24 51 -51c0 -20 -7 -37 -14 -44c34 -1 48 17 74 143l76 369h-92l16 61h89c28 136 110 244 245 244zM268 476l-6 -26h158l19 72c-22 7 -36 25 -36 52c0 21 10 43 25 58c-6 5 -20 10 -39 10c-71 0 -97 -54 -121 -166z" />
    <glyph glyph-name="f_f_b" unicode="ffb" horiz-adv-x="1108" 
d="M259 -170c-61 0 -91 33 -91 71c0 37 26 71 66 71c33 0 51 -24 51 -51c0 -20 -7 -37 -14 -44c33 -1 51 17 77 143l76 369h-174l-67 -318c-39 -182 -127 -241 -211 -241c-61 0 -91 33 -91 71c0 37 26 71 66 71c33 0 51 -24 51 -51c0 -20 -7 -37 -14 -44c34 -1 48 17 74 143
l76 369h-92l16 61h89c35 161 128 243 246 243c76 0 117 -30 133 -63c40 40 92 64 156 64c35 0 62 -7 83 -17l122 17l-101 -339l7 -3c41 78 99 119 156 119c85 0 131 -71 131 -164c0 -167 -133 -317 -278 -317c-111 0 -164 67 -164 159c0 40 13 101 30 163l21 77h-150
l-67 -318c-38 -182 -130 -241 -213 -241zM904 393c-80 0 -151 -157 -151 -252c0 -60 22 -86 62 -86c91 0 144 173 144 252c0 55 -18 86 -55 86zM268 474l-5 -24h174c5 23 11 46 19 68c-30 2 -50 22 -50 55c0 20 9 43 24 58c-6 5 -21 10 -40 10c-73 0 -99 -55 -122 -167z
M558 476l-6 -26h154l20 73c-20 7 -33 25 -33 51c0 21 9 43 25 58c-6 5 -21 10 -39 10c-72 0 -98 -54 -121 -166z" />
    <glyph glyph-name="f_f_h" unicode="ffh" horiz-adv-x="1157" 
d="M259 -170c-61 0 -91 33 -91 71c0 37 26 71 66 71c33 0 51 -24 51 -51c0 -20 -7 -37 -14 -44c33 -1 51 17 77 143l76 369h-174l-67 -318c-39 -182 -127 -241 -211 -241c-61 0 -91 33 -91 71c0 37 26 71 66 71c33 0 51 -24 51 -51c0 -20 -7 -37 -14 -44c34 -1 48 17 74 143
l76 369h-92l16 61h89c35 161 128 243 246 243c76 0 117 -30 133 -63c40 40 92 64 156 64c36 0 64 -7 86 -18l132 18l-129 -431l7 -3c65 142 145 211 216 211c56 0 91 -44 91 -104c0 -85 -74 -213 -74 -274c0 -15 6 -22 17 -22c21 0 42 32 69 101l47 -15
c-40 -121 -96 -167 -153 -167c-54 0 -89 35 -89 93c0 100 66 199 66 267c0 23 -10 33 -27 33c-46 0 -139 -76 -221 -383h-120l103 389h-164l-67 -318c-38 -182 -130 -241 -213 -241zM268 474l-5 -24h174c5 23 11 46 19 68c-30 2 -50 22 -50 55c0 20 9 43 24 58
c-6 5 -21 10 -40 10c-73 0 -99 -55 -122 -167zM558 476l-6 -26h167l19 70c-27 4 -45 23 -45 54c0 21 9 43 25 58c-6 5 -21 10 -39 10c-72 0 -98 -54 -121 -166z" />
    <glyph glyph-name="f_f_i" unicode="ffi" horiz-adv-x="883" 
d="M393 693c72 0 117 -31 133 -65c42 41 97 66 166 66c106 0 155 -49 155 -101c0 -41 -28 -81 -77 -81c-38 0 -63 21 -63 57c0 21 10 47 26 62c-9 7 -29 11 -48 11c-75 0 -104 -53 -128 -167l-5 -25h269l-78 -283c-6 -22 -15 -55 -15 -72s9 -24 21 -24c22 0 41 25 70 101
l48 -15c-40 -121 -94 -167 -156 -167c-59 0 -93 36 -93 94c0 31 11 77 27 136l46 169h-152l-67 -318c-39 -182 -130 -241 -214 -241c-60 0 -91 33 -91 71c0 37 26 71 66 71c33 0 51 -24 51 -51c0 -20 -7 -37 -14 -44c34 -1 51 17 77 143l76 369h-173l-67 -318
c-39 -182 -127 -241 -211 -241c-61 0 -91 33 -91 71c0 37 26 71 66 71c33 0 51 -24 51 -51c0 -20 -7 -37 -14 -44c34 -1 48 17 74 143l76 369h-92l16 61h89c35 161 128 243 246 243zM268 474l-5 -24h173c5 24 12 46 20 68c-30 2 -50 22 -50 55c0 20 9 43 24 58
c-6 5 -21 10 -40 10c-73 0 -99 -55 -122 -167z" />
    <glyph glyph-name="f_f_j" unicode="ffj" horiz-adv-x="844" 
d="M393 693c72 0 117 -31 133 -65c42 41 97 66 166 66c106 0 155 -49 155 -101c0 -41 -28 -81 -77 -81c-38 0 -63 21 -63 57c0 21 10 47 26 62c-9 7 -29 11 -48 11c-75 0 -104 -53 -128 -167l-5 -25h283l-107 -403c-44 -163 -122 -217 -205 -217c-62 0 -92 33 -92 71
c0 36 24 69 63 69c33 0 52 -24 52 -51c0 -20 -8 -36 -19 -46c37 -1 53 15 89 157l91 359h-168l-67 -318c-39 -182 -130 -241 -214 -241c-60 0 -91 33 -91 71c0 37 26 71 66 71c33 0 51 -24 51 -51c0 -20 -7 -37 -14 -44c34 -1 51 17 77 143l76 369h-173l-67 -318
c-39 -182 -127 -241 -211 -241c-61 0 -91 33 -91 71c0 37 26 71 66 71c33 0 51 -24 51 -51c0 -20 -7 -37 -14 -44c34 -1 48 17 74 143l76 369h-92l16 61h89c35 161 128 243 246 243zM268 474l-5 -24h173c5 24 12 46 20 68c-30 2 -50 22 -50 55c0 20 9 43 24 58
c-6 5 -21 10 -40 10c-73 0 -99 -55 -122 -167z" />
    <glyph glyph-name="f_f_k" unicode="ffk" horiz-adv-x="1118" 
d="M259 -170c-61 0 -91 33 -91 71c0 37 26 71 66 71c33 0 51 -24 51 -51c0 -20 -7 -37 -14 -44c33 -1 51 17 77 143l76 369h-174l-67 -318c-39 -182 -127 -241 -211 -241c-61 0 -91 33 -91 71c0 37 26 71 66 71c33 0 51 -24 51 -51c0 -20 -7 -37 -14 -44c34 -1 48 17 74 143
l76 369h-92l16 61h89c35 161 128 243 246 243c76 0 117 -30 133 -63c40 40 92 64 156 64c36 0 64 -7 86 -18l131 18l-113 -421h5c53 0 75 30 119 103c33 54 66 95 125 95c48 0 74 -30 74 -73c0 -42 -28 -84 -68 -84s-61 35 -47 76c-14 -3 -29 -20 -52 -58
c-21 -37 -36 -58 -66 -74c71 -6 94 -37 94 -84c0 -29 -8 -58 -8 -76c0 -20 8 -27 19 -27c22 0 41 32 67 101l47 -15c-38 -121 -90 -167 -148 -167c-56 0 -93 37 -93 102c0 28 10 68 10 90c0 37 -15 46 -88 46h-2l-61 -228h-113l103 389h-164l-67 -318
c-38 -182 -130 -241 -213 -241zM268 474l-5 -24h174c5 23 11 46 19 68c-30 2 -50 22 -50 55c0 20 9 43 24 58c-6 5 -21 10 -40 10c-73 0 -99 -55 -122 -167zM558 476l-6 -26h167l19 70c-27 4 -45 23 -45 54c0 21 9 43 25 58c-6 5 -21 10 -39 10c-72 0 -98 -54 -121 -166z
" />
    <glyph glyph-name="f_f_l" unicode="ffl" horiz-adv-x="887" 
d="M259 -170c-61 0 -91 33 -91 71c0 37 26 71 66 71c33 0 51 -24 51 -51c0 -20 -7 -37 -14 -44c33 -1 51 17 77 143l76 369h-174l-67 -318c-39 -182 -127 -241 -211 -241c-61 0 -91 33 -91 71c0 37 26 71 66 71c33 0 51 -24 51 -51c0 -20 -7 -37 -14 -44c34 -1 48 17 74 143
l76 369h-92l16 61h89c35 161 128 243 246 243c76 0 117 -30 133 -63c40 40 92 64 156 64c35 0 63 -7 84 -17l125 17l-143 -526c-6 -23 -15 -55 -15 -72c0 -18 8 -25 21 -25c21 0 41 25 70 101l47 -15c-40 -121 -93 -167 -155 -167c-59 0 -93 35 -93 94c0 30 11 78 26 137
l45 168h-155l-67 -318c-38 -182 -130 -241 -213 -241zM268 474l-5 -24h174c5 23 11 46 19 68c-30 2 -50 22 -50 55c0 20 9 43 24 58c-6 5 -21 10 -40 10c-73 0 -99 -55 -122 -167zM558 476l-6 -26h158l19 72c-22 7 -36 25 -36 52c0 21 9 43 25 58c-6 5 -21 10 -39 10
c-72 0 -98 -54 -121 -166z" />
    <glyph glyph-name=".notdef" horiz-adv-x="500" 
d="M0 -200v1000h500v-1000h-500zM71 750l179 -390l179 390h-358zM50 -76l172 376l-172 376v-752zM450 676l-172 -376l172 -376v752zM250 240l-179 -390h358z" />
    <glyph glyph-name="A" unicode="A" 
d="M345 75h95l-12 147h-221l-86 -147h83l-18 -75h-245l19 75h69l355 587h123l60 -587h88l-19 -75h-309zM245 289h178l-21 264h-4z" />
    <glyph glyph-name="B" unicode="B" horiz-adv-x="642" 
d="M-26 0l17 75h101l126 508h-102l19 75h289c176 0 226 -70 226 -140c0 -75 -53 -159 -209 -172l-1 -5c108 -18 160 -72 160 -143c0 -48 -20 -91 -49 -120c-49 -49 -130 -78 -267 -78h-310zM293 379h75c113 0 153 70 153 124c0 51 -28 80 -112 80h-65zM218 75h78
c133 0 178 64 178 139c0 56 -37 95 -138 95h-60z" />
    <glyph glyph-name="C" unicode="C" horiz-adv-x="677" 
d="M337 -16c-184 0 -275 117 -275 279c0 201 148 411 368 411c83 0 145 -30 179 -81l41 78h77l-64 -260h-75c-10 144 -73 190 -154 190c-177 0 -238 -238 -238 -348c0 -133 68 -189 155 -189c106 0 168 80 218 198l71 -25c-50 -140 -143 -253 -303 -253z" />
    <glyph glyph-name="D" unicode="D" horiz-adv-x="718" 
d="M-26 0l17 75h101l126 508h-102l19 75h265c208 0 318 -109 318 -257c0 -96 -39 -203 -116 -279c-75 -76 -188 -122 -339 -122h-289zM218 74h56c91 0 152 19 204 71c59 59 102 182 102 278c0 106 -60 161 -181 161h-54z" />
    <glyph glyph-name="E" unicode="E" 
d="M135 658h584l-55 -223h-60c-3 122 -12 149 -94 149h-165l-53 -214h46c67 0 79 10 117 97h65l-66 -264h-63c9 87 1 99 -63 99h-53l-57 -228h167c92 0 108 33 174 171h66l-61 -245h-590l17 75h101l126 508h-102z" />
    <glyph glyph-name="F" unicode="F" horiz-adv-x="639" 
d="M288 358h37c66 0 82 16 115 98h64l-67 -268h-63c11 92 4 103 -64 103h-39l-53 -216h116l-18 -75h-342l17 75h101l126 508h-102l19 75h570l-57 -228h-60c-6 131 -23 154 -104 154h-140z" />
    <glyph glyph-name="G" unicode="G" horiz-adv-x="715" 
d="M331 63c88 0 149 74 174 173l6 24h-118l19 75h324l-18 -75h-82l-69 -267h-74l-8 88c-40 -57 -102 -97 -183 -97c-154 0 -240 120 -240 275c0 205 148 415 368 415c83 0 145 -30 179 -81l41 78h77l-63 -256h-80c-11 143 -73 186 -150 186c-177 0 -238 -240 -238 -349
c0 -142 68 -189 135 -189z" />
    <glyph glyph-name="H" unicode="H" horiz-adv-x="784" 
d="M-26 0l17 75h101l126 508h-102l19 75h316l-18 -75h-88l-52 -207h270l51 207h-89l18 75h316l-18 -75h-101l-126 -508h102l-18 -75h-316l18 75h88l58 231h-270l-58 -231h90l-18 -75h-316z" />
    <glyph glyph-name="I" unicode="I" horiz-adv-x="402" 
d="M-19 0l17 75h101l126 508h-102l19 75h329l-19 -75h-100l-127 -508h102l-18 -75h-328z" />
    <glyph glyph-name="J" unicode="J" horiz-adv-x="561" 
d="M539 583l-98 -396c-32 -125 -108 -203 -242 -203c-129 0 -198 73 -198 151c0 62 38 113 98 113c45 0 72 -32 72 -71s-25 -68 -66 -81c10 -22 43 -42 87 -42c64 0 100 44 124 140l97 389h-104l18 75h326l-18 -75h-96z" />
    <glyph glyph-name="K" unicode="K" horiz-adv-x="715" 
d="M698 583l-247 -200l145 -308h86l-18 -75h-304l18 74h79l-102 232l-99 -81l-38 -151h87l-18 -74h-313l17 75h101l126 508h-102l19 75h315l-19 -74h-86l-65 -260l307 260h-81l19 74h268l-18 -75h-77z" />
    <glyph glyph-name="L" unicode="L" horiz-adv-x="603" 
d="M135 658h333l-18 -74h-105l-127 -510h118c94 0 114 36 180 175h62l-62 -249h-542l17 75h101l126 508h-102z" />
    <glyph glyph-name="M" unicode="M" horiz-adv-x="931" 
d="M-23 0l18 75h92l126 508h-93l18 75h275l39 -458h3l263 458h287l-19 -75h-96l-127 -508h98l-18 -75h-304l18 75h80l123 495h-10l-338 -570h-57l-56 570h-9l-123 -495h86l-17 -75h-259z" />
    <glyph glyph-name="N" unicode="N" horiz-adv-x="774" 
d="M501 -13l-210 533h-9l-111 -445h97l-18 -75h-270l18 75h93l126 508h-94l18 75h229l188 -474h9l99 399h-96l18 75h271l-19 -75h-93l-149 -596h-97z" />
    <glyph glyph-name="O" unicode="O" horiz-adv-x="720" 
d="M62 273c0 193 145 401 368 401c164 0 279 -117 279 -289c0 -193 -145 -401 -367 -401c-164 0 -280 117 -280 289zM425 601c-164 0 -229 -243 -229 -372c0 -116 57 -172 151 -172c163 0 229 243 229 372c0 116 -58 172 -151 172z" />
    <glyph glyph-name="P" unicode="P" horiz-adv-x="621" 
d="M265 263l-47 -188h109l-17 -75h-336l17 75h101l126 508h-102l19 75h277c181 0 250 -74 250 -168c0 -100 -69 -227 -317 -227h-80zM283 334h66c128 0 173 80 173 157c0 58 -35 93 -134 93h-43z" />
    <glyph glyph-name="Q" unicode="Q" horiz-adv-x="720" 
d="M344 -14c-168 0 -282 115 -282 287c0 193 145 401 368 401c164 0 279 -117 279 -289c0 -135 -71 -277 -189 -350c14 -37 30 -54 56 -54c31 0 49 13 77 81l53 -18c-31 -100 -82 -154 -152 -154c-77 0 -109 47 -129 106c-26 -7 -53 -10 -81 -10zM208 154
c22 60 63 101 137 101c90 0 123 -58 145 -121c63 84 86 215 86 295c0 116 -58 172 -151 172c-164 0 -229 -243 -229 -372c0 -28 4 -60 12 -75zM348 55c19 0 38 3 57 10c-15 65 -35 113 -88 113c-38 0 -64 -30 -64 -60c0 -39 44 -63 95 -63z" />
    <glyph glyph-name="R" unicode="R" horiz-adv-x="688" 
d="M-26 0l17 75h101l126 508h-102l19 75h322c168 0 219 -75 219 -148c0 -92 -64 -172 -220 -186l-3 -8c88 -18 117 -55 117 -115c0 -32 -10 -71 -10 -99s13 -35 35 -35c15 0 31 6 54 28l27 -39c-34 -42 -78 -68 -134 -68c-70 0 -114 31 -114 93c0 43 20 100 20 148
c0 37 -21 59 -90 59h-87l-53 -213h100l-18 -75h-326zM289 358h82c57 0 99 13 126 40c25 24 40 67 40 108c-1 47 -28 78 -104 78h-88z" />
    <glyph glyph-name="S" unicode="S" horiz-adv-x="587" 
d="M-9 -13l60 247h71c19 -120 89 -179 177 -179c79 0 125 50 125 102c0 58 -66 85 -137 118c-83 37 -174 81 -174 187c0 112 101 212 234 212c71 0 137 -29 170 -76l41 73h75l-59 -237h-70c-21 124 -71 170 -157 170c-65 0 -111 -47 -111 -99c0 -63 68 -90 140 -122
c82 -35 170 -77 170 -182c0 -123 -109 -217 -246 -217c-87 0 -152 32 -190 80l-44 -77h-75z" />
    <glyph glyph-name="T" unicode="T" horiz-adv-x="676" 
d="M106 0l18 75h108l129 519h-35c-80 0 -101 -26 -186 -183h-62l63 247h600l-62 -247h-57c-5 153 -15 183 -97 183h-35l-129 -519h110l-18 -75h-347z" />
    <glyph glyph-name="U" unicode="U" horiz-adv-x="735" 
d="M351 -17c-163 0 -247 81 -247 184c0 27 5 61 12 89l82 327h-92l19 75h309l-19 -75h-91l-83 -333c-6 -26 -9 -49 -9 -71c0 -76 59 -113 140 -113c45 0 86 14 115 43c26 26 45 65 58 115l89 359h-94l19 75h263l-18 -75h-88l-96 -385c-13 -53 -33 -103 -75 -145
c-41 -41 -103 -70 -194 -70z" />
    <glyph glyph-name="V" unicode="V" horiz-adv-x="676" 
d="M289 583l44 -467h4l276 467h-84l19 75h244l-18 -75h-69l-362 -587h-115l-67 587h-87l18 75h309l-18 -75h-94z" />
    <glyph glyph-name="W" unicode="W" horiz-adv-x="983" 
d="M566 -4l-19 399l-231 -399h-115l-39 587h-88l18 75h301l-18 -74h-86l21 -458h5l225 387l-3 71h-87l18 74h301l-18 -74h-92l15 -458h5l242 458h-85l18 74h245l-19 -75h-68l-329 -587h-117z" />
    <glyph glyph-name="X" unicode="X" horiz-adv-x="679" 
d="M404 584h-82l78 -185l175 185h-78l19 74h254l-18 -75h-77l-239 -243l119 -265h86l-18 -75h-303l18 74h84l-83 198l-190 -198h79l-18 -74h-255l19 75h76l253 256l-116 252h-85l18 75h302z" />
    <glyph glyph-name="Y" unicode="Y" horiz-adv-x="638" 
d="M381 343l195 241h-80l18 74h237l-19 -75h-70l-265 -314l-48 -194h97l-18 -75h-318l18 75h95l51 202l-101 306h-79l19 75h301l-19 -74h-86z" />
    <glyph glyph-name="Z" unicode="Z" horiz-adv-x="619" 
d="M-20 0l16 63l507 521h-158c-79 0 -99 -13 -186 -175h-58l62 249h520l-16 -63l-506 -521h179c79 0 100 18 187 182h59l-64 -256h-542z" />
    <glyph glyph-name="a" unicode="a" horiz-adv-x="564" 
d="M511 464l-82 -310c-8 -26 -11 -44 -11 -57c0 -17 8 -26 23 -26c22 0 44 34 67 101l48 -15c-39 -122 -93 -167 -154 -167c-47 0 -82 30 -82 88c0 7 0 12 1 22l-7 3c-38 -75 -95 -113 -152 -113c-86 0 -133 71 -133 159c0 102 41 193 95 246c47 48 100 76 156 76
s88 -39 97 -84l20 77h114zM208 70c81 0 144 175 144 256c0 52 -19 80 -54 80c-89 0 -148 -166 -148 -247c0 -59 21 -89 58 -89z" />
    <glyph glyph-name="b" unicode="b" horiz-adv-x="517" 
d="M313 393c-80 0 -151 -157 -151 -252c0 -60 21 -86 61 -86c92 0 145 173 145 252c0 55 -18 86 -55 86zM295 689l-101 -334l8 -3c41 78 99 119 155 119c86 0 132 -71 132 -164c0 -167 -133 -317 -278 -317c-112 0 -164 67 -164 159c0 40 13 101 30 163l82 299h-83l20 78
h199z" />
    <glyph glyph-name="c" unicode="c" horiz-adv-x="469" 
d="M305 471c84 0 145 -47 145 -118c0 -43 -27 -86 -70 -86c-36 0 -59 24 -59 54c0 28 17 51 41 68c-8 14 -25 25 -55 25c-100 0 -159 -153 -159 -240c0 -86 46 -113 91 -113c46 0 90 33 130 95l43 -29c-43 -75 -102 -137 -200 -137c-110 0 -184 75 -184 184
c0 156 134 297 277 297z" />
    <glyph glyph-name="d" unicode="d" horiz-adv-x="564" 
d="M208 70c81 0 146 173 146 264c0 51 -19 72 -54 72c-94 0 -150 -166 -150 -247c0 -59 21 -89 58 -89zM508 172l48 -15c-39 -122 -93 -167 -154 -167c-47 0 -82 31 -82 88c0 7 0 12 1 22l-7 3c-38 -75 -95 -113 -152 -113c-86 0 -133 71 -133 159c0 102 41 193 95 246
c47 48 100 76 156 76s86 -32 99 -75l57 215h-83l20 78h198l-142 -535c-8 -26 -11 -44 -11 -57c0 -17 8 -26 23 -26c22 0 44 34 67 101z" />
    <glyph glyph-name="e" unicode="e" horiz-adv-x="471" 
d="M452 367c0 -90 -94 -167 -304 -179c-1 -8 -1 -16 -1 -23c0 -83 43 -109 93 -109c49 0 98 33 140 92l42 -30c-51 -73 -113 -128 -219 -128c-103 0 -175 72 -175 182c0 154 133 299 290 299c86 0 134 -43 134 -104zM301 416c-70 0 -123 -95 -144 -181
c139 15 190 69 190 131c0 28 -16 50 -46 50z" />
    <glyph glyph-name="f" unicode="f" horiz-adv-x="354" 
d="M-28 -170c-61 0 -91 33 -91 71c0 37 26 71 66 71c33 0 51 -24 51 -51c0 -20 -7 -37 -14 -44c34 -1 48 17 74 143l77 369h-93l16 61h89c35 162 123 244 237 244c86 0 126 -44 126 -91c0 -45 -30 -84 -72 -84c-34 0 -58 20 -58 55c0 21 10 47 28 62c-6 4 -16 6 -27 6
c-70 0 -90 -57 -113 -167l-5 -25h132l-16 -61h-129l-67 -318c-38 -182 -127 -241 -211 -241z" />
    <glyph glyph-name="g" unicode="g" horiz-adv-x="519" 
d="M92 -106c13 -6 34 -10 58 -10c37 0 65 11 89 36c29 29 50 79 71 169l-7 3c-32 -43 -80 -70 -134 -70c-89 0 -137 70 -137 153c0 89 33 171 92 230c44 44 90 66 145 66c57 0 97 -36 108 -82l19 75h114l-91 -387c-43 -182 -137 -247 -267 -247c-68 0 -166 18 -166 98
c0 34 24 74 68 74c40 0 59 -27 59 -58c0 -20 -11 -40 -21 -50zM214 96c75 0 139 121 139 225c0 51 -29 85 -65 85c-83 0 -135 -135 -135 -227c0 -56 21 -83 61 -83z" />
    <glyph glyph-name="h" unicode="h" horiz-adv-x="568" 
d="M402 -10c-54 0 -89 35 -89 93c0 100 66 199 66 267c0 23 -10 33 -27 33c-46 0 -139 -76 -221 -383h-120l162 611h-83l20 78h199l-127 -426l7 -3c65 142 145 211 216 211c56 0 91 -44 91 -104c0 -85 -74 -213 -74 -274c0 -15 6 -22 17 -22c21 0 42 32 69 101l47 -15
c-40 -121 -96 -167 -153 -167z" />
    <glyph glyph-name="i" unicode="i" horiz-adv-x="345" 
d="M325 629c0 -40 -33 -88 -86 -88c-35 0 -62 24 -62 64c0 41 31 88 84 88c38 0 64 -24 64 -64zM272 370c0 -78 -81 -217 -81 -275c0 -17 7 -24 20 -24c19 0 41 27 71 101l47 -15c-39 -118 -95 -167 -159 -167c-52 0 -90 34 -90 94c0 95 83 229 83 291c0 16 -6 22 -15 22
c-28 0 -53 -43 -81 -105l-48 20c43 100 96 159 164 159c52 0 89 -37 89 -101z" />
    <glyph glyph-name="j" unicode="j" horiz-adv-x="309" 
d="M325 629c0 -40 -33 -88 -86 -88c-35 0 -62 24 -62 64c0 41 32 88 84 88c38 0 64 -24 64 -64zM272 376c0 -23 -5 -51 -14 -85l-63 -239c-42 -159 -120 -222 -212 -222c-70 0 -100 33 -100 71c0 37 27 71 66 71c34 0 52 -25 52 -51c0 -21 -8 -38 -16 -48
c43 -1 60 25 97 168l66 253c6 24 15 59 15 80c0 18 -8 23 -17 23c-24 0 -50 -43 -79 -105l-47 20c43 100 95 159 165 159c51 0 87 -39 87 -95z" />
    <glyph glyph-name="k" unicode="k" horiz-adv-x="529" 
d="M373 98c0 -20 8 -27 19 -27c22 0 41 32 67 101l47 -15c-38 -121 -90 -167 -148 -167c-56 0 -93 37 -93 102c0 28 11 68 11 90c0 37 -16 46 -89 46h-2l-61 -228h-113l162 611h-83l20 78h199l-112 -416h5c53 0 75 30 119 103c33 54 66 95 125 95c48 0 74 -30 74 -73
c0 -42 -27 -84 -68 -84c-40 0 -61 35 -47 76c-14 -3 -29 -20 -52 -58c-20 -37 -36 -58 -66 -74c71 -6 94 -37 94 -84c0 -29 -8 -58 -8 -76z" />
    <glyph glyph-name="l" unicode="l" horiz-adv-x="305" 
d="M40 84c0 30 11 78 27 137l106 390h-84l20 78h199l-142 -521c-7 -25 -15 -58 -15 -73c0 -18 10 -24 20 -24c24 0 45 32 71 101l47 -15c-40 -121 -93 -167 -156 -167c-59 0 -93 35 -93 94z" />
    <glyph glyph-name="m" unicode="m" horiz-adv-x="877" 
d="M711 -10c-54 0 -89 35 -89 93c0 100 66 199 66 267c0 23 -10 33 -27 33c-44 0 -131 -76 -211 -383h-118l70 264c9 33 14 57 14 76c0 24 -8 43 -30 43c-46 0 -132 -76 -212 -383h-120l86 324c15 57 12 73 -6 73c-23 0 -49 -43 -78 -105l-47 20c43 100 93 158 160 158
c43 0 73 -31 73 -93c0 -29 -6 -65 -21 -111l7 -3c66 141 140 208 208 208c55 0 84 -37 84 -97c0 -28 -8 -62 -23 -108l7 -3c66 141 140 208 211 208c55 0 90 -44 90 -104c0 -85 -74 -213 -74 -274c0 -15 6 -22 17 -22c21 0 42 32 69 101l47 -15c-40 -121 -96 -167 -153 -167
z" />
    <glyph glyph-name="n" unicode="n" horiz-adv-x="602" 
d="M456 93c0 -15 6 -22 17 -22c21 0 42 32 69 101l47 -15c-40 -121 -96 -167 -153 -167c-54 0 -89 35 -89 93c0 100 66 199 66 267c0 23 -10 33 -27 33c-46 0 -132 -76 -212 -383h-120l86 324c15 57 12 73 -6 73c-23 0 -49 -43 -78 -105l-47 20c43 100 93 158 160 158
c43 0 73 -31 73 -93c0 -29 -6 -65 -21 -111l7 -3c66 141 140 208 211 208c56 0 91 -44 91 -104c0 -85 -74 -213 -74 -274z" />
    <glyph glyph-name="o" unicode="o" horiz-adv-x="510" 
d="M292 471c115 0 190 -80 190 -193c0 -156 -125 -288 -264 -288c-115 0 -190 81 -190 194c0 156 125 287 264 287zM363 325c0 64 -27 91 -70 91c-93 0 -146 -182 -146 -279c0 -64 27 -91 70 -91c93 0 146 182 146 279z" />
    <glyph glyph-name="p" unicode="p" horiz-adv-x="563" 
d="M359 393c-80 0 -149 -161 -149 -249c0 -49 21 -83 65 -83c89 0 139 168 139 247c0 56 -18 85 -55 85zM137 313c15 56 10 75 -8 75c-23 0 -41 -29 -73 -96l-47 20c48 110 95 158 158 158c45 0 75 -33 75 -90c0 -7 -1 -16 -2 -25l8 -3c38 79 99 119 154 119
c84 0 132 -69 132 -162c0 -161 -111 -310 -234 -310c-53 0 -95 27 -114 67l-40 -149h94l-20 -74h-277l20 74h68z" />
    <glyph glyph-name="q" unicode="q" horiz-adv-x="521" 
d="M514 464l-144 -547h73l-20 -74h-277l20 74h90l49 174l-7 3c-32 -57 -83 -94 -137 -94c-85 0 -131 74 -131 165c0 94 38 175 92 229c47 47 105 77 159 77c58 0 90 -39 98 -84l21 77h114zM205 78c83 0 150 162 150 248c0 52 -20 80 -56 80c-92 0 -148 -162 -148 -242
c0 -58 19 -86 54 -86z" />
    <glyph glyph-name="r" unicode="r" horiz-adv-x="470" 
d="M54 0l86 324c15 57 12 73 -6 73c-23 0 -49 -43 -78 -105l-47 20c43 100 93 158 160 158c43 0 73 -31 73 -93c0 -29 -6 -64 -20 -108l8 -3c58 132 106 205 176 205c42 0 73 -29 73 -76c0 -50 -32 -90 -72 -90c-35 0 -62 23 -60 65c-29 -12 -101 -97 -173 -370h-120z" />
    <glyph glyph-name="s" unicode="s" horiz-adv-x="442" 
d="M389 147c0 -104 -90 -157 -189 -157c-94 0 -191 40 -191 116c0 39 26 72 66 72c39 0 59 -28 59 -55c0 -24 -11 -44 -24 -55c17 -15 50 -26 86 -26c51 0 83 25 83 71c0 38 -41 57 -92 80c-59 27 -117 56 -117 124c0 105 101 154 188 154c102 0 172 -45 172 -105
c0 -39 -26 -72 -64 -72c-37 0 -59 26 -59 55c0 20 10 41 24 53c-10 9 -39 19 -69 19c-48 0 -83 -25 -83 -67c0 -40 42 -59 100 -86c53 -24 110 -52 110 -121z" />
    <glyph glyph-name="t" unicode="t" horiz-adv-x="388" 
d="M389 389h-142l-60 -219c-7 -25 -12 -48 -12 -60c0 -27 14 -36 35 -36c36 0 66 44 94 108l48 -16c-49 -142 -126 -176 -180 -176c-66 0 -113 33 -113 101c0 29 11 71 18 99l54 199h-88l16 61h88l33 120l119 13l-36 -133h142z" />
    <glyph glyph-name="u" unicode="u" horiz-adv-x="600" 
d="M445 -10c-52 0 -85 29 -85 94c0 25 6 63 22 114l-7 3c-66 -145 -136 -211 -208 -211c-55 0 -91 43 -91 105c0 84 71 217 71 274c0 14 -6 21 -15 21c-21 0 -38 -22 -74 -97l-47 20c41 99 94 158 163 158c53 0 84 -33 84 -91c0 -93 -66 -199 -66 -263c0 -28 11 -39 28 -39
c45 0 128 74 210 386h120l-82 -310c-8 -27 -11 -44 -11 -57c0 -17 9 -26 23 -26c23 0 44 34 67 101l48 -15c-39 -122 -93 -167 -150 -167z" />
    <glyph glyph-name="v" unicode="v" horiz-adv-x="504" 
d="M178 471c55 0 83 -35 83 -87c0 -91 -72 -197 -72 -257c0 -35 26 -54 63 -54c93 0 166 158 171 264c-6 -4 -18 -7 -29 -7c-33 0 -59 24 -59 63c0 42 32 81 74 81c47 0 79 -32 79 -109c0 -137 -111 -377 -276 -377c-81 0 -136 53 -136 122c0 83 76 210 76 258
c0 15 -6 22 -16 22c-25 0 -42 -29 -77 -98l-47 20c44 100 95 159 166 159z" />
    <glyph glyph-name="w" unicode="w" horiz-adv-x="746" 
d="M181 471c55 0 83 -34 83 -88c0 -100 -82 -203 -82 -271c0 -24 13 -39 36 -39c51 0 123 92 191 391h108l-49 -205c-12 -50 -17 -89 -17 -119c0 -53 21 -67 50 -67c88 0 156 153 162 263c-6 -3 -17 -6 -27 -6c-34 0 -59 24 -59 63c0 42 32 81 73 81c48 0 80 -34 80 -102
c0 -140 -96 -384 -263 -384c-68 0 -114 41 -113 132c0 8 0 17 2 30l-7 2c-37 -97 -90 -164 -169 -164c-64 0 -112 41 -112 114c0 90 86 206 86 267c0 13 -5 21 -15 21c-25 0 -43 -29 -77 -98l-47 20c44 100 95 159 166 159z" />
    <glyph glyph-name="x" unicode="x" horiz-adv-x="559" 
d="M332 162c0 -65 18 -92 47 -92c32 0 56 37 83 107l48 -20c-30 -95 -79 -167 -162 -167c-69 0 -105 48 -109 149h-6c-40 -103 -98 -151 -155 -151c-49 0 -79 32 -79 77c0 41 27 78 63 78c39 0 60 -30 54 -74c65 20 109 153 109 230c0 65 -17 92 -45 92
c-33 0 -57 -36 -83 -107l-49 20c31 95 79 167 163 167c67 0 104 -48 107 -149h6c40 102 98 151 156 151c48 0 78 -31 78 -77c0 -41 -26 -78 -63 -78c-39 0 -59 31 -54 75c-64 -21 -109 -154 -109 -231z" />
    <glyph glyph-name="y" unicode="y" horiz-adv-x="553" 
d="M176 471c51 0 82 -34 82 -87c0 -92 -58 -182 -58 -240c0 -25 11 -35 33 -35c53 0 124 60 200 355h112l-92 -386c-43 -184 -144 -248 -269 -248c-70 0 -154 19 -154 93c0 32 24 72 69 72c40 0 60 -28 58 -61c-1 -16 -10 -34 -20 -43c12 -4 27 -7 46 -7
c78 0 131 63 165 202l20 79l-6 3c-58 -106 -120 -145 -178 -145c-66 0 -99 46 -99 104c0 77 64 185 64 242c0 13 -6 21 -15 21c-25 0 -49 -41 -76 -98l-47 20c44 100 99 159 165 159z" />
    <glyph glyph-name="z" unicode="z" horiz-adv-x="465" 
d="M141 137c57 -6 107 -38 152 -38c49 0 63 20 100 98l44 -18c-42 -125 -81 -189 -173 -189c-53 0 -95 26 -130 81l-22 33l-9 -2c-11 -84 -40 -112 -72 -112s-53 24 -53 51c0 39 33 71 99 90c69 84 167 158 243 193c-56 6 -104 38 -146 38c-47 0 -62 -19 -99 -97l-45 17
c42 125 82 189 173 189c49 0 89 -25 125 -81l21 -33l9 2c11 84 41 112 72 112c32 0 53 -23 53 -50c0 -39 -33 -72 -99 -91c-69 -84 -167 -157 -243 -193z" />
    <glyph glyph-name="Aacute" unicode="&#xc1;" 
d="M345 75h95l-12 147h-221l-86 -147h83l-18 -75h-245l19 75h69l355 587h123l60 -587h88l-19 -75h-309zM245 289h178l-21 264h-4zM560 810l-93 -74h-59l83 134c28 44 47 72 80 72c31 0 51 -27 51 -51c0 -29 -17 -44 -62 -81z" />
    <glyph glyph-name="aacute" unicode="&#xe1;" horiz-adv-x="564" 
d="M511 464l-82 -310c-8 -26 -11 -44 -11 -57c0 -17 8 -26 23 -26c22 0 44 34 67 101l48 -15c-39 -122 -93 -167 -154 -167c-47 0 -82 30 -82 88c0 7 0 12 1 22l-7 3c-38 -75 -95 -113 -152 -113c-86 0 -133 71 -133 159c0 102 41 193 95 246c47 48 100 76 156 76
s88 -39 97 -84l20 77h114zM208 70c81 0 144 175 144 256c0 52 -19 80 -54 80c-89 0 -148 -166 -148 -247c0 -59 21 -89 58 -89zM436 608l-93 -74h-59l83 134c28 44 47 72 80 72c31 0 51 -27 51 -51c0 -29 -17 -44 -62 -81z" />
    <glyph glyph-name="Abreve" unicode="&#x102;" 
d="M345 75h95l-12 147h-221l-86 -147h83l-18 -75h-245l19 75h69l355 587h123l60 -587h88l-19 -75h-309zM245 289h178l-21 264h-4zM463 739c-88 0 -139 59 -115 168h51c0 -56 24 -86 77 -86c47 0 83 32 109 86h54c-26 -108 -93 -168 -176 -168z" />
    <glyph glyph-name="abreve" unicode="&#x103;" horiz-adv-x="564" 
d="M511 464l-82 -310c-8 -26 -11 -44 -11 -57c0 -17 8 -26 23 -26c22 0 44 34 67 101l48 -15c-39 -122 -93 -167 -154 -167c-47 0 -82 30 -82 88c0 7 0 12 1 22l-7 3c-38 -75 -95 -113 -152 -113c-86 0 -133 71 -133 159c0 102 41 193 95 246c47 48 100 76 156 76
s88 -39 97 -84l20 77h114zM208 70c81 0 144 175 144 256c0 52 -19 80 -54 80c-89 0 -148 -166 -148 -247c0 -59 21 -89 58 -89zM339 537c-88 0 -139 59 -115 168h51c0 -56 24 -86 77 -86c47 0 83 32 109 86h54c-26 -108 -93 -168 -176 -168z" />
    <glyph glyph-name="Acircumflex" unicode="&#xc2;" 
d="M345 75h95l-12 147h-221l-86 -147h83l-18 -75h-245l19 75h69l355 587h123l60 -587h88l-19 -75h-309zM245 289h178l-21 264h-4zM310 737l163 189h58l69 -189h-61l-54 90l-108 -90h-67z" />
    <glyph glyph-name="acircumflex" unicode="&#xe2;" horiz-adv-x="564" 
d="M511 464l-82 -310c-8 -26 -11 -44 -11 -57c0 -17 8 -26 23 -26c22 0 44 34 67 101l48 -15c-39 -122 -93 -167 -154 -167c-47 0 -82 30 -82 88c0 7 0 12 1 22l-7 3c-38 -75 -95 -113 -152 -113c-86 0 -133 71 -133 159c0 102 41 193 95 246c47 48 100 76 156 76
s88 -39 97 -84l20 77h114zM208 70c81 0 144 175 144 256c0 52 -19 80 -54 80c-89 0 -148 -166 -148 -247c0 -59 21 -89 58 -89zM185 535l163 189h58l69 -189h-61l-54 90l-108 -90h-67z" />
    <glyph glyph-name="Adieresis" unicode="&#xc4;" 
d="M345 75h95l-12 147h-221l-86 -147h83l-18 -75h-245l19 75h69l355 587h123l60 -587h88l-19 -75h-309zM245 289h178l-21 264h-4zM455 830c0 -36 -30 -80 -77 -80c-31 0 -55 22 -55 58c0 38 28 81 74 81c34 0 58 -22 58 -59zM643 830c0 -36 -30 -80 -77 -80
c-31 0 -55 22 -55 58c0 38 28 81 74 81c34 0 58 -22 58 -59z" />
    <glyph glyph-name="adieresis" unicode="&#xe4;" horiz-adv-x="564" 
d="M511 464l-82 -310c-8 -26 -11 -44 -11 -57c0 -17 8 -26 23 -26c22 0 44 34 67 101l48 -15c-39 -122 -93 -167 -154 -167c-47 0 -82 30 -82 88c0 7 0 12 1 22l-7 3c-38 -75 -95 -113 -152 -113c-86 0 -133 71 -133 159c0 102 41 193 95 246c47 48 100 76 156 76
s88 -39 97 -84l20 77h114zM208 70c81 0 144 175 144 256c0 52 -19 80 -54 80c-89 0 -148 -166 -148 -247c0 -59 21 -89 58 -89zM331 628c0 -36 -30 -80 -77 -80c-31 0 -55 22 -55 58c0 38 28 81 74 81c34 0 58 -22 58 -59zM519 628c0 -36 -30 -80 -77 -80
c-31 0 -55 22 -55 58c0 38 28 81 74 81c34 0 58 -22 58 -59z" />
    <glyph glyph-name="AE" unicode="&#xc6;" horiz-adv-x="1012" 
d="M330 75h100l40 157h-219l-132 -158h83l-18 -74h-258l18 75h70l443 508h-95l17 75h678l-55 -223h-60c-3 122 -12 149 -94 149h-165l-53 -214h46c67 0 79 10 117 97h65l-66 -264h-62c8 87 0 99 -64 99h-53l-57 -228h167c92 0 108 33 175 171h66l-61 -245h-591zM308 299h178
l71 286h-8z" />
    <glyph glyph-name="ae" unicode="&#xe6;" horiz-adv-x="727" 
d="M575 471c86 0 134 -43 134 -104c0 -90 -94 -167 -305 -180c-1 -8 -1 -15 -1 -22c0 -83 44 -109 94 -109c49 0 98 33 140 92l42 -30c-51 -73 -113 -128 -212 -128c-79 0 -133 37 -156 96c-46 -63 -108 -92 -176 -92c-84 0 -125 47 -125 107c0 99 107 159 305 167
c11 35 17 62 17 75c0 46 -32 70 -86 70c-19 0 -37 -3 -55 -9c10 -9 16 -26 16 -39c0 -35 -25 -66 -69 -66c-37 0 -58 26 -58 59c0 58 64 113 187 113c70 0 119 -22 143 -61c48 40 105 61 165 61zM557 416c-69 0 -123 -95 -144 -181c140 15 190 69 190 131
c0 28 -15 50 -46 50zM297 162c0 21 2 42 6 62c-117 -15 -174 -46 -174 -108c0 -28 20 -53 55 -53s73 18 115 69c-1 9 -2 19 -2 30z" />
    <glyph glyph-name="AEacute" unicode="&#x1fc;" horiz-adv-x="1012" 
d="M788 810l-93 -74h-59l83 134c28 44 47 72 80 72c31 0 51 -27 51 -51c0 -29 -17 -44 -62 -81zM330 75h100l40 157h-219l-132 -158h83l-18 -74h-258l18 75h70l443 508h-95l17 75h678l-55 -223h-60c-3 122 -12 149 -94 149h-165l-53 -214h46c67 0 79 10 117 97h65l-66 -264
h-62c8 87 0 99 -64 99h-53l-57 -228h167c92 0 108 33 175 171h66l-61 -245h-591zM308 299h178l71 286h-8z" />
    <glyph glyph-name="aeacute" unicode="&#x1fd;" horiz-adv-x="727" 
d="M575 471c86 0 134 -43 134 -104c0 -90 -94 -167 -305 -180c-1 -8 -1 -15 -1 -22c0 -83 44 -109 94 -109c49 0 98 33 140 92l42 -30c-51 -73 -113 -128 -212 -128c-79 0 -133 37 -156 96c-46 -63 -108 -92 -176 -92c-84 0 -125 47 -125 107c0 99 107 159 305 167
c11 35 17 62 17 75c0 46 -32 70 -86 70c-19 0 -37 -3 -55 -9c10 -9 16 -26 16 -39c0 -35 -25 -66 -69 -66c-37 0 -58 26 -58 59c0 58 64 113 187 113c70 0 119 -22 143 -61c48 40 105 61 165 61zM557 416c-69 0 -123 -95 -144 -181c140 15 190 69 190 131
c0 28 -15 50 -46 50zM556 608l-93 -74h-59l83 134c28 44 47 72 80 72c31 0 51 -27 51 -51c0 -29 -17 -44 -62 -81zM297 162c0 21 2 42 6 62c-117 -15 -174 -46 -174 -108c0 -28 20 -53 55 -53s73 18 115 69c-1 9 -2 19 -2 30z" />
    <glyph glyph-name="Agrave" unicode="&#xc0;" 
d="M345 75h95l-12 147h-221l-86 -147h83l-18 -75h-245l19 75h69l355 587h123l60 -587h88l-19 -75h-309zM245 289h178l-21 264h-4zM465 846l20 -110h-53l-49 75c-26 39 -34 58 -34 80c0 25 21 50 50 50c46 0 55 -39 66 -95z" />
    <glyph glyph-name="agrave" unicode="&#xe0;" horiz-adv-x="564" 
d="M511 464l-82 -310c-8 -26 -11 -44 -11 -57c0 -17 8 -26 23 -26c22 0 44 34 67 101l48 -15c-39 -122 -93 -167 -154 -167c-47 0 -82 30 -82 88c0 7 0 12 1 22l-7 3c-38 -75 -95 -113 -152 -113c-86 0 -133 71 -133 159c0 102 41 193 95 246c47 48 100 76 156 76
s88 -39 97 -84l20 77h114zM208 70c81 0 144 175 144 256c0 52 -19 80 -54 80c-89 0 -148 -166 -148 -247c0 -59 21 -89 58 -89zM341 644l20 -110h-53l-49 75c-26 39 -34 58 -34 80c0 25 21 50 50 50c46 0 55 -39 66 -95z" />
    <glyph glyph-name="Amacron" unicode="&#x100;" 
d="M345 75h95l-12 147h-221l-86 -147h83l-18 -75h-245l19 75h69l355 587h123l60 -587h88l-19 -75h-309zM245 289h178l-21 264h-4zM329 748l21 84h272l-22 -84h-271z" />
    <glyph glyph-name="amacron" unicode="&#x101;" horiz-adv-x="564" 
d="M511 464l-82 -310c-8 -26 -11 -44 -11 -57c0 -17 8 -26 23 -26c22 0 44 34 67 101l48 -15c-39 -122 -93 -167 -154 -167c-47 0 -82 30 -82 88c0 7 0 12 1 22l-7 3c-38 -75 -95 -113 -152 -113c-86 0 -133 71 -133 159c0 102 41 193 95 246c47 48 100 76 156 76
s88 -39 97 -84l20 77h114zM208 70c81 0 144 175 144 256c0 52 -19 80 -54 80c-89 0 -148 -166 -148 -247c0 -59 21 -89 58 -89zM205 546l21 84h272l-22 -84h-271z" />
    <glyph glyph-name="Aogonek" unicode="&#x104;" 
d="M558 -209c-31 -21 -69 -37 -111 -37c-63 0 -112 31 -112 90c0 56 41 96 137 156h-145l18 75h95l-12 147h-221l-86 -147h83l-18 -75h-245l19 75h69l355 587h123l60 -587h88l-19 -75h-90l-5 -4c-95 -74 -114 -105 -114 -137c0 -22 14 -44 51 -44c20 0 41 8 60 20zM245 289
h178l-21 264h-4z" />
    <glyph glyph-name="aogonek" unicode="&#x105;" horiz-adv-x="564" 
d="M377 387l20 77h114l-82 -310c-8 -26 -11 -44 -11 -57c0 -17 8 -26 23 -26c22 0 44 34 67 101l48 -15c-24 -70 -44 -115 -105 -162c-92 -72 -111 -106 -111 -136c0 -22 14 -44 52 -44c19 0 40 8 60 20l20 -44c-32 -21 -69 -37 -111 -37c-64 0 -113 31 -113 90
c0 53 38 93 128 150c-27 7 -56 32 -56 84c0 7 0 12 1 22l-7 3c-38 -75 -95 -113 -152 -113c-86 0 -133 71 -133 159c0 102 41 193 95 246c47 48 100 76 156 76s88 -39 97 -84zM208 70c81 0 144 175 144 256c0 52 -19 80 -54 80c-89 0 -148 -166 -148 -247
c0 -59 21 -89 58 -89z" />
    <glyph glyph-name="Aring" unicode="&#xc5;" 
d="M576 765c0 -47 -26 -89 -68 -109l59 -581h88l-19 -75h-309l18 75h95l-12 147h-222l-86 -147h84l-18 -75h-245l19 75h69l357 589c-24 17 -36 45 -36 74c0 66 49 122 122 122c67 0 104 -44 104 -95zM244 289h179l-21 265h-4zM409 737c0 -30 17 -51 48 -51c39 0 59 46 59 82
c0 30 -17 50 -47 50c-40 0 -60 -46 -60 -81z" />
    <glyph glyph-name="aring" unicode="&#xe5;" horiz-adv-x="564" 
d="M511 464l-82 -310c-8 -26 -11 -44 -11 -57c0 -17 8 -26 23 -26c22 0 44 34 67 101l48 -15c-39 -122 -93 -167 -154 -167c-47 0 -82 30 -82 88c0 7 0 12 1 22l-7 3c-38 -75 -95 -113 -152 -113c-86 0 -133 71 -133 159c0 102 41 193 95 246c47 48 100 76 156 76
s88 -39 97 -84l20 77h114zM208 70c81 0 144 175 144 256c0 52 -19 80 -54 80c-89 0 -148 -166 -148 -247c0 -59 21 -89 58 -89zM477 649c0 -65 -50 -121 -123 -121c-67 0 -104 45 -104 94c0 66 50 122 123 122c67 0 104 -44 104 -95zM310 621c0 -30 17 -51 47 -51
c40 0 60 46 60 82c0 30 -17 50 -47 50c-40 0 -60 -46 -60 -81z" />
    <glyph glyph-name="Aringacute" unicode="&#x1fa;" 
d="M607 975l-93 -74h-59l83 134c28 44 47 72 80 72c31 0 51 -27 51 -51c0 -29 -17 -44 -62 -81zM576 765c0 -47 -26 -89 -68 -109l59 -581h88l-19 -75h-309l18 75h95l-12 147h-222l-86 -147h84l-18 -75h-245l19 75h69l357 589c-24 17 -36 45 -36 74c0 66 49 122 122 122
c67 0 104 -44 104 -95zM244 289h179l-21 265h-4zM409 737c0 -30 17 -51 48 -51c39 0 59 46 59 82c0 30 -17 50 -47 50c-40 0 -60 -46 -60 -81z" />
    <glyph glyph-name="aringacute" unicode="&#x1fb;" horiz-adv-x="564" 
d="M511 464l-82 -310c-8 -26 -11 -44 -11 -57c0 -17 8 -26 23 -26c22 0 44 34 67 101l48 -15c-39 -122 -93 -167 -154 -167c-47 0 -82 30 -82 88c0 7 0 12 1 22l-7 3c-38 -75 -95 -113 -152 -113c-86 0 -133 71 -133 159c0 102 41 193 95 246c47 48 100 76 156 76
s88 -39 97 -84l20 77h114zM208 70c81 0 144 175 144 256c0 52 -19 80 -54 80c-89 0 -148 -166 -148 -247c0 -59 21 -89 58 -89zM497 858l-93 -74h-59l83 134c28 44 47 72 80 72c31 0 51 -27 51 -51c0 -29 -17 -44 -62 -81zM475 649c0 -65 -50 -121 -123 -121
c-67 0 -104 45 -104 94c0 66 50 122 123 122c67 0 104 -44 104 -95zM308 621c0 -30 17 -51 47 -51c40 0 60 46 60 82c0 30 -17 50 -47 50c-40 0 -60 -46 -60 -81z" />
    <glyph glyph-name="Atilde" unicode="&#xc3;" 
d="M345 75h95l-12 147h-221l-86 -147h83l-18 -75h-245l19 75h69l355 587h123l60 -587h88l-19 -75h-309zM245 289h178l-21 264h-4zM408 795c-20 0 -34 -15 -55 -58h-57c30 89 65 143 128 143c66 0 97 -54 130 -54c20 0 34 15 55 58h57c-30 -88 -65 -143 -128 -143
c-66 0 -97 54 -130 54z" />
    <glyph glyph-name="atilde" unicode="&#xe3;" horiz-adv-x="564" 
d="M511 464l-82 -310c-8 -26 -11 -44 -11 -57c0 -17 8 -26 23 -26c22 0 44 34 67 101l48 -15c-39 -122 -93 -167 -154 -167c-47 0 -82 30 -82 88c0 7 0 12 1 22l-7 3c-38 -75 -95 -113 -152 -113c-86 0 -133 71 -133 159c0 102 41 193 95 246c47 48 100 76 156 76
s88 -39 97 -84l20 77h114zM208 70c81 0 144 175 144 256c0 52 -19 80 -54 80c-89 0 -148 -166 -148 -247c0 -59 21 -89 58 -89zM283 593c-20 0 -34 -15 -55 -58h-57c30 89 65 143 128 143c66 0 97 -54 130 -54c20 0 34 15 55 58h57c-30 -88 -65 -143 -128 -143
c-66 0 -97 54 -130 54z" />
    <glyph glyph-name="Cacute" unicode="&#x106;" horiz-adv-x="677" 
d="M561 810l-93 -74h-59l83 134c28 44 47 72 80 72c31 0 51 -27 51 -51c0 -29 -17 -44 -62 -81zM337 -16c-184 0 -275 117 -275 279c0 201 148 411 368 411c83 0 145 -30 179 -81l41 78h77l-64 -260h-75c-10 144 -73 190 -154 190c-177 0 -238 -238 -238 -348
c0 -133 68 -189 155 -189c106 0 168 80 218 198l71 -25c-50 -140 -143 -253 -303 -253z" />
    <glyph glyph-name="cacute" unicode="&#x107;" horiz-adv-x="469" 
d="M419 608l-93 -74h-59l83 134c28 44 47 72 80 72c31 0 51 -27 51 -51c0 -29 -17 -44 -62 -81zM305 471c84 0 145 -47 145 -118c0 -43 -27 -86 -70 -86c-36 0 -59 24 -59 54c0 28 17 51 41 68c-8 14 -25 25 -55 25c-100 0 -159 -153 -159 -240c0 -86 46 -113 91 -113
c46 0 90 33 130 95l43 -29c-43 -75 -102 -137 -200 -137c-110 0 -184 75 -184 184c0 156 134 297 277 297z" />
    <glyph glyph-name="Ccaron" unicode="&#x10c;" horiz-adv-x="677" 
d="M642 932l-164 -189h-58l-69 189h62l54 -90l107 90h68zM337 -16c-184 0 -275 117 -275 279c0 201 148 411 368 411c83 0 145 -30 179 -81l41 78h77l-64 -260h-75c-10 144 -73 190 -154 190c-177 0 -238 -238 -238 -348c0 -133 68 -189 155 -189c106 0 168 80 218 198
l71 -25c-50 -140 -143 -253 -303 -253z" />
    <glyph glyph-name="ccaron" unicode="&#x10d;" horiz-adv-x="469" 
d="M499 730l-164 -189h-58l-69 189h62l54 -90l107 90h68zM305 471c84 0 145 -47 145 -118c0 -43 -27 -86 -70 -86c-36 0 -59 24 -59 54c0 28 17 51 41 68c-8 14 -25 25 -55 25c-100 0 -159 -153 -159 -240c0 -86 46 -113 91 -113c46 0 90 33 130 95l43 -29
c-43 -75 -102 -137 -200 -137c-110 0 -184 75 -184 184c0 156 134 297 277 297z" />
    <glyph glyph-name="Ccedilla" unicode="&#xc7;" horiz-adv-x="677" 
d="M162 -164c25 -17 50 -28 83 -28c27 0 46 14 46 36c0 30 -39 42 -88 38l-13 31l92 75c-147 21 -220 130 -220 275c0 201 148 411 368 411c83 0 145 -30 179 -81l41 78h77l-64 -260h-75c-10 144 -73 190 -154 190c-177 0 -238 -238 -238 -348c0 -133 68 -189 155 -189
c106 0 168 80 218 198l71 -25c-49 -138 -140 -249 -294 -253l-55 -47v-4c50 -9 85 -37 85 -81c0 -51 -41 -98 -124 -98c-40 0 -88 15 -121 42z" />
    <glyph glyph-name="ccedilla" unicode="&#xe7;" horiz-adv-x="469" 
d="M53 -164c25 -17 50 -28 83 -28c27 0 46 14 46 36c0 30 -39 42 -88 38l-13 31l97 80c-91 13 -150 83 -150 181c0 156 134 297 277 297c84 0 145 -47 145 -118c0 -43 -27 -86 -70 -86c-36 0 -59 24 -59 54c0 28 17 51 41 68c-8 14 -25 25 -55 25
c-100 0 -159 -153 -159 -240c0 -86 46 -113 91 -113c46 0 90 33 130 95l43 -29c-38 -66 -87 -121 -164 -134l-66 -56v-4c50 -9 85 -37 85 -81c0 -51 -41 -98 -124 -98c-40 0 -88 15 -121 42z" />
    <glyph glyph-name="Cdotaccent" unicode="&#x10a;" horiz-adv-x="677" 
d="M337 -16c-184 0 -275 117 -275 279c0 201 148 411 368 411c83 0 145 -30 179 -81l41 78h77l-64 -260h-75c-10 144 -73 190 -154 190c-177 0 -238 -238 -238 -348c0 -133 68 -189 155 -189c106 0 168 80 218 198l71 -25c-50 -140 -143 -253 -303 -253zM552 819
c0 -37 -31 -82 -82 -82c-33 0 -58 22 -58 60c0 39 29 84 79 84c36 0 61 -23 61 -62z" />
    <glyph glyph-name="cdotaccent" unicode="&#x10b;" horiz-adv-x="469" 
d="M305 471c84 0 145 -47 145 -118c0 -43 -27 -86 -70 -86c-36 0 -59 24 -59 54c0 28 17 51 41 68c-8 14 -25 25 -55 25c-100 0 -159 -153 -159 -240c0 -86 46 -113 91 -113c46 0 90 33 130 95l43 -29c-43 -75 -102 -137 -200 -137c-110 0 -184 75 -184 184
c0 156 134 297 277 297zM409 617c0 -37 -31 -82 -82 -82c-33 0 -58 22 -58 60c0 39 29 84 79 84c36 0 61 -23 61 -62z" />
    <glyph glyph-name="Dcaron" unicode="&#x10e;" horiz-adv-x="716" 
d="M658 932l-164 -189h-58l-69 189h62l54 -90l107 90h68zM-27 0l17 75h101l126 508h-102l19 75h265c208 0 318 -109 318 -257c0 -96 -39 -203 -116 -279c-75 -76 -188 -122 -339 -122h-289zM217 74h56c91 0 152 19 204 71c59 59 102 182 102 278c0 106 -60 161 -181 161h-54
z" />
    <glyph glyph-name="dcaron" unicode="&#x10f;" horiz-adv-x="564" 
d="M714 635l-63 -104h-47l34 160c11 56 30 79 64 79c28 0 50 -22 50 -49c0 -26 -13 -45 -38 -86zM208 70c81 0 146 173 146 264c0 51 -19 72 -54 72c-94 0 -150 -166 -150 -247c0 -59 21 -89 58 -89zM508 172l48 -15c-39 -122 -93 -167 -154 -167c-47 0 -82 31 -82 88
c0 7 0 12 1 22l-7 3c-38 -75 -95 -113 -152 -113c-86 0 -133 71 -133 159c0 102 41 193 95 246c47 48 100 76 156 76s86 -32 99 -75l57 215h-83l20 78h198l-142 -535c-8 -26 -11 -44 -11 -57c0 -17 8 -26 23 -26c22 0 44 34 67 101z" />
    <glyph glyph-name="Dcroat" unicode="&#x110;" horiz-adv-x="718" 
d="M-26 0l17 75h101l57 230h-101l19 76h101l50 202h-102l19 75h265c208 0 318 -109 318 -257c0 -96 -39 -203 -116 -279c-75 -76 -188 -122 -339 -122h-289zM218 74h56c91 0 152 19 204 71c59 59 102 182 102 278c0 106 -60 161 -181 161h-54l-51 -203h127l-18 -76h-128z
" />
    <glyph glyph-name="dcroat" unicode="&#x111;" horiz-adv-x="564" 
d="M373 689h198l-34 -126h70l-16 -59h-69l-93 -350c-8 -26 -11 -44 -11 -57c0 -17 8 -26 23 -26c22 0 44 34 67 101l48 -15c-39 -122 -93 -167 -154 -167c-47 0 -82 31 -82 88c0 7 0 12 1 22l-7 3c-38 -75 -95 -113 -152 -113c-86 0 -133 71 -133 159c0 102 41 190 94 243
c48 48 101 76 157 76c55 0 85 -32 98 -75l29 111h-123l16 59h123l14 51h-83zM208 70c81 0 145 172 145 261c0 51 -19 72 -54 72c-94 0 -149 -166 -149 -244c0 -59 21 -89 58 -89z" />
    <glyph glyph-name="Eacute" unicode="&#xc9;" 
d="M567 810l-93 -74h-59l83 134c28 44 47 72 80 72c31 0 51 -27 51 -51c0 -29 -17 -44 -62 -81zM135 658h584l-55 -223h-60c-3 122 -12 149 -94 149h-165l-53 -214h46c67 0 79 10 117 97h65l-66 -264h-63c9 87 1 99 -63 99h-53l-57 -228h167c92 0 108 33 174 171h66
l-61 -245h-590l17 75h101l126 508h-102z" />
    <glyph glyph-name="eacute" unicode="&#xe9;" horiz-adv-x="471" 
d="M452 367c0 -90 -94 -167 -304 -179c-1 -8 -1 -16 -1 -23c0 -83 43 -109 93 -109c49 0 98 33 140 92l42 -30c-51 -73 -113 -128 -219 -128c-103 0 -175 72 -175 182c0 154 133 299 290 299c86 0 134 -43 134 -104zM301 416c-70 0 -123 -95 -144 -181
c139 15 190 69 190 131c0 28 -16 50 -46 50zM418 608l-93 -74h-59l83 134c28 44 47 72 80 72c31 0 51 -27 51 -51c0 -29 -17 -44 -62 -81z" />
    <glyph glyph-name="Ebreve" unicode="&#x114;" 
d="M135 658h584l-55 -223h-60c-3 122 -12 149 -94 149h-165l-53 -214h46c67 0 79 10 117 97h65l-66 -264h-63c9 87 1 99 -63 99h-53l-57 -228h167c92 0 108 33 174 171h66l-61 -245h-590l17 75h101l126 508h-102zM470 739c-88 0 -139 59 -115 168h51c0 -56 24 -86 77 -86
c47 0 83 32 109 86h54c-26 -108 -93 -168 -176 -168z" />
    <glyph glyph-name="ebreve" unicode="&#x115;" horiz-adv-x="471" 
d="M452 367c0 -90 -94 -167 -304 -179c-1 -8 -1 -16 -1 -23c0 -83 43 -109 93 -109c49 0 98 33 140 92l42 -30c-51 -73 -113 -128 -219 -128c-103 0 -175 72 -175 182c0 154 133 299 290 299c86 0 134 -43 134 -104zM321 537c-88 0 -139 59 -115 168h51c0 -56 24 -86 77 -86
c47 0 83 32 109 86h54c-26 -108 -93 -168 -176 -168zM301 416c-70 0 -123 -95 -144 -181c139 15 190 69 190 131c0 28 -16 50 -46 50z" />
    <glyph glyph-name="Ecaron" unicode="&#x11a;" 
d="M648 932l-164 -189h-58l-69 189h62l54 -90l107 90h68zM135 658h584l-55 -223h-60c-3 122 -12 149 -94 149h-165l-53 -214h46c67 0 79 10 117 97h65l-66 -264h-63c9 87 1 99 -63 99h-53l-57 -228h167c92 0 108 33 174 171h66l-61 -245h-590l17 75h101l126 508h-102z" />
    <glyph glyph-name="ecaron" unicode="&#x11b;" horiz-adv-x="471" 
d="M452 367c0 -90 -94 -167 -304 -179c-1 -8 -1 -16 -1 -23c0 -83 43 -109 93 -109c49 0 98 33 140 92l42 -30c-51 -73 -113 -128 -219 -128c-103 0 -175 72 -175 182c0 154 133 299 290 299c86 0 134 -43 134 -104zM499 730l-164 -189h-58l-69 189h62l54 -90l107 90h68z
M301 416c-70 0 -123 -95 -144 -181c139 15 190 69 190 131c0 28 -16 50 -46 50z" />
    <glyph glyph-name="Ecircumflex" unicode="&#xca;" 
d="M317 737l163 189h58l69 -189h-61l-54 90l-108 -90h-67zM135 658h584l-55 -223h-60c-3 122 -12 149 -94 149h-165l-53 -214h46c67 0 79 10 117 97h65l-66 -264h-63c9 87 1 99 -63 99h-53l-57 -228h167c92 0 108 33 174 171h66l-61 -245h-590l17 75h101l126 508h-102z" />
    <glyph glyph-name="ecircumflex" unicode="&#xea;" horiz-adv-x="471" 
d="M452 367c0 -90 -94 -167 -304 -179c-1 -8 -1 -16 -1 -23c0 -83 43 -109 93 -109c49 0 98 33 140 92l42 -30c-51 -73 -113 -128 -219 -128c-103 0 -175 72 -175 182c0 154 133 299 290 299c86 0 134 -43 134 -104zM167 535l163 189h58l69 -189h-61l-54 90l-108 -90h-67z
M301 416c-70 0 -123 -95 -144 -181c139 15 190 69 190 131c0 28 -16 50 -46 50z" />
    <glyph glyph-name="Edieresis" unicode="&#xcb;" 
d="M462 830c0 -36 -30 -80 -77 -80c-31 0 -55 22 -55 58c0 38 28 81 74 81c34 0 58 -22 58 -59zM650 830c0 -36 -30 -80 -77 -80c-31 0 -55 22 -55 58c0 38 28 81 74 81c34 0 58 -22 58 -59zM135 658h584l-55 -223h-60c-3 122 -12 149 -94 149h-165l-53 -214h46
c67 0 79 10 117 97h65l-66 -264h-63c9 87 1 99 -63 99h-53l-57 -228h167c92 0 108 33 174 171h66l-61 -245h-590l17 75h101l126 508h-102z" />
    <glyph glyph-name="edieresis" unicode="&#xeb;" horiz-adv-x="471" 
d="M452 367c0 -90 -94 -167 -304 -179c-1 -8 -1 -16 -1 -23c0 -83 43 -109 93 -109c49 0 98 33 140 92l42 -30c-51 -73 -113 -128 -219 -128c-103 0 -175 72 -175 182c0 154 133 299 290 299c86 0 134 -43 134 -104zM301 416c-70 0 -123 -95 -144 -181
c139 15 190 69 190 131c0 28 -16 50 -46 50zM501 628c0 -36 -30 -80 -77 -80c-31 0 -55 22 -55 58c0 38 28 81 74 81c34 0 58 -22 58 -59zM313 628c0 -36 -30 -80 -77 -80c-31 0 -55 22 -55 58c0 38 28 81 74 81c34 0 58 -22 58 -59z" />
    <glyph glyph-name="Edotaccent" unicode="&#x116;" 
d="M135 658h584l-55 -223h-60c-3 122 -12 149 -94 149h-165l-53 -214h46c67 0 79 10 117 97h65l-66 -264h-63c9 87 1 99 -63 99h-53l-57 -228h167c92 0 108 33 174 171h66l-61 -245h-590l17 75h101l126 508h-102zM558 819c0 -37 -31 -82 -82 -82c-33 0 -58 22 -58 60
c0 39 29 84 79 84c36 0 61 -23 61 -62z" />
    <glyph glyph-name="edotaccent" unicode="&#x117;" horiz-adv-x="471" 
d="M452 367c0 -90 -94 -167 -304 -179c-1 -8 -1 -16 -1 -23c0 -83 43 -109 93 -109c49 0 98 33 140 92l42 -30c-51 -73 -113 -128 -219 -128c-103 0 -175 72 -175 182c0 154 133 299 290 299c86 0 134 -43 134 -104zM301 416c-70 0 -123 -95 -144 -181
c139 15 190 69 190 131c0 28 -16 50 -46 50zM409 617c0 -37 -31 -82 -82 -82c-33 0 -58 22 -58 60c0 39 29 84 79 84c36 0 61 -23 61 -62z" />
    <glyph glyph-name="Egrave" unicode="&#xc8;" 
d="M135 658h584l-55 -223h-60c-3 122 -12 149 -94 149h-165l-53 -214h46c67 0 79 10 117 97h65l-66 -264h-63c9 87 1 99 -63 99h-53l-57 -228h167c92 0 108 33 174 171h66l-61 -245h-590l17 75h101l126 508h-102zM472 846l20 -110h-53l-49 75c-26 39 -34 58 -34 80
c0 25 21 50 50 50c46 0 55 -39 66 -95z" />
    <glyph glyph-name="egrave" unicode="&#xe8;" horiz-adv-x="471" 
d="M452 367c0 -90 -94 -167 -304 -179c-1 -8 -1 -16 -1 -23c0 -83 43 -109 93 -109c49 0 98 33 140 92l42 -30c-51 -73 -113 -128 -219 -128c-103 0 -175 72 -175 182c0 154 133 299 290 299c86 0 134 -43 134 -104zM301 416c-70 0 -123 -95 -144 -181
c139 15 190 69 190 131c0 28 -16 50 -46 50zM323 644l20 -110h-53l-49 75c-26 39 -34 58 -34 80c0 25 21 50 50 50c46 0 55 -39 66 -95z" />
    <glyph glyph-name="Emacron" unicode="&#x112;" 
d="M135 658h584l-55 -223h-60c-3 122 -12 149 -94 149h-165l-53 -214h46c67 0 79 10 117 97h65l-66 -264h-63c9 87 1 99 -63 99h-53l-57 -228h167c92 0 108 33 174 171h66l-61 -245h-590l17 75h101l126 508h-102zM336 748l21 84h272l-22 -84h-271z" />
    <glyph glyph-name="emacron" unicode="&#x113;" horiz-adv-x="471" 
d="M452 367c0 -90 -94 -167 -304 -179c-1 -8 -1 -16 -1 -23c0 -83 43 -109 93 -109c49 0 98 33 140 92l42 -30c-51 -73 -113 -128 -219 -128c-103 0 -175 72 -175 182c0 154 133 299 290 299c86 0 134 -43 134 -104zM187 546l21 84h272l-22 -84h-271zM301 416
c-70 0 -123 -95 -144 -181c139 15 190 69 190 131c0 28 -16 50 -46 50z" />
    <glyph glyph-name="Eogonek" unicode="&#x118;" 
d="M135 658h584l-55 -223h-60c-3 122 -12 149 -94 149h-165l-53 -214h46c67 0 79 10 117 97h65l-66 -264h-63c9 87 1 99 -63 99h-53l-57 -228h167c92 0 108 33 174 171h66l-61 -245h-53l-5 -4c-95 -74 -114 -105 -114 -137c0 -22 14 -44 51 -44c20 0 41 8 60 20l20 -44
c-31 -21 -69 -37 -111 -37c-63 0 -112 31 -112 90c0 56 41 96 137 156h-463l17 75h101l126 508h-102z" />
    <glyph glyph-name="eogonek" unicode="&#x119;" horiz-adv-x="471" 
d="M380 148l42 -30c-27 -38 -46 -60 -85 -90l-42 -31c-96 -74 -116 -106 -116 -138c0 -22 14 -44 51 -44c20 0 40 8 60 20l20 -44c-31 -21 -69 -37 -111 -37c-64 0 -112 31 -112 90c0 49 29 87 122 146h-6c-103 0 -175 72 -175 182c0 154 133 299 290 299
c86 0 134 -43 134 -104c0 -90 -94 -167 -304 -179c-1 -8 -1 -16 -1 -23c0 -83 43 -109 93 -109c49 0 98 33 140 92zM301 416c-70 0 -123 -95 -144 -181c139 15 190 69 190 131c0 28 -16 50 -46 50z" />
    <glyph glyph-name="Eth" unicode="&#xd0;" horiz-adv-x="718" 
d="M-26 0l17 75h101l57 230h-101l19 76h101l50 202h-102l19 75h265c208 0 318 -109 318 -257c0 -96 -39 -203 -116 -279c-75 -76 -188 -122 -339 -122h-289zM218 74h56c91 0 152 19 204 71c59 59 102 182 102 278c0 106 -60 161 -181 161h-54l-51 -203h127l-18 -76h-128z
" />
    <glyph glyph-name="eth" unicode="&#xf0;" horiz-adv-x="519" 
d="M537 611l-95 -32c34 -69 52 -143 52 -232c0 -204 -112 -357 -277 -357c-113 0 -190 79 -190 194c0 158 124 275 244 275c60 0 97 -25 115 -56c-2 45 -13 94 -34 146l-119 -40l-19 55l113 38c-12 23 -25 46 -40 70l79 23c17 -22 32 -43 46 -65l107 36zM364 309
c0 63 -30 87 -74 87c-93 0 -144 -161 -144 -259c0 -64 27 -91 70 -91c95 0 148 168 148 263z" />
    <glyph glyph-name="Gbreve" unicode="&#x11e;" horiz-adv-x="715" 
d="M331 63c88 0 149 74 174 173l6 24h-118l19 75h324l-18 -75h-82l-69 -267h-74l-8 88c-40 -57 -102 -97 -183 -97c-154 0 -240 120 -240 275c0 205 148 415 368 415c83 0 145 -30 179 -81l41 78h77l-63 -256h-80c-11 143 -73 186 -150 186c-177 0 -238 -240 -238 -349
c0 -142 68 -189 135 -189zM469 739c-88 0 -139 59 -115 168h51c0 -56 24 -86 77 -86c47 0 83 32 109 86h54c-26 -108 -93 -168 -176 -168z" />
    <glyph glyph-name="gbreve" unicode="&#x11f;" horiz-adv-x="519" 
d="M92 -106c13 -6 34 -10 58 -10c37 0 65 11 89 36c29 29 50 79 71 169l-7 3c-32 -43 -80 -70 -134 -70c-89 0 -137 70 -137 153c0 89 33 171 92 230c44 44 90 66 145 66c57 0 97 -36 108 -82l19 75h114l-91 -387c-43 -182 -137 -247 -267 -247c-68 0 -166 18 -166 98
c0 34 24 74 68 74c40 0 59 -27 59 -58c0 -20 -11 -40 -21 -50zM214 96c75 0 139 121 139 225c0 51 -29 85 -65 85c-83 0 -135 -135 -135 -227c0 -56 21 -83 61 -83zM338 537c-88 0 -139 59 -115 168h51c0 -56 24 -86 77 -86c47 0 83 32 109 86h54
c-26 -108 -93 -168 -176 -168z" />
    <glyph glyph-name="Gcommaaccent" unicode="&#x122;" horiz-adv-x="715" 
d="M163 -337l-15 41c66 24 106 53 121 92l-5 4c-6 -3 -14 -5 -22 -5c-29 0 -53 20 -53 55c0 38 29 79 75 79c49 0 76 -38 76 -86c0 -75 -59 -145 -177 -180zM331 63c88 0 149 74 174 173l6 24h-118l19 75h324l-18 -75h-82l-69 -267h-74l-8 88c-40 -57 -102 -97 -183 -97
c-154 0 -240 120 -240 275c0 205 148 415 368 415c83 0 145 -30 179 -81l41 78h77l-63 -256h-80c-11 143 -73 186 -150 186c-177 0 -238 -240 -238 -349c0 -142 68 -189 135 -189z" />
    <glyph glyph-name="gcommaaccent" unicode="&#x123;" horiz-adv-x="519" 
d="M438 800l15 -41c-66 -24 -106 -53 -121 -92l5 -4c6 3 14 5 22 5c29 0 53 -20 53 -55c0 -38 -29 -79 -75 -79c-49 0 -76 38 -76 86c0 75 59 145 177 180zM92 -106c13 -6 34 -10 58 -10c37 0 65 11 89 36c29 29 50 79 71 169l-7 3c-32 -43 -80 -70 -134 -70
c-89 0 -137 70 -137 153c0 89 33 171 92 230c44 44 90 66 145 66c57 0 97 -36 108 -82l19 75h114l-91 -387c-43 -182 -137 -247 -267 -247c-68 0 -166 18 -166 98c0 34 24 74 68 74c40 0 59 -27 59 -58c0 -20 -11 -40 -21 -50zM214 96c75 0 139 121 139 225
c0 51 -29 85 -65 85c-83 0 -135 -135 -135 -227c0 -56 21 -83 61 -83z" />
    <glyph glyph-name="Gdotaccent" unicode="&#x120;" horiz-adv-x="715" 
d="M331 63c88 0 149 74 174 173l6 24h-118l19 75h324l-18 -75h-82l-69 -267h-74l-8 88c-40 -57 -102 -97 -183 -97c-154 0 -240 120 -240 275c0 205 148 415 368 415c83 0 145 -30 179 -81l41 78h77l-63 -256h-80c-11 143 -73 186 -150 186c-177 0 -238 -240 -238 -349
c0 -142 68 -189 135 -189zM557 819c0 -37 -31 -82 -82 -82c-33 0 -58 22 -58 60c0 39 29 84 79 84c36 0 61 -23 61 -62z" />
    <glyph glyph-name="gdotaccent" unicode="&#x121;" horiz-adv-x="519" 
d="M92 -106c13 -6 34 -10 58 -10c37 0 65 11 89 36c29 29 50 79 71 169l-7 3c-32 -43 -80 -70 -134 -70c-89 0 -137 70 -137 153c0 89 33 171 92 230c44 44 90 66 145 66c57 0 97 -36 108 -82l19 75h114l-91 -387c-43 -182 -137 -247 -267 -247c-68 0 -166 18 -166 98
c0 34 24 74 68 74c40 0 59 -27 59 -58c0 -20 -11 -40 -21 -50zM214 96c75 0 139 121 139 225c0 51 -29 85 -65 85c-83 0 -135 -135 -135 -227c0 -56 21 -83 61 -83zM426 617c0 -37 -31 -82 -82 -82c-33 0 -58 22 -58 60c0 39 29 84 79 84c36 0 61 -23 61 -62z" />
    <glyph glyph-name="Hbar" unicode="&#x126;" horiz-adv-x="784" 
d="M81 439l16 68h102l19 76h-102l19 75h316l-18 -75h-88l-20 -80h269l20 80h-89l18 75h316l-18 -75h-101l-19 -76h102l-17 -68h-102l-90 -364h102l-18 -75h-316l18 75h88l55 219h-270l-55 -219h90l-18 -75h-316l17 75h101l90 364h-101zM290 363h270l19 79h-270z" />
    <glyph glyph-name="hbar" unicode="&#x127;" horiz-adv-x="568" 
d="M402 -10c-54 0 -89 35 -89 93c0 98 65 197 65 264c0 23 -10 33 -27 33c-45 0 -138 -73 -220 -380h-120l134 504h-70l15 59h70l14 51h-83l19 75h199l-38 -126h124l-15 -59h-126l-72 -241l7 -3c65 142 145 208 215 208c56 0 91 -44 91 -104c0 -84 -73 -211 -73 -271
c0 -15 6 -22 17 -22c21 0 42 32 69 101l47 -15c-40 -121 -96 -167 -153 -167z" />
    <glyph glyph-name="Iacute" unicode="&#xcd;" horiz-adv-x="402" 
d="M-19 0l17 75h101l126 508h-102l19 75h329l-19 -75h-100l-127 -508h102l-18 -75h-328zM424 810l-93 -74h-59l83 134c28 44 47 72 80 72c31 0 51 -27 51 -51c0 -29 -17 -44 -62 -81z" />
    <glyph glyph-name="iacute" unicode="&#xed;" horiz-adv-x="345" 
d="M296 608l-93 -74h-59l83 134c28 44 47 72 80 72c31 0 51 -27 51 -51c0 -29 -17 -44 -62 -81zM272 370c0 -78 -81 -217 -81 -275c0 -17 7 -24 20 -24c19 0 41 27 71 101l47 -15c-39 -118 -95 -167 -159 -167c-52 0 -90 34 -90 94c0 95 83 229 83 291c0 16 -6 22 -15 22
c-28 0 -53 -43 -81 -105l-48 20c43 100 96 159 164 159c52 0 89 -37 89 -101z" />
    <glyph glyph-name="Ibreve" unicode="&#x12c;" horiz-adv-x="402" 
d="M-19 0l17 75h101l126 508h-102l19 75h329l-19 -75h-100l-127 -508h102l-18 -75h-328zM327 739c-88 0 -139 59 -115 168h51c0 -56 24 -86 77 -86c47 0 83 32 109 86h54c-26 -108 -93 -168 -176 -168z" />
    <glyph glyph-name="ibreve" unicode="&#x12d;" horiz-adv-x="345" 
d="M272 370c0 -78 -81 -217 -81 -275c0 -17 7 -24 20 -24c19 0 41 27 71 101l47 -15c-39 -118 -95 -167 -159 -167c-52 0 -90 34 -90 94c0 95 83 229 83 291c0 16 -6 22 -15 22c-28 0 -53 -43 -81 -105l-48 20c43 100 96 159 164 159c52 0 89 -37 89 -101zM200 537
c-88 0 -139 59 -115 168h51c0 -56 24 -86 77 -86c47 0 83 32 109 86h54c-26 -108 -93 -168 -176 -168z" />
    <glyph glyph-name="Icircumflex" unicode="&#xce;" horiz-adv-x="402" 
d="M-19 0l17 75h101l126 508h-102l19 75h329l-19 -75h-100l-127 -508h102l-18 -75h-328zM174 737l163 189h58l69 -189h-61l-54 90l-108 -90h-67z" />
    <glyph glyph-name="icircumflex" unicode="&#xee;" horiz-adv-x="345" 
d="M46 535l163 189h58l69 -189h-61l-54 90l-108 -90h-67zM272 370c0 -78 -81 -217 -81 -275c0 -17 7 -24 20 -24c19 0 41 27 71 101l47 -15c-39 -118 -95 -167 -159 -167c-52 0 -90 34 -90 94c0 95 83 229 83 291c0 16 -6 22 -15 22c-28 0 -53 -43 -81 -105l-48 20
c43 100 96 159 164 159c52 0 89 -37 89 -101z" />
    <glyph glyph-name="Idieresis" unicode="&#xcf;" horiz-adv-x="402" 
d="M-19 0l17 75h101l126 508h-102l19 75h329l-19 -75h-100l-127 -508h102l-18 -75h-328zM320 830c0 -36 -30 -80 -77 -80c-31 0 -55 22 -55 58c0 38 28 81 74 81c34 0 58 -22 58 -59zM508 830c0 -36 -30 -80 -77 -80c-31 0 -55 22 -55 58c0 38 28 81 74 81
c34 0 58 -22 58 -59z" />
    <glyph glyph-name="idieresis" unicode="&#xef;" horiz-adv-x="345" 
d="M192 628c0 -36 -30 -80 -77 -80c-31 0 -55 22 -55 58c0 38 28 81 74 81c34 0 58 -22 58 -59zM380 628c0 -36 -30 -80 -77 -80c-31 0 -55 22 -55 58c0 38 28 81 74 81c34 0 58 -22 58 -59zM272 370c0 -78 -81 -217 -81 -275c0 -17 7 -24 20 -24c19 0 41 27 71 101l47 -15
c-39 -118 -95 -167 -159 -167c-52 0 -90 34 -90 94c0 95 83 229 83 291c0 16 -6 22 -15 22c-28 0 -53 -43 -81 -105l-48 20c43 100 96 159 164 159c52 0 89 -37 89 -101z" />
    <glyph glyph-name="Idotaccent" unicode="&#x130;" horiz-adv-x="402" 
d="M-19 0l17 75h101l126 508h-102l19 75h329l-19 -75h-100l-127 -508h102l-18 -75h-328zM415 819c0 -37 -31 -82 -82 -82c-33 0 -58 22 -58 60c0 39 29 84 79 84c36 0 61 -23 61 -62z" />
    <glyph glyph-name="dotlessi" unicode="&#x131;" horiz-adv-x="345" 
d="M272 370c0 -78 -81 -217 -81 -275c0 -17 7 -24 20 -24c19 0 41 27 71 101l47 -15c-39 -118 -95 -167 -159 -167c-52 0 -90 34 -90 94c0 95 83 229 83 291c0 16 -6 22 -15 22c-28 0 -53 -43 -81 -105l-48 20c43 100 96 159 164 159c52 0 89 -37 89 -101z" />
    <glyph glyph-name="Igrave" unicode="&#xcc;" horiz-adv-x="402" 
d="M-19 0l17 75h101l126 508h-102l19 75h329l-19 -75h-100l-127 -508h102l-18 -75h-328zM329 846l20 -110h-53l-49 75c-26 39 -34 58 -34 80c0 25 21 50 50 50c46 0 55 -39 66 -95z" />
    <glyph glyph-name="igrave" unicode="&#xec;" horiz-adv-x="345" 
d="M272 370c0 -78 -81 -217 -81 -275c0 -17 7 -24 20 -24c19 0 41 27 71 101l47 -15c-39 -118 -95 -167 -159 -167c-52 0 -90 34 -90 94c0 95 83 229 83 291c0 16 -6 22 -15 22c-28 0 -53 -43 -81 -105l-48 20c43 100 96 159 164 159c52 0 89 -37 89 -101zM202 644l20 -110
h-53l-49 75c-26 39 -34 58 -34 80c0 25 21 50 50 50c46 0 55 -39 66 -95z" />
    <glyph glyph-name="Imacron" unicode="&#x12a;" horiz-adv-x="402" 
d="M-19 0l17 75h101l126 508h-102l19 75h329l-19 -75h-100l-127 -508h102l-18 -75h-328zM193 748l21 84h272l-22 -84h-271z" />
    <glyph glyph-name="imacron" unicode="&#x12b;" horiz-adv-x="345" 
d="M272 370c0 -78 -81 -217 -81 -275c0 -17 7 -24 20 -24c19 0 41 27 71 101l47 -15c-39 -118 -95 -167 -159 -167c-52 0 -90 34 -90 94c0 95 83 229 83 291c0 16 -6 22 -15 22c-28 0 -53 -43 -81 -105l-48 20c43 100 96 159 164 159c52 0 89 -37 89 -101zM66 546l21 84h272
l-22 -84h-271z" />
    <glyph glyph-name="Iogonek" unicode="&#x12e;" horiz-adv-x="402" 
d="M-19 0l17 75h101l126 508h-102l19 75h329l-19 -75h-100l-127 -508h102l-18 -75h-109l-5 -4c-95 -74 -114 -105 -114 -137c0 -22 14 -44 51 -44c20 0 41 8 60 20l20 -44c-31 -21 -69 -37 -111 -37c-63 0 -112 31 -112 90c0 56 41 96 137 156h-145z" />
    <glyph glyph-name="iogonek" unicode="&#x12f;" horiz-adv-x="345" 
d="M281 172l48 -15c-24 -69 -49 -115 -105 -159c-100 -78 -111 -109 -111 -139c0 -22 14 -44 51 -44c20 0 40 8 60 20l20 -44c-31 -21 -69 -37 -111 -37c-64 0 -112 31 -112 90c0 52 36 94 124 149c-35 8 -66 36 -66 91c0 95 83 229 83 291c0 16 -5 22 -15 22
c-28 0 -52 -43 -81 -105l-48 20c44 100 96 159 165 159c52 0 88 -37 88 -101c0 -78 -81 -217 -81 -275c0 -17 7 -24 20 -24c20 0 42 27 71 101zM324 629c0 -40 -33 -88 -86 -88c-35 0 -62 24 -62 64c0 41 32 88 84 88c38 0 64 -24 64 -64z" />
    <glyph glyph-name="Kcommaaccent" unicode="&#x136;" horiz-adv-x="715" 
d="M187 -337l-15 41c66 24 106 53 121 92l-5 4c-6 -3 -14 -5 -22 -5c-29 0 -53 20 -53 55c0 38 29 79 75 79c49 0 76 -38 76 -86c0 -75 -59 -145 -177 -180zM698 583l-247 -200l145 -308h86l-18 -75h-304l18 74h79l-102 232l-99 -81l-38 -151h87l-18 -74h-313l17 75h101
l126 508h-102l19 75h315l-19 -74h-86l-65 -260l307 260h-81l19 74h268l-18 -75h-77z" />
    <glyph glyph-name="kcommaaccent" unicode="&#x137;" horiz-adv-x="529" 
d="M373 98c0 -20 8 -27 19 -27c22 0 41 32 67 101l47 -15c-38 -121 -90 -167 -148 -167c-56 0 -93 37 -93 102c0 28 11 68 11 90c0 37 -16 46 -89 46h-2l-61 -228h-113l162 611h-83l20 78h199l-112 -416h5c53 0 75 30 119 103c33 54 66 95 125 95c48 0 74 -30 74 -73
c0 -42 -27 -84 -68 -84c-40 0 -61 35 -47 76c-14 -3 -29 -20 -52 -58c-20 -37 -36 -58 -66 -74c71 -6 94 -37 94 -84c0 -29 -8 -58 -8 -76zM79 -336l-15 41c66 24 106 53 121 92l-5 4c-6 -3 -14 -5 -22 -5c-29 0 -53 20 -53 55c0 38 29 79 75 79c49 0 76 -38 76 -86
c0 -75 -59 -145 -177 -180z" />
    <glyph glyph-name="Lacute" unicode="&#x139;" horiz-adv-x="603" 
d="M417 810l-93 -74h-59l83 134c28 44 47 72 80 72c31 0 51 -27 51 -51c0 -29 -17 -44 -62 -81zM135 658h333l-18 -74h-105l-127 -510h118c94 0 114 36 180 175h62l-62 -249h-542l17 75h101l126 508h-102z" />
    <glyph glyph-name="lacute" unicode="&#x13a;" horiz-adv-x="305" 
d="M341 832l-93 -74h-59l83 134c28 44 47 72 80 72c31 0 51 -27 51 -51c0 -29 -17 -44 -62 -81zM40 84c0 30 11 78 27 137l106 390h-84l20 78h199l-142 -521c-7 -25 -15 -58 -15 -73c0 -18 10 -24 20 -24c24 0 45 32 71 101l47 -15c-40 -121 -93 -167 -156 -167
c-59 0 -93 35 -93 94z" />
    <glyph glyph-name="Lcaron" unicode="&#x13d;" horiz-adv-x="603" 
d="M606 599l-63 -104h-47l34 160c11 56 30 79 64 79c28 0 50 -22 50 -49c0 -26 -13 -45 -38 -86zM135 658h333l-18 -74h-105l-127 -510h118c94 0 114 36 180 175h62l-62 -249h-542l17 75h101l126 508h-102z" />
    <glyph glyph-name="lcaron" unicode="&#x13e;" horiz-adv-x="305" 
d="M451 635l-63 -104h-47l34 160c11 56 30 79 64 79c28 0 50 -22 50 -49c0 -26 -13 -45 -38 -86zM40 84c0 30 11 78 27 137l106 390h-84l20 78h199l-142 -521c-7 -25 -15 -58 -15 -73c0 -18 10 -24 20 -24c24 0 45 32 71 101l47 -15c-40 -121 -93 -167 -156 -167
c-59 0 -93 35 -93 94z" />
    <glyph glyph-name="Lcommaaccent" unicode="&#x13b;" horiz-adv-x="603" 
d="M141 -337l-15 41c66 24 106 53 121 92l-5 4c-6 -3 -14 -5 -22 -5c-29 0 -53 20 -53 55c0 38 29 79 75 79c49 0 76 -38 76 -86c0 -75 -59 -145 -177 -180zM135 658h333l-18 -74h-105l-127 -510h118c94 0 114 36 180 175h62l-62 -249h-542l17 75h101l126 508h-102z" />
    <glyph glyph-name="lcommaaccent" unicode="&#x13c;" horiz-adv-x="305" 
d="M-4 -337l-15 41c66 24 106 53 121 92l-5 4c-6 -3 -14 -5 -22 -5c-29 0 -53 20 -53 55c0 38 29 79 75 79c49 0 76 -38 76 -86c0 -75 -59 -145 -177 -180zM40 84c0 30 11 78 27 137l106 390h-84l20 78h199l-142 -521c-7 -25 -15 -58 -15 -73c0 -18 10 -24 20 -24
c24 0 45 32 71 101l47 -15c-40 -121 -93 -167 -156 -167c-59 0 -93 35 -93 94z" />
    <glyph glyph-name="Ldot" unicode="&#x13f;" horiz-adv-x="603" 
d="M135 658h333l-18 -74h-105l-127 -510h118c94 0 114 36 177 162h62l-59 -236h-542l17 75h101l126 508h-102zM492 302c-33 0 -59 22 -59 59c0 39 30 82 79 82c36 0 61 -23 61 -60s-30 -81 -81 -81z" />
    <glyph glyph-name="ldot" unicode="&#x140;" horiz-adv-x="374" 
d="M413 358c0 -37 -30 -80 -79 -80c-32 0 -56 21 -56 58s28 81 77 81c34 0 58 -22 58 -59zM40 84c0 30 11 78 27 137l106 390h-84l20 78h199l-142 -521c-7 -25 -15 -58 -15 -73c0 -18 10 -24 20 -24c24 0 45 32 71 101l47 -15c-40 -121 -93 -167 -156 -167
c-59 0 -93 35 -93 94z" />
    <glyph glyph-name="Lslash" unicode="&#x141;" horiz-adv-x="605" 
d="M136 658h333l-18 -74h-105l-50 -202l182 57l-17 -73l-184 -58l-58 -234h118c94 0 114 36 180 175h62l-62 -249h-542l17 75h101l47 190l-91 -28l18 74l92 28l60 244h-102z" />
    <glyph glyph-name="lslash" unicode="&#x142;" horiz-adv-x="337" 
d="M56 84c0 30 11 78 27 137l21 78l-96 -29l16 66l98 30l67 245h-84l20 78h199l-78 -286l105 32l-17 -65l-106 -33l-46 -169c-7 -25 -15 -58 -15 -73c0 -18 10 -24 20 -24c24 0 45 32 71 101l47 -15c-40 -121 -93 -167 -156 -167c-59 0 -93 35 -93 94z" />
    <glyph glyph-name="Nacute" unicode="&#x143;" horiz-adv-x="774" 
d="M607 810l-93 -74h-59l83 134c28 44 47 72 80 72c31 0 51 -27 51 -51c0 -29 -17 -44 -62 -81zM501 -13l-210 533h-9l-111 -445h97l-18 -75h-270l18 75h93l126 508h-94l18 75h229l188 -474h9l99 399h-96l18 75h271l-19 -75h-93l-149 -596h-97z" />
    <glyph glyph-name="nacute" unicode="&#x144;" horiz-adv-x="602" 
d="M469 608l-93 -74h-59l83 134c28 44 47 72 80 72c31 0 51 -27 51 -51c0 -29 -17 -44 -62 -81zM456 93c0 -15 6 -22 17 -22c21 0 42 32 69 101l47 -15c-40 -121 -96 -167 -153 -167c-54 0 -89 35 -89 93c0 100 66 199 66 267c0 23 -10 33 -27 33c-46 0 -132 -76 -212 -383
h-120l86 324c15 57 12 73 -6 73c-23 0 -49 -43 -78 -105l-47 20c43 100 93 158 160 158c43 0 73 -31 73 -93c0 -29 -6 -65 -21 -111l7 -3c66 141 140 208 211 208c56 0 91 -44 91 -104c0 -85 -74 -213 -74 -274z" />
    <glyph glyph-name="Ncaron" unicode="&#x147;" horiz-adv-x="774" 
d="M688 932l-164 -189h-58l-69 189h62l54 -90l107 90h68zM501 -13l-210 533h-9l-111 -445h97l-18 -75h-270l18 75h93l126 508h-94l18 75h229l188 -474h9l99 399h-96l18 75h271l-19 -75h-93l-149 -596h-97z" />
    <glyph glyph-name="ncaron" unicode="&#x148;" horiz-adv-x="602" 
d="M550 730l-164 -189h-58l-69 189h62l54 -90l107 90h68zM456 93c0 -15 6 -22 17 -22c21 0 42 32 69 101l47 -15c-40 -121 -96 -167 -153 -167c-54 0 -89 35 -89 93c0 100 66 199 66 267c0 23 -10 33 -27 33c-46 0 -132 -76 -212 -383h-120l86 324c15 57 12 73 -6 73
c-23 0 -49 -43 -78 -105l-47 20c43 100 93 158 160 158c43 0 73 -31 73 -93c0 -29 -6 -65 -21 -111l7 -3c66 141 140 208 211 208c56 0 91 -44 91 -104c0 -85 -74 -213 -74 -274z" />
    <glyph glyph-name="Ncommaaccent" unicode="&#x145;" horiz-adv-x="774" 
d="M209 -337l-15 41c66 24 106 53 121 92l-5 4c-6 -3 -14 -5 -22 -5c-29 0 -53 20 -53 55c0 38 29 79 75 79c49 0 76 -38 76 -86c0 -75 -59 -145 -177 -180zM501 -13l-210 533h-9l-111 -445h97l-18 -75h-270l18 75h93l126 508h-94l18 75h229l188 -474h9l99 399h-96l18 75
h271l-19 -75h-93l-149 -596h-97z" />
    <glyph glyph-name="ncommaaccent" unicode="&#x146;" horiz-adv-x="602" 
d="M141 -334l-15 41c66 24 106 53 121 92l-5 4c-6 -3 -14 -5 -22 -5c-29 0 -53 20 -53 55c0 38 29 79 75 79c49 0 76 -38 76 -86c0 -75 -59 -145 -177 -180zM456 93c0 -15 6 -22 17 -22c21 0 42 32 69 101l47 -15c-40 -121 -96 -167 -153 -167c-54 0 -89 35 -89 93
c0 100 66 199 66 267c0 23 -10 33 -27 33c-46 0 -132 -76 -212 -383h-120l86 324c15 57 12 73 -6 73c-23 0 -49 -43 -78 -105l-47 20c43 100 93 158 160 158c43 0 73 -31 73 -93c0 -29 -6 -65 -21 -111l7 -3c66 141 140 208 211 208c56 0 91 -44 91 -104
c0 -85 -74 -213 -74 -274z" />
    <glyph glyph-name="Ntilde" unicode="&#xd1;" horiz-adv-x="774" 
d="M501 -13l-210 533h-9l-111 -445h97l-18 -75h-270l18 75h93l126 508h-94l18 75h229l188 -474h9l99 399h-96l18 75h271l-19 -75h-93l-149 -596h-97zM455 795c-20 0 -34 -15 -55 -58h-57c30 89 65 143 128 143c66 0 97 -54 130 -54c20 0 34 15 55 58h57
c-30 -88 -65 -143 -128 -143c-66 0 -97 54 -130 54z" />
    <glyph glyph-name="ntilde" unicode="&#xf1;" horiz-adv-x="602" 
d="M456 93c0 -15 6 -22 17 -22c21 0 42 32 69 101l47 -15c-40 -121 -96 -167 -153 -167c-54 0 -89 35 -89 93c0 100 66 199 66 267c0 23 -10 33 -27 33c-46 0 -132 -76 -212 -383h-120l86 324c15 57 12 73 -6 73c-23 0 -49 -43 -78 -105l-47 20c43 100 93 158 160 158
c43 0 73 -31 73 -93c0 -29 -6 -65 -21 -111l7 -3c66 141 140 208 211 208c56 0 91 -44 91 -104c0 -85 -74 -213 -74 -274zM317 593c-20 0 -34 -15 -55 -58h-57c30 89 65 143 128 143c66 0 97 -54 130 -54c20 0 34 15 55 58h57c-30 -88 -65 -143 -128 -143
c-66 0 -97 54 -130 54z" />
    <glyph glyph-name="Oacute" unicode="&#xd3;" horiz-adv-x="720" 
d="M578 810l-93 -74h-59l83 134c28 44 47 72 80 72c31 0 51 -27 51 -51c0 -29 -17 -44 -62 -81zM62 273c0 193 145 401 368 401c164 0 279 -117 279 -289c0 -193 -145 -401 -367 -401c-164 0 -280 117 -280 289zM425 601c-164 0 -229 -243 -229 -372
c0 -116 57 -172 151 -172c163 0 229 243 229 372c0 116 -58 172 -151 172z" />
    <glyph glyph-name="oacute" unicode="&#xf3;" horiz-adv-x="510" 
d="M419 608l-93 -74h-59l83 134c28 44 47 72 80 72c31 0 51 -27 51 -51c0 -29 -17 -44 -62 -81zM292 471c115 0 190 -80 190 -193c0 -156 -125 -288 -264 -288c-115 0 -190 81 -190 194c0 156 125 287 264 287zM363 325c0 64 -27 91 -70 91c-93 0 -146 -182 -146 -279
c0 -64 27 -91 70 -91c93 0 146 182 146 279z" />
    <glyph glyph-name="Obreve" unicode="&#x14e;" horiz-adv-x="720" 
d="M62 273c0 193 145 401 368 401c164 0 279 -117 279 -289c0 -193 -145 -401 -367 -401c-164 0 -280 117 -280 289zM425 601c-164 0 -229 -243 -229 -372c0 -116 57 -172 151 -172c163 0 229 243 229 372c0 116 -58 172 -151 172zM482 739c-88 0 -139 59 -115 168h51
c0 -56 24 -86 77 -86c47 0 83 32 109 86h54c-26 -108 -93 -168 -176 -168z" />
    <glyph glyph-name="obreve" unicode="&#x14f;" horiz-adv-x="510" 
d="M292 471c115 0 190 -80 190 -193c0 -156 -125 -288 -264 -288c-115 0 -190 81 -190 194c0 156 125 287 264 287zM363 325c0 64 -27 91 -70 91c-93 0 -146 -182 -146 -279c0 -64 27 -91 70 -91c93 0 146 182 146 279zM322 537c-88 0 -139 59 -115 168h51
c0 -56 24 -86 77 -86c47 0 83 32 109 86h54c-26 -108 -93 -168 -176 -168z" />
    <glyph glyph-name="Ocircumflex" unicode="&#xd4;" horiz-adv-x="720" 
d="M329 737l163 189h58l69 -189h-61l-54 90l-108 -90h-67zM62 273c0 193 145 401 368 401c164 0 279 -117 279 -289c0 -193 -145 -401 -367 -401c-164 0 -280 117 -280 289zM425 601c-164 0 -229 -243 -229 -372c0 -116 57 -172 151 -172c163 0 229 243 229 372
c0 116 -58 172 -151 172z" />
    <glyph glyph-name="ocircumflex" unicode="&#xf4;" horiz-adv-x="510" 
d="M168 535l163 189h58l69 -189h-61l-54 90l-108 -90h-67zM292 471c115 0 190 -80 190 -193c0 -156 -125 -288 -264 -288c-115 0 -190 81 -190 194c0 156 125 287 264 287zM363 325c0 64 -27 91 -70 91c-93 0 -146 -182 -146 -279c0 -64 27 -91 70 -91c93 0 146 182 146 279
z" />
    <glyph glyph-name="Odieresis" unicode="&#xd6;" horiz-adv-x="720" 
d="M474 830c0 -36 -30 -80 -77 -80c-31 0 -55 22 -55 58c0 38 28 81 74 81c34 0 58 -22 58 -59zM662 830c0 -36 -30 -80 -77 -80c-31 0 -55 22 -55 58c0 38 28 81 74 81c34 0 58 -22 58 -59zM62 273c0 193 145 401 368 401c164 0 279 -117 279 -289
c0 -193 -145 -401 -367 -401c-164 0 -280 117 -280 289zM425 601c-164 0 -229 -243 -229 -372c0 -116 57 -172 151 -172c163 0 229 243 229 372c0 116 -58 172 -151 172z" />
    <glyph glyph-name="odieresis" unicode="&#xf6;" horiz-adv-x="510" 
d="M314 628c0 -36 -30 -80 -77 -80c-31 0 -55 22 -55 58c0 38 28 81 74 81c34 0 58 -22 58 -59zM502 628c0 -36 -30 -80 -77 -80c-31 0 -55 22 -55 58c0 38 28 81 74 81c34 0 58 -22 58 -59zM292 471c115 0 190 -80 190 -193c0 -156 -125 -288 -264 -288
c-115 0 -190 81 -190 194c0 156 125 287 264 287zM363 325c0 64 -27 91 -70 91c-93 0 -146 -182 -146 -279c0 -64 27 -91 70 -91c93 0 146 182 146 279z" />
    <glyph glyph-name="OE" unicode="&#x152;" horiz-adv-x="1004" 
d="M505 658h545l-56 -223h-60c-3 122 -11 149 -94 149h-165l-53 -214h46c67 0 80 10 117 97h65l-66 -264h-62c8 87 0 99 -63 99h-54l-57 -228h167c92 0 109 33 175 171h66l-61 -245h-528c-208 0 -318 109 -318 257c0 96 39 203 116 279c76 76 188 122 340 122zM549 584h-56
c-91 0 -152 -19 -204 -71c-59 -59 -102 -182 -102 -278c0 -106 60 -161 181 -161h54z" />
    <glyph glyph-name="oe" unicode="&#x153;" horiz-adv-x="784" 
d="M693 148l43 -30c-51 -73 -114 -128 -212 -128c-63 0 -117 26 -144 81c-45 -54 -103 -81 -165 -81c-111 0 -187 81 -187 194c0 156 125 287 264 287c69 0 123 -28 153 -89c48 55 116 89 188 89c85 0 133 -43 133 -104c0 -90 -95 -167 -305 -179c-1 -8 -1 -16 -1 -23
c0 -83 44 -109 94 -109c49 0 98 33 139 92zM363 325c0 64 -27 91 -70 91c-93 0 -146 -182 -146 -279c0 -64 27 -91 70 -91c93 0 146 182 146 279zM614 416c-69 0 -123 -95 -144 -181c139 15 190 69 190 131c0 28 -16 50 -46 50z" />
    <glyph glyph-name="Ograve" unicode="&#xd2;" horiz-adv-x="720" 
d="M62 273c0 193 145 401 368 401c164 0 279 -117 279 -289c0 -193 -145 -401 -367 -401c-164 0 -280 117 -280 289zM425 601c-164 0 -229 -243 -229 -372c0 -116 57 -172 151 -172c163 0 229 243 229 372c0 116 -58 172 -151 172zM483 846l20 -110h-53l-49 75
c-26 39 -34 58 -34 80c0 25 21 50 50 50c46 0 55 -39 66 -95z" />
    <glyph glyph-name="ograve" unicode="&#xf2;" horiz-adv-x="510" 
d="M292 471c115 0 190 -80 190 -193c0 -156 -125 -288 -264 -288c-115 0 -190 81 -190 194c0 156 125 287 264 287zM363 325c0 64 -27 91 -70 91c-93 0 -146 -182 -146 -279c0 -64 27 -91 70 -91c93 0 146 182 146 279zM324 644l20 -110h-53l-49 75c-26 39 -34 58 -34 80
c0 25 21 50 50 50c46 0 55 -39 66 -95z" />
    <glyph glyph-name="Ohungarumlaut" unicode="&#x150;" horiz-adv-x="720" 
d="M496 810l-87 -74h-58l76 134c25 45 43 72 75 72c31 0 52 -27 52 -51c0 -30 -14 -44 -58 -81zM666 810l-91 -74h-58l82 134c26 45 47 72 79 72c31 0 49 -26 49 -50c0 -29 -16 -45 -61 -82zM62 273c0 193 145 401 368 401c164 0 279 -117 279 -289
c0 -193 -145 -401 -367 -401c-164 0 -280 117 -280 289zM425 601c-164 0 -229 -243 -229 -372c0 -116 57 -172 151 -172c163 0 229 243 229 372c0 116 -58 172 -151 172z" />
    <glyph glyph-name="ohungarumlaut" unicode="&#x151;" horiz-adv-x="510" 
d="M337 608l-87 -74h-58l76 134c25 45 43 72 75 72c31 0 52 -27 52 -51c0 -30 -14 -44 -58 -81zM507 608l-91 -74h-58l82 134c26 45 47 72 79 72c31 0 49 -26 49 -50c0 -29 -16 -45 -61 -82zM292 471c115 0 190 -80 190 -193c0 -156 -125 -288 -264 -288
c-115 0 -190 81 -190 194c0 156 125 287 264 287zM363 325c0 64 -27 91 -70 91c-93 0 -146 -182 -146 -279c0 -64 27 -91 70 -91c93 0 146 182 146 279z" />
    <glyph glyph-name="Omacron" unicode="&#x14c;" horiz-adv-x="720" 
d="M348 748l21 84h272l-22 -84h-271zM62 273c0 193 145 401 368 401c164 0 279 -117 279 -289c0 -193 -145 -401 -367 -401c-164 0 -280 117 -280 289zM425 601c-164 0 -229 -243 -229 -372c0 -116 57 -172 151 -172c163 0 229 243 229 372c0 116 -58 172 -151 172z" />
    <glyph glyph-name="omacron" unicode="&#x14d;" horiz-adv-x="510" 
d="M188 546l21 84h272l-22 -84h-271zM292 471c115 0 190 -80 190 -193c0 -156 -125 -288 -264 -288c-115 0 -190 81 -190 194c0 156 125 287 264 287zM363 325c0 64 -27 91 -70 91c-93 0 -146 -182 -146 -279c0 -64 27 -91 70 -91c93 0 146 182 146 279z" />
    <glyph glyph-name="Oslash" unicode="&#xd8;" horiz-adv-x="720" 
d="M62 273c0 193 145 401 368 401c72 0 134 -23 182 -63l95 103l51 -45l-102 -106c34 -47 53 -108 53 -178c0 -193 -145 -401 -367 -401c-72 0 -135 22 -183 62l-94 -102l-51 45l101 106c-34 47 -53 108 -53 178zM425 601c-164 0 -229 -243 -229 -372c0 -20 1 -38 4 -54
l347 369c-26 38 -69 57 -122 57zM576 429c0 19 -2 37 -5 54l-346 -369c25 -38 67 -57 122 -57c163 0 229 243 229 372z" />
    <glyph glyph-name="oslash" unicode="&#xf8;" horiz-adv-x="510" 
d="M38 -47l-40 38l66 72c-23 33 -36 74 -36 121c0 156 125 287 264 287c44 0 83 -12 113 -34l67 72l40 -38l-67 -73c24 -32 37 -73 37 -120c0 -156 -125 -288 -264 -288c-45 0 -84 12 -114 33zM218 46c92 0 144 170 147 274l-212 -240c11 -25 33 -34 65 -34zM292 416
c-92 0 -145 -170 -148 -273l212 239c-11 25 -33 34 -64 34z" />
    <glyph glyph-name="Oslashacute" unicode="&#x1fe;" horiz-adv-x="720" 
d="M62 273c0 193 145 401 368 401c72 0 134 -23 182 -63l95 103l51 -45l-102 -106c34 -47 53 -108 53 -178c0 -193 -145 -401 -367 -401c-72 0 -135 22 -183 62l-94 -102l-51 45l101 106c-34 47 -53 108 -53 178zM425 601c-164 0 -229 -243 -229 -372c0 -20 1 -38 4 -54
l347 369c-26 38 -69 57 -122 57zM576 429c0 19 -2 37 -5 54l-346 -369c25 -38 67 -57 122 -57c163 0 229 243 229 372zM573 810l-93 -74h-59l83 134c28 44 47 72 80 72c31 0 51 -27 51 -51c0 -29 -17 -44 -62 -81z" />
    <glyph glyph-name="oslashacute" unicode="&#x1ff;" horiz-adv-x="515" 
d="M40 -47l-40 38l66 72c-23 33 -36 74 -36 121c0 156 125 287 264 287c44 0 83 -12 113 -34l67 72l40 -38l-67 -73c24 -32 37 -73 37 -120c0 -156 -125 -288 -264 -288c-45 0 -84 12 -114 33zM220 46c92 0 144 170 147 274l-212 -240c11 -25 33 -34 65 -34zM294 416
c-92 0 -145 -170 -148 -273l212 239c-11 25 -33 34 -64 34zM419 608l-93 -74h-59l83 134c28 44 47 72 80 72c31 0 51 -27 51 -51c0 -29 -17 -44 -62 -81z" />
    <glyph glyph-name="Otilde" unicode="&#xd5;" horiz-adv-x="720" 
d="M62 273c0 193 145 401 368 401c164 0 279 -117 279 -289c0 -193 -145 -401 -367 -401c-164 0 -280 117 -280 289zM425 601c-164 0 -229 -243 -229 -372c0 -116 57 -172 151 -172c163 0 229 243 229 372c0 116 -58 172 -151 172zM426 795c-20 0 -34 -15 -55 -58h-57
c30 89 65 143 128 143c66 0 97 -54 130 -54c20 0 34 15 55 58h57c-30 -88 -65 -143 -128 -143c-66 0 -97 54 -130 54z" />
    <glyph glyph-name="otilde" unicode="&#xf5;" horiz-adv-x="510" 
d="M292 471c115 0 190 -80 190 -193c0 -156 -125 -288 -264 -288c-115 0 -190 81 -190 194c0 156 125 287 264 287zM363 325c0 64 -27 91 -70 91c-93 0 -146 -182 -146 -279c0 -64 27 -91 70 -91c93 0 146 182 146 279zM267 593c-20 0 -34 -15 -55 -58h-57
c30 89 65 143 128 143c66 0 97 -54 130 -54c20 0 34 15 55 58h57c-30 -88 -65 -143 -128 -143c-66 0 -97 54 -130 54z" />
    <glyph glyph-name="Racute" unicode="&#x154;" horiz-adv-x="688" 
d="M559 810l-93 -74h-59l83 134c28 44 47 72 80 72c31 0 51 -27 51 -51c0 -29 -17 -44 -62 -81zM-26 0l17 75h101l126 508h-102l19 75h322c168 0 219 -75 219 -148c0 -92 -64 -172 -220 -186l-3 -8c88 -18 117 -55 117 -115c0 -32 -10 -71 -10 -99s13 -35 35 -35
c15 0 31 6 54 28l27 -39c-34 -42 -78 -68 -134 -68c-70 0 -114 31 -114 93c0 43 20 100 20 148c0 37 -21 59 -90 59h-87l-53 -213h100l-18 -75h-326zM289 358h82c57 0 99 13 126 40c25 24 40 67 40 108c-1 47 -28 78 -104 78h-88z" />
    <glyph glyph-name="racute" unicode="&#x155;" horiz-adv-x="470" 
d="M403 608l-93 -74h-59l83 134c28 44 47 72 80 72c31 0 51 -27 51 -51c0 -29 -17 -44 -62 -81zM54 0l86 324c15 57 12 73 -6 73c-23 0 -49 -43 -78 -105l-47 20c43 100 93 158 160 158c43 0 73 -31 73 -93c0 -29 -6 -64 -20 -108l8 -3c58 132 106 205 176 205
c42 0 73 -29 73 -76c0 -50 -32 -90 -72 -90c-35 0 -62 23 -60 65c-29 -12 -101 -97 -173 -370h-120z" />
    <glyph glyph-name="Rcaron" unicode="&#x158;" horiz-adv-x="688" 
d="M639 932l-164 -189h-58l-69 189h62l54 -90l107 90h68zM-26 0l17 75h101l126 508h-102l19 75h322c168 0 219 -75 219 -148c0 -92 -64 -172 -220 -186l-3 -8c88 -18 117 -55 117 -115c0 -32 -10 -71 -10 -99s13 -35 35 -35c15 0 31 6 54 28l27 -39
c-34 -42 -78 -68 -134 -68c-70 0 -114 31 -114 93c0 43 20 100 20 148c0 37 -21 59 -90 59h-87l-53 -213h100l-18 -75h-326zM289 358h82c57 0 99 13 126 40c25 24 40 67 40 108c-1 47 -28 78 -104 78h-88z" />
    <glyph glyph-name="rcaron" unicode="&#x159;" horiz-adv-x="470" 
d="M483 730l-164 -189h-58l-69 189h62l54 -90l107 90h68zM54 0l86 324c15 57 12 73 -6 73c-23 0 -49 -43 -78 -105l-47 20c43 100 93 158 160 158c43 0 73 -31 73 -93c0 -29 -6 -64 -20 -108l8 -3c58 132 106 205 176 205c42 0 73 -29 73 -76c0 -50 -32 -90 -72 -90
c-35 0 -62 23 -60 65c-29 -12 -101 -97 -173 -370h-120z" />
    <glyph glyph-name="Rcommaaccent" unicode="&#x156;" horiz-adv-x="688" 
d="M193 -337l-15 41c66 24 106 53 121 92l-5 4c-6 -3 -14 -5 -22 -5c-29 0 -53 20 -53 55c0 38 29 79 75 79c49 0 76 -38 76 -86c0 -75 -59 -145 -177 -180zM-26 0l17 75h101l126 508h-102l19 75h322c168 0 219 -75 219 -148c0 -92 -64 -172 -220 -186l-3 -8
c88 -18 117 -55 117 -115c0 -32 -10 -71 -10 -99s13 -35 35 -35c15 0 31 6 54 28l27 -39c-34 -42 -78 -68 -134 -68c-70 0 -114 31 -114 93c0 43 20 100 20 148c0 37 -21 59 -90 59h-87l-53 -213h100l-18 -75h-326zM289 358h82c57 0 99 13 126 40c25 24 40 67 40 108
c-1 47 -28 78 -104 78h-88z" />
    <glyph glyph-name="rcommaaccent" unicode="&#x157;" horiz-adv-x="470" 
d="M-9 -337l-15 41c66 24 106 53 121 92l-5 4c-6 -3 -14 -5 -22 -5c-29 0 -53 20 -53 55c0 38 29 79 75 79c49 0 76 -38 76 -86c0 -75 -59 -145 -177 -180zM54 0l86 324c15 57 12 73 -6 73c-23 0 -49 -43 -78 -105l-47 20c43 100 93 158 160 158c43 0 73 -31 73 -93
c0 -29 -6 -64 -20 -108l8 -3c58 132 106 205 176 205c42 0 73 -29 73 -76c0 -50 -32 -90 -72 -90c-35 0 -62 23 -60 65c-29 -12 -101 -97 -173 -370h-120z" />
    <glyph glyph-name="Sacute" unicode="&#x15a;" horiz-adv-x="587" 
d="M519 810l-93 -74h-59l83 134c28 44 47 72 80 72c31 0 51 -27 51 -51c0 -29 -17 -44 -62 -81zM-9 -13l60 247h71c19 -120 89 -179 177 -179c79 0 125 50 125 102c0 58 -66 85 -137 118c-83 37 -174 81 -174 187c0 112 101 212 234 212c71 0 137 -29 170 -76l41 73h75
l-59 -237h-70c-21 124 -71 170 -157 170c-65 0 -111 -47 -111 -99c0 -63 68 -90 140 -122c82 -35 170 -77 170 -182c0 -123 -109 -217 -246 -217c-87 0 -152 32 -190 80l-44 -77h-75z" />
    <glyph glyph-name="sacute" unicode="&#x15b;" horiz-adv-x="442" 
d="M400 608l-93 -74h-59l83 134c28 44 47 72 80 72c31 0 51 -27 51 -51c0 -29 -17 -44 -62 -81zM389 147c0 -104 -90 -157 -189 -157c-94 0 -191 40 -191 116c0 39 26 72 66 72c39 0 59 -28 59 -55c0 -24 -11 -44 -24 -55c17 -15 50 -26 86 -26c51 0 83 25 83 71
c0 38 -41 57 -92 80c-59 27 -117 56 -117 124c0 105 101 154 188 154c102 0 172 -45 172 -105c0 -39 -26 -72 -64 -72c-37 0 -59 26 -59 55c0 20 10 41 24 53c-10 9 -39 19 -69 19c-48 0 -83 -25 -83 -67c0 -40 42 -59 100 -86c53 -24 110 -52 110 -121z" />
    <glyph glyph-name="Scaron" unicode="&#x160;" horiz-adv-x="587" 
d="M600 932l-164 -189h-58l-69 189h62l54 -90l107 90h68zM-9 -13l60 247h71c19 -120 89 -179 177 -179c79 0 125 50 125 102c0 58 -66 85 -137 118c-83 37 -174 81 -174 187c0 112 101 212 234 212c71 0 137 -29 170 -76l41 73h75l-59 -237h-70c-21 124 -71 170 -157 170
c-65 0 -111 -47 -111 -99c0 -63 68 -90 140 -122c82 -35 170 -77 170 -182c0 -123 -109 -217 -246 -217c-87 0 -152 32 -190 80l-44 -77h-75z" />
    <glyph glyph-name="scaron" unicode="&#x161;" horiz-adv-x="442" 
d="M480 730l-164 -189h-58l-69 189h62l54 -90l107 90h68zM389 147c0 -104 -90 -157 -189 -157c-94 0 -191 40 -191 116c0 39 26 72 66 72c39 0 59 -28 59 -55c0 -24 -11 -44 -24 -55c17 -15 50 -26 86 -26c51 0 83 25 83 71c0 38 -41 57 -92 80c-59 27 -117 56 -117 124
c0 105 101 154 188 154c102 0 172 -45 172 -105c0 -39 -26 -72 -64 -72c-37 0 -59 26 -59 55c0 20 10 41 24 53c-10 9 -39 19 -69 19c-48 0 -83 -25 -83 -67c0 -40 42 -59 100 -86c53 -24 110 -52 110 -121z" />
    <glyph glyph-name="Scedilla" unicode="&#x15e;" horiz-adv-x="587" 
d="M130 -164c25 -17 50 -28 83 -28c27 0 46 14 46 36c0 30 -39 42 -88 38l-13 31l91 75c-62 10 -109 38 -139 76l-44 -77h-75l60 247h71c19 -120 89 -179 177 -179c79 0 125 50 125 102c0 58 -66 85 -137 118c-83 37 -174 81 -174 187c0 112 101 212 234 212
c71 0 137 -29 170 -76l41 73h75l-59 -237h-70c-21 124 -71 170 -157 170c-65 0 -111 -47 -111 -99c0 -63 68 -90 140 -122c82 -35 170 -77 170 -182c0 -119 -102 -210 -232 -217l-55 -47v-4c50 -9 85 -37 85 -81c0 -51 -41 -98 -124 -98c-40 0 -88 15 -121 42z" />
    <glyph glyph-name="scedilla" unicode="&#x15f;" horiz-adv-x="442" 
d="M41 -164c25 -17 50 -28 83 -28c27 0 46 14 46 36c0 30 -39 42 -88 38l-13 31l96 79c-81 8 -156 47 -156 114c0 39 26 72 66 72c39 0 59 -28 59 -55c0 -24 -11 -44 -24 -55c17 -15 50 -26 86 -26c51 0 83 25 83 71c0 38 -41 57 -92 80c-59 27 -117 56 -117 124
c0 105 101 154 188 154c102 0 172 -45 172 -105c0 -39 -26 -72 -64 -72c-37 0 -59 26 -59 55c0 20 10 41 24 53c-10 9 -39 19 -69 19c-48 0 -83 -25 -83 -67c0 -40 42 -59 100 -86c53 -24 110 -52 110 -121c0 -92 -70 -144 -154 -154l-65 -56v-4c50 -9 85 -37 85 -81
c0 -51 -41 -98 -124 -98c-40 0 -88 15 -121 42z" />
    <glyph glyph-name="Scommaaccent" unicode="&#x218;" horiz-adv-x="587" 
d="M116 -337l-15 41c66 24 106 53 121 92l-5 4c-6 -3 -14 -5 -22 -5c-29 0 -53 20 -53 55c0 38 29 79 75 79c49 0 76 -38 76 -86c0 -75 -59 -145 -177 -180zM-9 -13l60 247h71c19 -120 89 -179 177 -179c79 0 125 50 125 102c0 58 -66 85 -137 118c-83 37 -174 81 -174 187
c0 112 101 212 234 212c71 0 137 -29 170 -76l41 73h75l-59 -237h-70c-21 124 -71 170 -157 170c-65 0 -111 -47 -111 -99c0 -63 68 -90 140 -122c82 -35 170 -77 170 -182c0 -123 -109 -217 -246 -217c-87 0 -152 32 -190 80l-44 -77h-75z" />
    <glyph glyph-name="scommaaccent" unicode="&#x219;" horiz-adv-x="442" 
d="M39 -337l-15 41c66 24 106 53 121 92l-5 4c-6 -3 -14 -5 -22 -5c-29 0 -53 20 -53 55c0 38 29 79 75 79c49 0 76 -38 76 -86c0 -75 -59 -145 -177 -180zM389 147c0 -104 -90 -157 -189 -157c-94 0 -191 40 -191 116c0 39 26 72 66 72c39 0 59 -28 59 -55
c0 -24 -11 -44 -24 -55c17 -15 50 -26 86 -26c51 0 83 25 83 71c0 38 -41 57 -92 80c-59 27 -117 56 -117 124c0 105 101 154 188 154c102 0 172 -45 172 -105c0 -39 -26 -72 -64 -72c-37 0 -59 26 -59 55c0 20 10 41 24 53c-10 9 -39 19 -69 19c-48 0 -83 -25 -83 -67
c0 -40 42 -59 100 -86c53 -24 110 -52 110 -121z" />
    <glyph glyph-name="Tcaron" unicode="&#x164;" horiz-adv-x="676" 
d="M640 932l-164 -189h-58l-69 189h62l54 -90l107 90h68zM106 0l18 75h108l129 519h-35c-80 0 -101 -26 -186 -183h-62l63 247h600l-62 -247h-57c-5 153 -15 183 -97 183h-35l-129 -519h110l-18 -75h-347z" />
    <glyph glyph-name="tcaron" unicode="&#x165;" horiz-adv-x="388" 
d="M454 635l-63 -104h-47l34 160c11 56 30 79 64 79c28 0 50 -22 50 -49c0 -26 -13 -45 -38 -86zM389 389h-142l-60 -219c-7 -25 -12 -48 -12 -60c0 -27 14 -36 35 -36c36 0 66 44 94 108l48 -16c-49 -142 -126 -176 -180 -176c-66 0 -113 33 -113 101c0 29 11 71 18 99
l54 199h-88l16 61h88l33 120l119 13l-36 -133h142z" />
    <glyph glyph-name="Tcommaaccent" unicode="&#x162;" horiz-adv-x="676" 
d="M148 -337l-15 41c66 24 106 53 121 92l-5 4c-6 -3 -14 -5 -22 -5c-29 0 -53 20 -53 55c0 38 29 79 75 79c49 0 76 -38 76 -86c0 -75 -59 -145 -177 -180zM106 0l18 75h108l129 519h-35c-80 0 -101 -26 -186 -183h-62l63 247h600l-62 -247h-57c-5 153 -15 183 -97 183h-35
l-129 -519h110l-18 -75h-347z" />
    <glyph glyph-name="tcommaaccent" unicode="&#x163;" horiz-adv-x="388" 
d="M36 -337l-15 41c66 24 106 53 121 92l-5 4c-6 -3 -14 -5 -22 -5c-29 0 -53 20 -53 55c0 38 29 79 75 79c49 0 76 -38 76 -86c0 -75 -59 -145 -177 -180zM389 389h-142l-60 -219c-7 -25 -12 -48 -12 -60c0 -27 14 -36 35 -36c36 0 66 44 94 108l48 -16
c-49 -142 -126 -176 -180 -176c-66 0 -113 33 -113 101c0 29 11 71 18 99l54 199h-88l16 61h88l33 120l119 13l-36 -133h142z" />
    <glyph glyph-name="Thorn" unicode="&#xde;" horiz-adv-x="630" 
d="M-26 0l18 75h100l126 508h-101l19 75h324l-18 -75h-97l-15 -59h54c181 0 251 -66 251 -165c0 -83 -63 -207 -309 -207h-89l-19 -77h99l-18 -75h-325zM362 452h-50l-57 -228h73c125 0 165 70 165 135c0 63 -34 93 -131 93z" />
    <glyph glyph-name="thorn" unicode="&#xfe;" horiz-adv-x="522" 
d="M318 393c-80 0 -149 -154 -149 -249c0 -49 21 -83 65 -83c89 0 139 169 139 248c0 56 -18 84 -55 84zM305 689l-90 -309l8 -3c36 60 87 94 138 94c84 0 133 -68 133 -162c0 -160 -112 -309 -235 -309c-53 0 -94 26 -113 65l-37 -148h93l-20 -74h-277l20 74h69l176 694
h-83l20 78h198z" />
    <glyph glyph-name="Uacute" unicode="&#xda;" horiz-adv-x="735" 
d="M606 810l-93 -74h-59l83 134c28 44 47 72 80 72c31 0 51 -27 51 -51c0 -29 -17 -44 -62 -81zM351 -17c-163 0 -247 81 -247 184c0 27 5 61 12 89l82 327h-92l19 75h309l-19 -75h-91l-83 -333c-6 -26 -9 -49 -9 -71c0 -76 59 -113 140 -113c45 0 86 14 115 43
c26 26 45 65 58 115l89 359h-94l19 75h263l-18 -75h-88l-96 -385c-13 -53 -33 -103 -75 -145c-41 -41 -103 -70 -194 -70z" />
    <glyph glyph-name="uacute" unicode="&#xfa;" horiz-adv-x="600" 
d="M444 608l-93 -74h-59l83 134c28 44 47 72 80 72c31 0 51 -27 51 -51c0 -29 -17 -44 -62 -81zM445 -10c-52 0 -85 29 -85 94c0 25 6 63 22 114l-7 3c-66 -145 -136 -211 -208 -211c-55 0 -91 43 -91 105c0 84 71 217 71 274c0 14 -6 21 -15 21c-21 0 -38 -22 -74 -97
l-47 20c41 99 94 158 163 158c53 0 84 -33 84 -91c0 -93 -66 -199 -66 -263c0 -28 11 -39 28 -39c45 0 128 74 210 386h120l-82 -310c-8 -27 -11 -44 -11 -57c0 -17 9 -26 23 -26c23 0 44 34 67 101l48 -15c-39 -122 -93 -167 -150 -167z" />
    <glyph glyph-name="Ubreve" unicode="&#x16c;" horiz-adv-x="735" 
d="M351 -17c-163 0 -247 81 -247 184c0 27 5 61 12 89l82 327h-92l19 75h309l-19 -75h-91l-83 -333c-6 -26 -9 -49 -9 -71c0 -76 59 -113 140 -113c45 0 86 14 115 43c26 26 45 65 58 115l89 359h-94l19 75h263l-18 -75h-88l-96 -385c-13 -53 -33 -103 -75 -145
c-41 -41 -103 -70 -194 -70zM509 739c-88 0 -139 59 -115 168h51c0 -56 24 -86 77 -86c47 0 83 32 109 86h54c-26 -108 -93 -168 -176 -168z" />
    <glyph glyph-name="ubreve" unicode="&#x16d;" horiz-adv-x="600" 
d="M445 -10c-52 0 -85 29 -85 94c0 25 6 63 22 114l-7 3c-66 -145 -136 -211 -208 -211c-55 0 -91 43 -91 105c0 84 71 217 71 274c0 14 -6 21 -15 21c-21 0 -38 -22 -74 -97l-47 20c41 99 94 158 163 158c53 0 84 -33 84 -91c0 -93 -66 -199 -66 -263c0 -28 11 -39 28 -39
c45 0 128 74 210 386h120l-82 -310c-8 -27 -11 -44 -11 -57c0 -17 9 -26 23 -26c23 0 44 34 67 101l48 -15c-39 -122 -93 -167 -150 -167zM346 534c-88 0 -139 59 -115 168h51c0 -56 24 -86 77 -86c47 0 83 32 109 86h54c-26 -108 -93 -168 -176 -168z" />
    <glyph glyph-name="Ucircumflex" unicode="&#xdb;" horiz-adv-x="735" 
d="M356 737l163 189h58l69 -189h-61l-54 90l-108 -90h-67zM351 -17c-163 0 -247 81 -247 184c0 27 5 61 12 89l82 327h-92l19 75h309l-19 -75h-91l-83 -333c-6 -26 -9 -49 -9 -71c0 -76 59 -113 140 -113c45 0 86 14 115 43c26 26 45 65 58 115l89 359h-94l19 75h263
l-18 -75h-88l-96 -385c-13 -53 -33 -103 -75 -145c-41 -41 -103 -70 -194 -70z" />
    <glyph glyph-name="ucircumflex" unicode="&#xfb;" horiz-adv-x="600" 
d="M194 535l163 189h58l69 -189h-61l-54 90l-108 -90h-67zM445 -10c-52 0 -85 29 -85 94c0 25 6 63 22 114l-7 3c-66 -145 -136 -211 -208 -211c-55 0 -91 43 -91 105c0 84 71 217 71 274c0 14 -6 21 -15 21c-21 0 -38 -22 -74 -97l-47 20c41 99 94 158 163 158
c53 0 84 -33 84 -91c0 -93 -66 -199 -66 -263c0 -28 11 -39 28 -39c45 0 128 74 210 386h120l-82 -310c-8 -27 -11 -44 -11 -57c0 -17 9 -26 23 -26c23 0 44 34 67 101l48 -15c-39 -122 -93 -167 -150 -167z" />
    <glyph glyph-name="Udieresis" unicode="&#xdc;" horiz-adv-x="735" 
d="M501 830c0 -36 -30 -80 -77 -80c-31 0 -55 22 -55 58c0 38 28 81 74 81c34 0 58 -22 58 -59zM689 830c0 -36 -30 -80 -77 -80c-31 0 -55 22 -55 58c0 38 28 81 74 81c34 0 58 -22 58 -59zM351 -17c-163 0 -247 81 -247 184c0 27 5 61 12 89l82 327h-92l19 75h309l-19 -75
h-91l-83 -333c-6 -26 -9 -49 -9 -71c0 -76 59 -113 140 -113c45 0 86 14 115 43c26 26 45 65 58 115l89 359h-94l19 75h263l-18 -75h-88l-96 -385c-13 -53 -33 -103 -75 -145c-41 -41 -103 -70 -194 -70z" />
    <glyph glyph-name="udieresis" unicode="&#xfc;" horiz-adv-x="600" 
d="M339 628c0 -36 -30 -80 -77 -80c-31 0 -55 22 -55 58c0 38 28 81 74 81c34 0 58 -22 58 -59zM527 628c0 -36 -30 -80 -77 -80c-31 0 -55 22 -55 58c0 38 28 81 74 81c34 0 58 -22 58 -59zM445 -10c-52 0 -85 29 -85 94c0 25 6 63 22 114l-7 3
c-66 -145 -136 -211 -208 -211c-55 0 -91 43 -91 105c0 84 71 217 71 274c0 14 -6 21 -15 21c-21 0 -38 -22 -74 -97l-47 20c41 99 94 158 163 158c53 0 84 -33 84 -91c0 -93 -66 -199 -66 -263c0 -28 11 -39 28 -39c45 0 128 74 210 386h120l-82 -310
c-8 -27 -11 -44 -11 -57c0 -17 9 -26 23 -26c23 0 44 34 67 101l48 -15c-39 -122 -93 -167 -150 -167z" />
    <glyph glyph-name="Ugrave" unicode="&#xd9;" horiz-adv-x="735" 
d="M351 -17c-163 0 -247 81 -247 184c0 27 5 61 12 89l82 327h-92l19 75h309l-19 -75h-91l-83 -333c-6 -26 -9 -49 -9 -71c0 -76 59 -113 140 -113c45 0 86 14 115 43c26 26 45 65 58 115l89 359h-94l19 75h263l-18 -75h-88l-96 -385c-13 -53 -33 -103 -75 -145
c-41 -41 -103 -70 -194 -70zM511 846l20 -110h-53l-49 75c-26 39 -34 58 -34 80c0 25 21 50 50 50c46 0 55 -39 66 -95z" />
    <glyph glyph-name="ugrave" unicode="&#xf9;" horiz-adv-x="600" 
d="M445 -10c-52 0 -85 29 -85 94c0 25 6 63 22 114l-7 3c-66 -145 -136 -211 -208 -211c-55 0 -91 43 -91 105c0 84 71 217 71 274c0 14 -6 21 -15 21c-21 0 -38 -22 -74 -97l-47 20c41 99 94 158 163 158c53 0 84 -33 84 -91c0 -93 -66 -199 -66 -263c0 -28 11 -39 28 -39
c45 0 128 74 210 386h120l-82 -310c-8 -27 -11 -44 -11 -57c0 -17 9 -26 23 -26c23 0 44 34 67 101l48 -15c-39 -122 -93 -167 -150 -167zM349 644l20 -110h-53l-49 75c-26 39 -34 58 -34 80c0 25 21 50 50 50c46 0 55 -39 66 -95z" />
    <glyph glyph-name="Uhungarumlaut" unicode="&#x170;" horiz-adv-x="735" 
d="M351 -17c-163 0 -247 81 -247 184c0 27 5 61 12 89l82 327h-92l19 75h309l-19 -75h-91l-83 -333c-6 -26 -9 -49 -9 -71c0 -76 59 -113 140 -113c45 0 86 14 115 43c26 26 45 65 58 115l89 359h-94l19 75h263l-18 -75h-88l-96 -385c-13 -53 -33 -103 -75 -145
c-41 -41 -103 -70 -194 -70zM524 810l-87 -74h-58l76 134c25 45 43 72 75 72c31 0 52 -27 52 -51c0 -30 -14 -44 -58 -81zM694 810l-91 -74h-58l82 134c26 45 47 72 79 72c31 0 49 -26 49 -50c0 -29 -16 -45 -61 -82z" />
    <glyph glyph-name="uhungarumlaut" unicode="&#x171;" horiz-adv-x="600" 
d="M445 -10c-52 0 -85 29 -85 94c0 25 6 63 22 114l-7 3c-66 -145 -136 -211 -208 -211c-55 0 -91 43 -91 105c0 84 71 217 71 274c0 14 -6 21 -15 21c-21 0 -38 -22 -74 -97l-47 20c41 99 94 158 163 158c53 0 84 -33 84 -91c0 -93 -66 -199 -66 -263c0 -28 11 -39 28 -39
c45 0 128 74 210 386h120l-82 -310c-8 -27 -11 -44 -11 -57c0 -17 9 -26 23 -26c23 0 44 34 67 101l48 -15c-39 -122 -93 -167 -150 -167zM362 608l-87 -74h-58l76 134c25 45 43 72 75 72c31 0 52 -27 52 -51c0 -30 -14 -44 -58 -81zM532 608l-91 -74h-58l82 134
c26 45 47 72 79 72c31 0 49 -26 49 -50c0 -29 -16 -45 -61 -82z" />
    <glyph glyph-name="Umacron" unicode="&#x16a;" horiz-adv-x="735" 
d="M351 -17c-163 0 -247 81 -247 184c0 27 5 61 12 89l82 327h-92l19 75h309l-19 -75h-91l-83 -333c-6 -26 -9 -49 -9 -71c0 -76 59 -113 140 -113c45 0 86 14 115 43c26 26 45 65 58 115l89 359h-94l19 75h263l-18 -75h-88l-96 -385c-13 -53 -33 -103 -75 -145
c-41 -41 -103 -70 -194 -70zM375 748l21 84h272l-22 -84h-271z" />
    <glyph glyph-name="umacron" unicode="&#x16b;" horiz-adv-x="600" 
d="M445 -10c-52 0 -85 29 -85 94c0 25 6 63 22 114l-7 3c-66 -145 -136 -211 -208 -211c-55 0 -91 43 -91 105c0 84 71 217 71 274c0 14 -6 21 -15 21c-21 0 -38 -22 -74 -97l-47 20c41 99 94 158 163 158c53 0 84 -33 84 -91c0 -93 -66 -199 -66 -263c0 -28 11 -39 28 -39
c45 0 128 74 210 386h120l-82 -310c-8 -27 -11 -44 -11 -57c0 -17 9 -26 23 -26c23 0 44 34 67 101l48 -15c-39 -122 -93 -167 -150 -167zM213 546l21 84h272l-22 -84h-271z" />
    <glyph glyph-name="Uogonek" unicode="&#x172;" horiz-adv-x="735" 
d="M397 -209c-31 -21 -69 -37 -111 -37c-63 0 -112 31 -112 90c0 51 35 90 117 143c-124 17 -187 90 -187 180c0 27 5 61 12 89l82 327h-92l19 75h309l-19 -75h-91l-83 -333c-6 -26 -9 -49 -9 -71c0 -76 59 -113 140 -113c45 0 86 14 115 43c26 26 45 65 58 115l89 359h-94
l19 75h263l-18 -75h-88l-96 -385c-13 -53 -33 -103 -75 -145c-39 -39 -98 -67 -182 -70c-80 -64 -97 -94 -97 -124c0 -22 14 -44 51 -44c20 0 41 8 60 20z" />
    <glyph glyph-name="uogonek" unicode="&#x173;" horiz-adv-x="600" 
d="M547 172l48 -15c-24 -70 -44 -115 -105 -162c-92 -72 -111 -106 -111 -136c0 -22 14 -44 52 -44c19 0 40 8 60 20l20 -44c-32 -21 -69 -37 -111 -37c-64 0 -113 31 -113 90c0 53 38 93 128 150c-28 9 -55 30 -55 90c0 25 6 63 22 114l-7 3c-66 -145 -136 -211 -208 -211
c-55 0 -91 43 -91 105c0 84 71 217 71 274c0 14 -6 21 -15 21c-21 0 -38 -22 -74 -97l-47 20c41 99 94 158 163 158c53 0 84 -33 84 -91c0 -93 -66 -199 -66 -263c0 -28 11 -39 28 -39c45 0 128 74 210 386h120l-82 -310c-8 -27 -11 -44 -11 -57c0 -17 9 -26 23 -26
c22 0 44 34 67 101z" />
    <glyph glyph-name="Uring" unicode="&#x16e;" horiz-adv-x="735" 
d="M647 851c0 -65 -50 -121 -123 -121c-67 0 -104 45 -104 94c0 66 50 122 123 122c67 0 104 -44 104 -95zM480 823c0 -30 17 -51 47 -51c40 0 60 46 60 82c0 30 -17 50 -47 50c-40 0 -60 -46 -60 -81zM351 -17c-163 0 -247 81 -247 184c0 27 5 61 12 89l82 327h-92l19 75
h309l-19 -75h-91l-83 -333c-6 -26 -9 -49 -9 -71c0 -76 59 -113 140 -113c45 0 86 14 115 43c26 26 45 65 58 115l89 359h-94l19 75h263l-18 -75h-88l-96 -385c-13 -53 -33 -103 -75 -145c-41 -41 -103 -70 -194 -70z" />
    <glyph glyph-name="uring" unicode="&#x16f;" horiz-adv-x="600" 
d="M486 649c0 -65 -50 -121 -123 -121c-67 0 -104 45 -104 94c0 66 50 122 123 122c67 0 104 -44 104 -95zM319 621c0 -30 17 -51 47 -51c40 0 60 46 60 82c0 30 -17 50 -47 50c-40 0 -60 -46 -60 -81zM445 -10c-52 0 -85 29 -85 94c0 25 6 63 22 114l-7 3
c-66 -145 -136 -211 -208 -211c-55 0 -91 43 -91 105c0 84 71 217 71 274c0 14 -6 21 -15 21c-21 0 -38 -22 -74 -97l-47 20c41 99 94 158 163 158c53 0 84 -33 84 -91c0 -93 -66 -199 -66 -263c0 -28 11 -39 28 -39c45 0 128 74 210 386h120l-82 -310
c-8 -27 -11 -44 -11 -57c0 -17 9 -26 23 -26c23 0 44 34 67 101l48 -15c-39 -122 -93 -167 -150 -167z" />
    <glyph glyph-name="Wacute" unicode="&#x1e82;" horiz-adv-x="983" 
d="M724 810l-93 -74h-59l83 134c28 44 47 72 80 72c31 0 51 -27 51 -51c0 -29 -17 -44 -62 -81zM566 -4l-19 399l-231 -399h-115l-39 587h-88l18 75h301l-18 -74h-86l21 -458h5l225 387l-3 71h-87l18 74h301l-18 -74h-92l15 -458h5l242 458h-85l18 74h245l-19 -75h-68
l-329 -587h-117z" />
    <glyph glyph-name="wacute" unicode="&#x1e83;" horiz-adv-x="746" 
d="M181 471c55 0 83 -34 83 -88c0 -100 -82 -203 -82 -271c0 -24 13 -39 36 -39c51 0 123 92 191 391h108l-49 -205c-12 -50 -17 -89 -17 -119c0 -53 21 -67 50 -67c88 0 156 153 162 263c-6 -3 -17 -6 -27 -6c-34 0 -59 24 -59 63c0 42 32 81 73 81c48 0 80 -34 80 -102
c0 -140 -96 -384 -263 -384c-68 0 -114 41 -113 132c0 8 0 17 2 30l-7 2c-37 -97 -90 -164 -169 -164c-64 0 -112 41 -112 114c0 90 86 206 86 267c0 13 -5 21 -15 21c-25 0 -43 -29 -77 -98l-47 20c44 100 95 159 166 159zM555 608l-93 -74h-59l83 134c28 44 47 72 80 72
c31 0 51 -27 51 -51c0 -29 -17 -44 -62 -81z" />
    <glyph glyph-name="Wcircumflex" unicode="&#x174;" horiz-adv-x="983" 
d="M474 737l163 189h58l69 -189h-61l-54 90l-108 -90h-67zM566 -4l-19 399l-231 -399h-115l-39 587h-88l18 75h301l-18 -74h-86l21 -458h5l225 387l-3 71h-87l18 74h301l-18 -74h-92l15 -458h5l242 458h-85l18 74h245l-19 -75h-68l-329 -587h-117z" />
    <glyph glyph-name="wcircumflex" unicode="&#x175;" horiz-adv-x="746" 
d="M181 471c55 0 83 -34 83 -88c0 -100 -82 -203 -82 -271c0 -24 13 -39 36 -39c51 0 123 92 191 391h108l-49 -205c-12 -50 -17 -89 -17 -119c0 -53 21 -67 50 -67c88 0 156 153 162 263c-6 -3 -17 -6 -27 -6c-34 0 -59 24 -59 63c0 42 32 81 73 81c48 0 80 -34 80 -102
c0 -140 -96 -384 -263 -384c-68 0 -114 41 -113 132c0 8 0 17 2 30l-7 2c-37 -97 -90 -164 -169 -164c-64 0 -112 41 -112 114c0 90 86 206 86 267c0 13 -5 21 -15 21c-25 0 -43 -29 -77 -98l-47 20c44 100 95 159 166 159zM305 535l163 189h58l69 -189h-61l-54 90l-108 -90
h-67z" />
    <glyph glyph-name="Wdieresis" unicode="&#x1e84;" horiz-adv-x="983" 
d="M619 830c0 -36 -30 -80 -77 -80c-31 0 -55 22 -55 58c0 38 28 81 74 81c34 0 58 -22 58 -59zM807 830c0 -36 -30 -80 -77 -80c-31 0 -55 22 -55 58c0 38 28 81 74 81c34 0 58 -22 58 -59zM566 -4l-19 399l-231 -399h-115l-39 587h-88l18 75h301l-18 -74h-86l21 -458h5
l225 387l-3 71h-87l18 74h301l-18 -74h-92l15 -458h5l242 458h-85l18 74h245l-19 -75h-68l-329 -587h-117z" />
    <glyph glyph-name="wdieresis" unicode="&#x1e85;" horiz-adv-x="746" 
d="M181 471c55 0 83 -34 83 -88c0 -100 -82 -203 -82 -271c0 -24 13 -39 36 -39c51 0 123 92 191 391h108l-49 -205c-12 -50 -17 -89 -17 -119c0 -53 21 -67 50 -67c88 0 156 153 162 263c-6 -3 -17 -6 -27 -6c-34 0 -59 24 -59 63c0 42 32 81 73 81c48 0 80 -34 80 -102
c0 -140 -96 -384 -263 -384c-68 0 -114 41 -113 132c0 8 0 17 2 30l-7 2c-37 -97 -90 -164 -169 -164c-64 0 -112 41 -112 114c0 90 86 206 86 267c0 13 -5 21 -15 21c-25 0 -43 -29 -77 -98l-47 20c44 100 95 159 166 159zM638 628c0 -36 -30 -80 -77 -80
c-31 0 -55 22 -55 58c0 38 28 81 74 81c34 0 58 -22 58 -59zM450 628c0 -36 -30 -80 -77 -80c-31 0 -55 22 -55 58c0 38 28 81 74 81c34 0 58 -22 58 -59z" />
    <glyph glyph-name="Wgrave" unicode="&#x1e80;" horiz-adv-x="983" 
d="M566 -4l-19 399l-231 -399h-115l-39 587h-88l18 75h301l-18 -74h-86l21 -458h5l225 387l-3 71h-87l18 74h301l-18 -74h-92l15 -458h5l242 458h-85l18 74h245l-19 -75h-68l-329 -587h-117zM629 846l20 -110h-53l-49 75c-26 39 -34 58 -34 80c0 25 21 50 50 50
c46 0 55 -39 66 -95z" />
    <glyph glyph-name="wgrave" unicode="&#x1e81;" horiz-adv-x="746" 
d="M181 471c55 0 83 -34 83 -88c0 -100 -82 -203 -82 -271c0 -24 13 -39 36 -39c51 0 123 92 191 391h108l-49 -205c-12 -50 -17 -89 -17 -119c0 -53 21 -67 50 -67c88 0 156 153 162 263c-6 -3 -17 -6 -27 -6c-34 0 -59 24 -59 63c0 42 32 81 73 81c48 0 80 -34 80 -102
c0 -140 -96 -384 -263 -384c-68 0 -114 41 -113 132c0 8 0 17 2 30l-7 2c-37 -97 -90 -164 -169 -164c-64 0 -112 41 -112 114c0 90 86 206 86 267c0 13 -5 21 -15 21c-25 0 -43 -29 -77 -98l-47 20c44 100 95 159 166 159zM460 644l20 -110h-53l-49 75
c-26 39 -34 58 -34 80c0 25 21 50 50 50c46 0 55 -39 66 -95z" />
    <glyph glyph-name="Yacute" unicode="&#xdd;" horiz-adv-x="638" 
d="M381 343l195 241h-80l18 74h237l-19 -75h-70l-265 -314l-48 -194h97l-18 -75h-318l18 75h95l51 202l-101 306h-79l19 75h301l-19 -74h-86zM551 810l-93 -74h-59l83 134c28 44 47 72 80 72c31 0 51 -27 51 -51c0 -29 -17 -44 -62 -81z" />
    <glyph glyph-name="yacute" unicode="&#xfd;" horiz-adv-x="553" 
d="M176 471c51 0 82 -34 82 -87c0 -92 -58 -182 -58 -240c0 -25 11 -35 33 -35c53 0 124 60 200 355h112l-92 -386c-43 -184 -144 -248 -269 -248c-70 0 -154 19 -154 93c0 32 24 72 69 72c40 0 60 -28 58 -61c-1 -16 -10 -34 -20 -43c12 -4 27 -7 46 -7
c78 0 131 63 165 202l20 79l-6 3c-58 -106 -120 -145 -178 -145c-66 0 -99 46 -99 104c0 77 64 185 64 242c0 13 -6 21 -15 21c-25 0 -49 -41 -76 -98l-47 20c44 100 99 159 165 159zM448 608l-93 -74h-59l83 134c28 44 47 72 80 72c31 0 51 -27 51 -51
c0 -29 -17 -44 -62 -81z" />
    <glyph glyph-name="Ycircumflex" unicode="&#x176;" horiz-adv-x="638" 
d="M381 343l195 241h-80l18 74h237l-19 -75h-70l-265 -314l-48 -194h97l-18 -75h-318l18 75h95l51 202l-101 306h-79l19 75h301l-19 -74h-86zM302 737l163 189h58l69 -189h-61l-54 90l-108 -90h-67z" />
    <glyph glyph-name="ycircumflex" unicode="&#x177;" horiz-adv-x="553" 
d="M176 471c51 0 82 -34 82 -87c0 -92 -58 -182 -58 -240c0 -25 11 -35 33 -35c53 0 124 60 200 355h112l-92 -386c-43 -184 -144 -248 -269 -248c-70 0 -154 19 -154 93c0 32 24 72 69 72c40 0 60 -28 58 -61c-1 -16 -10 -34 -20 -43c12 -4 27 -7 46 -7
c78 0 131 63 165 202l20 79l-6 3c-58 -106 -120 -145 -178 -145c-66 0 -99 46 -99 104c0 77 64 185 64 242c0 13 -6 21 -15 21c-25 0 -49 -41 -76 -98l-47 20c44 100 99 159 165 159zM197 535l163 189h58l69 -189h-61l-54 90l-108 -90h-67z" />
    <glyph glyph-name="Ydieresis" unicode="&#x178;" horiz-adv-x="638" 
d="M381 343l195 241h-80l18 74h237l-19 -75h-70l-265 -314l-48 -194h97l-18 -75h-318l18 75h95l51 202l-101 306h-79l19 75h301l-19 -74h-86zM447 830c0 -36 -30 -80 -77 -80c-31 0 -55 22 -55 58c0 38 28 81 74 81c34 0 58 -22 58 -59zM635 830c0 -36 -30 -80 -77 -80
c-31 0 -55 22 -55 58c0 38 28 81 74 81c34 0 58 -22 58 -59z" />
    <glyph glyph-name="ydieresis" unicode="&#xff;" horiz-adv-x="553" 
d="M176 471c51 0 82 -34 82 -87c0 -92 -58 -182 -58 -240c0 -25 11 -35 33 -35c53 0 124 60 200 355h112l-92 -386c-43 -184 -144 -248 -269 -248c-70 0 -154 19 -154 93c0 32 24 72 69 72c40 0 60 -28 58 -61c-1 -16 -10 -34 -20 -43c12 -4 27 -7 46 -7
c78 0 131 63 165 202l20 79l-6 3c-58 -106 -120 -145 -178 -145c-66 0 -99 46 -99 104c0 77 64 185 64 242c0 13 -6 21 -15 21c-25 0 -49 -41 -76 -98l-47 20c44 100 99 159 165 159zM342 628c0 -36 -30 -80 -77 -80c-31 0 -55 22 -55 58c0 38 28 81 74 81
c34 0 58 -22 58 -59zM530 628c0 -36 -30 -80 -77 -80c-31 0 -55 22 -55 58c0 38 28 81 74 81c34 0 58 -22 58 -59z" />
    <glyph glyph-name="Ygrave" unicode="&#x1ef2;" horiz-adv-x="638" 
d="M381 343l195 241h-80l18 74h237l-19 -75h-70l-265 -314l-48 -194h97l-18 -75h-318l18 75h95l51 202l-101 306h-79l19 75h301l-19 -74h-86zM456 846l20 -110h-53l-49 75c-26 39 -34 58 -34 80c0 25 21 50 50 50c46 0 55 -39 66 -95z" />
    <glyph glyph-name="ygrave" unicode="&#x1ef3;" horiz-adv-x="553" 
d="M176 471c51 0 82 -34 82 -87c0 -92 -58 -182 -58 -240c0 -25 11 -35 33 -35c53 0 124 60 200 355h112l-92 -386c-43 -184 -144 -248 -269 -248c-70 0 -154 19 -154 93c0 32 24 72 69 72c40 0 60 -28 58 -61c-1 -16 -10 -34 -20 -43c12 -4 27 -7 46 -7
c78 0 131 63 165 202l20 79l-6 3c-58 -106 -120 -145 -178 -145c-66 0 -99 46 -99 104c0 77 64 185 64 242c0 13 -6 21 -15 21c-25 0 -49 -41 -76 -98l-47 20c44 100 99 159 165 159zM352 644l20 -110h-53l-49 75c-26 39 -34 58 -34 80c0 25 21 50 50 50c46 0 55 -39 66 -95
z" />
    <glyph glyph-name="Zacute" unicode="&#x179;" horiz-adv-x="619" 
d="M528 810l-93 -74h-59l83 134c28 44 47 72 80 72c31 0 51 -27 51 -51c0 -29 -17 -44 -62 -81zM-20 0l16 63l507 521h-158c-79 0 -99 -13 -186 -175h-58l62 249h520l-16 -63l-506 -521h179c79 0 100 18 187 182h59l-64 -256h-542z" />
    <glyph glyph-name="zacute" unicode="&#x17a;" horiz-adv-x="465" 
d="M398 608l-93 -74h-59l83 134c28 44 47 72 80 72c31 0 51 -27 51 -51c0 -29 -17 -44 -62 -81zM141 137c57 -6 107 -38 152 -38c49 0 63 20 100 98l44 -18c-42 -125 -81 -189 -173 -189c-53 0 -95 26 -130 81l-22 33l-9 -2c-11 -84 -40 -112 -72 -112s-53 24 -53 51
c0 39 33 71 99 90c69 84 167 158 243 193c-56 6 -104 38 -146 38c-47 0 -62 -19 -99 -97l-45 17c42 125 82 189 173 189c49 0 89 -25 125 -81l21 -33l9 2c11 84 41 112 72 112c32 0 53 -23 53 -50c0 -39 -33 -72 -99 -91c-69 -84 -167 -157 -243 -193z" />
    <glyph glyph-name="Zcaron" unicode="&#x17d;" horiz-adv-x="619" 
d="M609 932l-164 -189h-58l-69 189h62l54 -90l107 90h68zM-20 0l16 63l507 521h-158c-79 0 -99 -13 -186 -175h-58l62 249h520l-16 -63l-506 -521h179c79 0 100 18 187 182h59l-64 -256h-542z" />
    <glyph glyph-name="zcaron" unicode="&#x17e;" horiz-adv-x="465" 
d="M478 730l-164 -189h-58l-69 189h62l54 -90l107 90h68zM141 137c57 -6 107 -38 152 -38c49 0 63 20 100 98l44 -18c-42 -125 -81 -189 -173 -189c-53 0 -95 26 -130 81l-22 33l-9 -2c-11 -84 -40 -112 -72 -112s-53 24 -53 51c0 39 33 71 99 90c69 84 167 158 243 193
c-56 6 -104 38 -146 38c-47 0 -62 -19 -99 -97l-45 17c42 125 82 189 173 189c49 0 89 -25 125 -81l21 -33l9 2c11 84 41 112 72 112c32 0 53 -23 53 -50c0 -39 -33 -72 -99 -91c-69 -84 -167 -157 -243 -193z" />
    <glyph glyph-name="Zdotaccent" unicode="&#x17b;" horiz-adv-x="619" 
d="M-20 0l16 63l507 521h-158c-79 0 -99 -13 -186 -175h-58l62 249h520l-16 -63l-506 -521h179c79 0 100 18 187 182h59l-64 -256h-542zM519 819c0 -37 -31 -82 -82 -82c-33 0 -58 22 -58 60c0 39 29 84 79 84c36 0 61 -23 61 -62z" />
    <glyph glyph-name="zdotaccent" unicode="&#x17c;" horiz-adv-x="465" 
d="M141 137c57 -6 107 -38 152 -38c49 0 63 20 100 98l44 -18c-42 -125 -81 -189 -173 -189c-53 0 -95 26 -130 81l-22 33l-9 -2c-11 -84 -40 -112 -72 -112s-53 24 -53 51c0 39 33 71 99 90c69 84 167 158 243 193c-56 6 -104 38 -146 38c-47 0 -62 -19 -99 -97l-45 17
c42 125 82 189 173 189c49 0 89 -25 125 -81l21 -33l9 2c11 84 41 112 72 112c32 0 53 -23 53 -50c0 -39 -33 -72 -99 -91c-69 -84 -167 -157 -243 -193zM388 617c0 -37 -31 -82 -82 -82c-33 0 -58 22 -58 60c0 39 29 84 79 84c36 0 61 -23 61 -62z" />
    <glyph glyph-name="schwa" unicode="&#x259;" horiz-adv-x="471" 
d="M18 94c0 89 93 166 304 179c1 8 1 15 1 23c0 83 -43 109 -93 109c-49 0 -98 -33 -140 -92l-42 30c51 73 113 128 219 128c103 0 175 -72 175 -182c0 -154 -133 -299 -290 -299c-86 0 -134 43 -134 104zM169 45c69 0 123 95 144 180c-140 -15 -190 -69 -190 -130
c0 -28 16 -50 46 -50z" />
    <glyph glyph-name="germandbls" unicode="&#xdf;" horiz-adv-x="588" 
d="M413 357c0 -29 20 -44 65 -83c42 -34 81 -71 81 -131c0 -95 -82 -153 -173 -153c-94 0 -146 41 -146 94c0 36 25 70 67 70c33 0 55 -24 55 -56c0 -21 -9 -38 -22 -48c9 -7 24 -11 45 -11c38 0 70 25 70 70c0 37 -30 63 -69 95c-42 35 -76 63 -76 110c0 51 26 76 82 121
c48 38 82 70 82 133c0 45 -27 74 -71 74c-75 0 -111 -53 -135 -167l-85 -405c-39 -181 -127 -241 -211 -241c-61 0 -91 33 -91 72c0 36 26 70 66 70c33 0 51 -24 51 -51c0 -20 -7 -37 -14 -44c34 0 48 17 74 143l77 370h-93l16 61h89c34 157 127 245 259 245
c115 0 179 -54 179 -122c0 -69 -46 -101 -99 -134c-50 -30 -73 -50 -73 -82z" />
    <glyph glyph-name="zero" unicode="0" horiz-adv-x="576" 
d="M256 -16c-129 0 -208 96 -208 254c0 202 126 412 308 412c128 0 207 -96 207 -254c0 -202 -126 -412 -307 -412zM355 582c-119 0 -181 -270 -181 -394c0 -100 30 -136 82 -136c119 0 181 270 181 394c0 100 -30 136 -82 136z" />
    <glyph glyph-name="one" unicode="1" horiz-adv-x="475" 
d="M2 0l17 74h138l107 428c-19 -7 -44 -11 -73 -11c-25 0 -56 3 -73 10l14 62c79 -4 162 25 206 79h81l-141 -568h138l-14 -74h-400z" />
    <glyph glyph-name="two" unicode="2" horiz-adv-x="568" 
d="M220 545c20 -12 36 -36 36 -68c0 -36 -23 -75 -73 -77c-47 0 -78 31 -78 81c0 83 93 169 236 169c140 0 215 -82 215 -172c0 -125 -100 -174 -209 -207c-164 -52 -207 -94 -238 -151l3 -3c29 17 64 28 101 28c74 0 111 -47 157 -47c41 0 67 28 103 105l50 -10
c-41 -152 -96 -209 -179 -209c-100 0 -127 97 -184 97c-9 0 -17 -1 -28 -5c3 -9 5 -19 5 -27c0 -40 -25 -65 -60 -65c-33 0 -62 25 -62 78c0 122 141 200 233 245c105 51 184 94 184 182c0 59 -42 95 -107 95c-47 0 -85 -18 -105 -39z" />
    <glyph glyph-name="three" unicode="3" horiz-adv-x="532" 
d="M119 88c13 -22 52 -40 104 -40c94 0 132 75 132 150c0 56 -35 93 -135 93h-24l18 67h23c68 0 101 12 126 37c32 32 43 74 43 107c0 57 -33 84 -95 84c-32 0 -66 -9 -82 -22c12 -13 20 -32 20 -53c0 -41 -27 -75 -72 -75c-41 0 -69 27 -69 67c0 90 113 147 218 147
c139 0 208 -71 208 -150c0 -85 -56 -165 -208 -176l-1 -3c112 -19 158 -72 158 -139c0 -105 -97 -198 -244 -198c-138 0 -224 69 -224 154c0 48 34 91 83 91c41 0 65 -31 65 -65c0 -36 -16 -60 -44 -76z" />
    <glyph glyph-name="four" unicode="4" horiz-adv-x="567" 
d="M323 256l71 283h-5l-270 -283h204zM392 73h95l-18 -73h-309l18 73h99l28 109h-290l17 75l378 388h124l-97 -389h127l-18 -74h-127z" />
    <glyph glyph-name="five" unicode="5" horiz-adv-x="531" 
d="M224 526l-51 -160c31 21 75 35 128 35c123 0 190 -71 190 -166c0 -118 -89 -251 -268 -251c-108 0 -200 65 -200 148c0 53 34 99 85 99c38 0 63 -27 63 -61c0 -32 -20 -60 -51 -74c12 -25 47 -47 94 -47c103 0 150 99 150 186c0 73 -50 99 -105 99
c-48 0 -86 -15 -123 -39l-49 21l98 312l23 17c55 -24 121 -35 178 -35c62 0 113 13 158 32l18 -38c-50 -66 -117 -104 -199 -104c-59 0 -107 13 -139 26z" />
    <glyph glyph-name="six" unicode="6" horiz-adv-x="550" 
d="M263 49c77 0 119 104 119 188c0 65 -35 99 -85 99c-79 0 -125 -86 -125 -174c0 -70 34 -113 91 -113zM560 526c0 -48 -31 -90 -78 -90c-41 0 -65 28 -65 59c0 26 11 50 37 68c-8 12 -30 23 -62 23c-100 0 -169 -96 -200 -254c36 40 85 68 145 68c101 0 173 -67 173 -169
c0 -112 -81 -247 -240 -247c-132 0 -215 87 -215 241c0 206 125 425 333 425c102 0 172 -51 172 -124z" />
    <glyph glyph-name="seven" unicode="7" horiz-adv-x="535" 
d="M247 58c-18 -51 -39 -77 -78 -77c-37 0 -67 29 -67 65c0 97 170 284 320 403c27 22 54 43 79 65l-4 5c-39 -21 -76 -31 -112 -31c-72 0 -98 39 -136 39c-36 0 -57 -28 -98 -130h-70l59 240h77l-13 -76h6c35 60 68 82 109 82c78 0 84 -92 149 -92c8 0 15 1 20 2
c-4 11 -5 21 -5 30c0 38 24 67 63 67c36 0 60 -26 60 -56c0 -41 -22 -69 -78 -113c-115 -91 -206 -210 -281 -423z" />
    <glyph glyph-name="eight" unicode="8" horiz-adv-x="545" 
d="M543 494c0 -76 -56 -135 -147 -157c53 -31 97 -73 97 -149c0 -107 -89 -204 -244 -204c-143 0 -222 74 -222 163c0 81 63 142 164 163c-47 30 -83 71 -83 140c0 97 83 200 232 200c130 0 203 -73 203 -156zM241 283c-3 1 -6 2 -8 4c-64 -27 -102 -76 -102 -134
c0 -57 39 -106 123 -106c80 0 124 48 124 104c0 63 -62 92 -138 129zM355 363l-1 -3c61 31 91 83 91 133c0 53 -34 95 -106 95s-114 -47 -114 -97c0 -64 55 -93 130 -128z" />
    <glyph glyph-name="nine" unicode="9" horiz-adv-x="550" 
d="M327 585c-78 0 -121 -104 -121 -192c0 -69 34 -103 85 -103c79 0 126 86 126 177c0 75 -34 118 -90 118zM21 114c0 47 32 87 79 87c41 0 65 -28 65 -59c0 -26 -11 -49 -37 -68c14 -16 37 -26 71 -26c101 0 167 94 196 246c-34 -40 -85 -68 -145 -68
c-101 0 -171 67 -171 173c0 116 81 251 240 251c133 0 216 -87 216 -242c0 -208 -120 -424 -328 -424c-114 0 -186 58 -186 130z" />
    <glyph glyph-name="period" unicode="." horiz-adv-x="242" 
d="M77 -16c-38 0 -67 27 -67 71c0 40 30 84 77 84c38 0 67 -27 67 -71c0 -40 -30 -84 -77 -84z" />
    <glyph glyph-name="comma" unicode="," horiz-adv-x="242" 
d="M-50 -153l-12 45c81 23 129 62 146 104l-6 4c-6 -4 -12 -6 -21 -6c-31 0 -54 23 -54 59c0 41 30 84 76 84c53 0 81 -40 81 -90c0 -87 -69 -166 -210 -200z" />
    <glyph glyph-name="colon" unicode=":" horiz-adv-x="254" 
d="M82 -16c-38 0 -67 27 -67 71c0 40 30 84 77 84c38 0 67 -27 67 -71c0 -40 -30 -84 -77 -84zM158 270c-38 0 -67 27 -67 71c0 40 30 84 77 84c38 0 67 -27 67 -71c0 -40 -30 -84 -77 -84z" />
    <glyph glyph-name="semicolon" unicode=";" horiz-adv-x="254" 
d="M-45 -153l-12 45c81 23 129 62 146 104l-6 4c-6 -4 -12 -6 -21 -6c-31 0 -54 23 -54 59c0 41 30 84 76 84c53 0 81 -40 81 -90c0 -87 -69 -166 -210 -200zM158 270c-38 0 -67 27 -67 71c0 40 30 84 77 84c38 0 67 -27 67 -71c0 -40 -30 -84 -77 -84z" />
    <glyph glyph-name="ellipsis" unicode="&#x2026;" horiz-adv-x="708" 
d="M77 -16c-38 0 -67 27 -67 71c0 40 30 84 77 84c38 0 67 -27 67 -71c0 -40 -30 -84 -77 -84zM310 -16c-38 0 -67 27 -67 71c0 40 30 84 77 84c38 0 67 -27 67 -71c0 -40 -30 -84 -77 -84zM544 -16c-38 0 -67 27 -67 71c0 40 30 84 77 84c38 0 67 -27 67 -71
c0 -40 -30 -84 -77 -84z" />
    <glyph glyph-name="periodcentered" unicode="&#xb7;" horiz-adv-x="243" 
d="M139 242c-38 0 -67 27 -67 71c0 40 30 84 77 84c38 0 67 -27 67 -71c0 -40 -30 -84 -77 -84z" />
    <glyph glyph-name="bullet" unicode="&#x2022;" horiz-adv-x="479" 
d="M251 172c-72 0 -127 55 -127 131c0 90 72 165 157 165c72 0 127 -55 127 -131c0 -90 -72 -165 -157 -165z" />
    <glyph glyph-name="ampersand" unicode="&#x26;" horiz-adv-x="696" 
d="M611 391c42 0 75 -27 75 -71s-28 -87 -68 -87s-62 33 -50 71c-40 -26 -73 -83 -112 -142c29 -66 50 -95 72 -95c23 0 39 13 74 78l44 -25c-45 -101 -88 -135 -145 -135c-65 0 -94 30 -128 94c-49 -57 -102 -95 -182 -95c-103 0 -174 59 -174 152c0 91 63 166 210 209
c-34 50 -46 82 -46 122c0 103 88 166 187 166c96 0 156 -55 156 -129c0 -50 -29 -117 -162 -165c29 -44 52 -85 69 -128c56 88 99 180 180 180zM228 65c51 0 85 21 119 60c-25 67 -53 118 -93 179c-89 -40 -112 -99 -112 -148c0 -56 32 -91 86 -91zM292 491
c0 -29 9 -56 44 -111c74 37 93 86 93 126c0 37 -22 68 -65 68c-39 0 -72 -32 -72 -83z" />
    <glyph glyph-name="exclam" unicode="!" horiz-adv-x="288" 
d="M107 195c26 147 37 286 54 389c9 59 28 100 81 100c43 0 72 -26 72 -66c0 -33 -17 -71 -59 -184c-32 -82 -60 -155 -94 -250zM101 -16c-38 0 -68 26 -68 68c0 36 28 78 75 78c38 0 68 -26 68 -67c0 -37 -28 -79 -75 -79z" />
    <glyph glyph-name="exclamdown" unicode="&#xa1;" horiz-adv-x="288" 
d="M236 472c-26 -147 -37 -286 -54 -389c-9 -59 -28 -100 -81 -100c-43 0 -72 26 -72 66c0 33 17 71 59 184c32 82 60 155 94 250zM242 683c38 0 68 -26 68 -68c0 -36 -28 -78 -75 -78c-38 0 -68 26 -68 67c0 37 28 79 75 79z" />
    <glyph glyph-name="question" unicode="?" horiz-adv-x="464" 
d="M369 256c-37 -50 -86 -74 -144 -74c-61 0 -117 35 -117 103c0 76 65 111 150 144c77 29 138 55 138 118c0 45 -32 76 -93 76c-34 0 -62 -10 -77 -21c11 -15 19 -33 19 -52c0 -38 -27 -76 -75 -76c-39 0 -67 29 -67 69c0 75 83 141 206 141c136 0 201 -75 201 -158
c0 -103 -85 -141 -186 -173c-71 -24 -117 -41 -117 -80c0 -20 14 -32 39 -32c28 0 52 10 90 47zM167 -16c-39 0 -68 27 -68 69c0 36 29 77 75 77c39 0 68 -26 68 -69c0 -36 -29 -77 -75 -77z" />
    <glyph glyph-name="questiondown" unicode="&#xbf;" horiz-adv-x="464" 
d="M148 411c37 50 86 74 144 74c61 0 117 -35 117 -103c0 -76 -65 -111 -150 -144c-77 -29 -138 -55 -138 -118c0 -45 32 -76 93 -76c34 0 62 10 77 21c-11 15 -19 33 -19 52c0 38 27 76 75 76c39 0 67 -29 67 -69c0 -75 -83 -141 -206 -141c-136 0 -201 75 -201 158
c0 103 85 141 186 173c71 24 117 41 117 80c0 20 -14 32 -39 32c-28 0 -52 -10 -90 -47zM350 683c39 0 68 -27 68 -69c0 -36 -29 -77 -75 -77c-39 0 -68 26 -68 69c0 36 29 77 75 77z" />
    <glyph glyph-name="quotedblleft" unicode="&#x201c;" horiz-adv-x="452" 
d="M304 681l12 -44c-81 -24 -130 -63 -146 -104l6 -5c5 4 12 7 21 7c30 0 54 -23 54 -59c0 -42 -30 -84 -76 -84c-53 0 -81 39 -81 90c0 86 69 165 210 199zM510 681l12 -44c-81 -24 -130 -63 -146 -104l6 -5c5 4 12 7 21 7c30 0 54 -23 54 -59c0 -42 -30 -84 -76 -84
c-53 0 -81 39 -81 90c0 86 69 165 210 199z" />
    <glyph glyph-name="quotedblright" unicode="&#x201d;" horiz-adv-x="452" 
d="M88 384l-12 45c81 24 130 62 146 104l-5 5c-6 -4 -13 -7 -22 -7c-30 0 -54 23 -54 59c0 41 30 84 76 84c53 0 81 -40 81 -90c0 -87 -69 -166 -210 -200zM294 384l-12 45c82 24 130 62 146 104l-5 5c-6 -4 -13 -7 -21 -7c-31 0 -55 23 -55 59c0 41 30 84 76 84
c53 0 81 -40 81 -90c0 -87 -69 -166 -210 -200z" />
    <glyph glyph-name="quoteleft" unicode="&#x2018;" horiz-adv-x="242" 
d="M300 681l12 -44c-81 -24 -129 -63 -146 -104l6 -5c6 4 12 7 21 7c31 0 54 -23 54 -59c0 -42 -30 -84 -76 -84c-53 0 -81 39 -81 90c0 86 69 165 210 199z" />
    <glyph glyph-name="quoteright" unicode="&#x2019;" horiz-adv-x="242" 
d="M88 384l-12 45c81 24 130 62 146 104l-5 5c-6 -4 -13 -7 -22 -7c-30 0 -54 23 -54 59c0 41 30 84 76 84c53 0 81 -40 81 -90c0 -87 -69 -166 -210 -200z" />
    <glyph glyph-name="quotedblbase" unicode="&#x201e;" horiz-adv-x="448" 
d="M-50 -154l-12 45c81 24 130 62 146 104l-5 5c-6 -4 -13 -7 -22 -7c-30 0 -54 23 -54 59c0 41 30 84 76 84c53 0 81 -40 81 -90c0 -87 -69 -166 -210 -200zM156 -154l-12 45c82 24 130 62 146 104l-5 5c-6 -4 -13 -7 -21 -7c-31 0 -55 23 -55 59c0 41 30 84 76 84
c53 0 81 -40 81 -90c0 -87 -69 -166 -210 -200z" />
    <glyph glyph-name="quotesinglbase" unicode="&#x201a;" horiz-adv-x="242" 
d="M-50 -154l-12 45c81 24 130 62 146 104l-5 5c-6 -4 -13 -7 -22 -7c-30 0 -54 23 -54 59c0 41 30 84 76 84c53 0 81 -40 81 -90c0 -87 -69 -166 -210 -200z" />
    <glyph glyph-name="guillemotleft" unicode="&#xab;" horiz-adv-x="509" 
d="M176 31l-127 160c-15 18 -18 28 -18 37c0 13 9 25 36 45l201 148l30 -33l-157 -167l77 -164zM382 31l-127 160c-14 18 -17 28 -17 37c0 13 9 25 36 45l200 148l30 -33l-157 -167l78 -164z" />
    <glyph glyph-name="guillemotright" unicode="&#xbb;" horiz-adv-x="509" 
d="M331 420l127 -160c15 -18 18 -28 18 -37c0 -13 -9 -25 -36 -45l-201 -148l-30 33l157 167l-77 164zM125 420l127 -160c14 -18 17 -28 17 -37c0 -13 -9 -25 -36 -45l-200 -148l-30 33l157 167l-78 164z" />
    <glyph glyph-name="guilsinglleft" unicode="&#x2039;" horiz-adv-x="305" 
d="M178 31l-129 160c-15 18 -18 28 -18 37c0 13 9 25 36 45l203 148l30 -34l-158 -166l78 -163z" />
    <glyph glyph-name="guilsinglright" unicode="&#x203a;" horiz-adv-x="305" 
d="M125 420l129 -160c15 -18 18 -28 18 -37c0 -13 -9 -25 -36 -45l-203 -148l-30 34l158 166l-78 163z" />
    <glyph glyph-name="hyphen" unicode="-" horiz-adv-x="358" 
d="M46 208l22 86h254l-22 -86h-254z" />
    <glyph glyph-name="endash" unicode="&#x2013;" horiz-adv-x="535" 
d="M47 209l20 78h431l-19 -78h-432z" />
    <glyph glyph-name="emdash" unicode="&#x2014;" horiz-adv-x="785" 
d="M47 209l20 78h681l-19 -78h-682z" />
    <glyph glyph-name="underscore" unicode="_" horiz-adv-x="443" 
d="M-55 0l18 75h447l-19 -75h-446z" />
    <glyph glyph-name="slash" unicode="/" horiz-adv-x="429" 
d="M-139 -186l600 910l67 -32l-601 -910z" />
    <glyph glyph-name="backslash" unicode="\" horiz-adv-x="429" 
d="M365 -196l-74 -14l-159 910l73 14z" />
    <glyph glyph-name="bar" unicode="|" horiz-adv-x="288" 
d="M-2 -198l227 911l75 -11l-228 -911z" />
    <glyph glyph-name="parenleft" unicode="(" horiz-adv-x="373" 
d="M261 -158c-115 76 -197 196 -197 355c0 247 168 452 406 526l21 -55c-188 -82 -311 -279 -311 -483c0 -133 48 -230 124 -296z" />
    <glyph glyph-name="parenright" unicode=")" horiz-adv-x="373" 
d="M138 722c115 -76 197 -196 197 -355c0 -247 -168 -452 -406 -526l-21 55c188 82 311 279 311 483c0 133 -48 230 -124 296z" />
    <glyph glyph-name="bracketleft" unicode="[" horiz-adv-x="353" 
d="M-11 -158l219 881h278l-18 -69h-164l-184 -743h163l-17 -69h-277z" />
    <glyph glyph-name="bracketright" unicode="]" horiz-adv-x="353" 
d="M390 723l-219 -881h-278l18 69h164l184 743h-163l17 69h277z" />
    <glyph glyph-name="braceleft" unicode="{" horiz-adv-x="392" 
d="M307 -158c-140 14 -199 57 -199 141c0 72 54 159 54 210c0 28 -23 54 -107 54h-32l18 71h28c56 0 92 9 117 33c71 71 22 229 107 314c46 47 123 64 231 58l-16 -66c-59 -1 -93 -8 -116 -31c-57 -58 -30 -216 -108 -293c-30 -31 -73 -44 -134 -50l-2 -6
c81 -11 119 -40 119 -94c0 -58 -45 -145 -45 -196c0 -42 24 -65 102 -78z" />
    <glyph glyph-name="braceright" unicode="}" horiz-adv-x="392" 
d="M111 723c140 -14 199 -57 199 -141c0 -72 -54 -159 -54 -210c0 -28 23 -54 107 -54h32l-18 -71h-28c-56 0 -92 -9 -117 -33c-71 -71 -22 -229 -107 -314c-46 -47 -123 -64 -231 -58l16 66c59 1 93 8 116 31c57 58 30 216 108 293c30 31 73 44 134 50l2 6
c-81 11 -119 40 -119 94c0 58 45 145 45 196c0 42 -24 65 -102 78z" />
    <glyph glyph-name="at" unicode="@" horiz-adv-x="886" 
d="M632 -48l21 -40c-71 -41 -148 -61 -239 -61c-210 0 -368 135 -368 352c0 270 219 483 482 483c190 0 337 -115 337 -307c0 -169 -96 -324 -238 -324c-67 0 -121 36 -112 114l-4 1c-36 -71 -89 -105 -138 -105c-78 0 -131 58 -131 152c0 138 107 262 225 262
c51 0 89 -33 95 -83l24 76h95l-77 -244c-27 -86 -6 -117 44 -117c70 0 158 108 158 266c0 162 -115 261 -282 261c-227 0 -420 -197 -420 -433c0 -181 126 -306 316 -306c81 0 150 19 212 53zM403 132c84 0 132 140 132 213c0 47 -14 78 -56 78c-87 0 -131 -145 -131 -218
c0 -44 16 -73 55 -73z" />
    <glyph glyph-name="copyright" unicode="&#xa9;" horiz-adv-x="787" 
d="M412 -33c-206 0 -364 155 -364 362c0 206 158 362 364 362s364 -156 364 -362c0 -207 -158 -362 -364 -362zM412 10c181 0 314 137 314 319c0 181 -133 319 -314 319c-180 0 -314 -138 -314 -319c0 -182 134 -319 314 -319zM418 141c-109 0 -185 82 -185 192
c0 108 86 190 181 190c45 0 77 -17 100 -43l10 42h46v-142h-46c-25 65 -55 99 -104 99c-56 0 -98 -39 -98 -142c0 -100 36 -147 106 -147c62 0 93 44 101 107h50c-10 -97 -70 -156 -161 -156z" />
    <glyph glyph-name="published" unicode="&#x2117;" horiz-adv-x="787" 
d="M412 -33c-206 0 -364 155 -364 362c0 206 158 362 364 362s364 -156 364 -362c0 -207 -158 -362 -364 -362zM412 10c181 0 314 137 314 319c0 181 -133 319 -314 319c-180 0 -314 -138 -314 -319c0 -182 134 -319 314 -319zM262 147v44h54v278h-54v45h173
c114 0 158 -49 158 -111c0 -60 -40 -115 -155 -115h-44v-97h59v-44h-191zM394 331h38c61 0 76 26 76 71c0 41 -17 69 -77 69h-37v-140z" />
    <glyph glyph-name="registered.alt" horiz-adv-x="787" 
d="M412 -33c-206 0 -364 155 -364 362c0 206 158 362 364 362s364 -156 364 -362c0 -207 -158 -362 -364 -362zM412 10c181 0 314 137 314 319c0 181 -133 319 -314 319c-180 0 -314 -138 -314 -319c0 -182 134 -319 314 -319zM369 308v-115h55v-44h-187v44h55v278h-55v44
h192c111 0 146 -47 146 -95c0 -41 -26 -80 -105 -90v-5c64 -8 84 -36 87 -79l3 -29c1 -21 6 -27 17 -27c8 0 15 8 23 29l29 -11c-11 -38 -32 -67 -75 -67c-48 0 -76 25 -76 81v29c0 38 -11 57 -56 57h-53zM369 348h52c50 0 69 21 69 65c0 39 -15 59 -65 59h-56v-124z" />
    <glyph glyph-name="registered" unicode="&#xae;" horiz-adv-x="512" 
d="M316 248c-126 0 -222 94 -222 221c0 128 96 221 222 221c127 0 223 -93 223 -221c0 -127 -96 -221 -223 -221zM316 280c113 0 185 77 185 189s-72 188 -185 188c-110 0 -183 -76 -183 -188s73 -189 183 -189zM292 456v-70h33v-27h-116v27h33v171h-33v28h121
c68 0 89 -30 89 -59c0 -26 -17 -50 -66 -56v-2c40 -5 51 -23 55 -49l1 -17c2 -13 4 -17 10 -17c5 0 10 5 15 19l18 -7c-7 -25 -20 -43 -47 -43c-31 0 -48 16 -48 52v16c0 23 -6 34 -34 34h-31zM292 482h31c30 0 41 13 41 40c0 24 -8 35 -39 35h-33v-75z" />
    <glyph glyph-name="servicemark" unicode="&#x2120;" horiz-adv-x="800" 
d="M76 351l30 119h36c10 -54 38 -83 84 -83c33 0 51 19 51 42c0 27 -26 36 -57 50c-40 19 -87 37 -87 90c0 52 50 98 115 98c35 0 64 -14 79 -36l20 34h38l-29 -112h-35c-11 56 -35 76 -71 76c-31 0 -50 -17 -50 -41c0 -26 27 -36 57 -50c40 -18 87 -35 87 -89
c0 -57 -50 -100 -118 -100c-40 0 -72 17 -90 38l-22 -36h-38zM361 355l10 41h42l55 221h-42l11 41h149l14 -198h7l107 198h154l-10 -41h-45l-55 -221h45l-11 -41h-151l10 41h35l53 208h-12l-141 -249h-43l-20 249h-14l-52 -208h37l-10 -41h-123z" />
    <glyph glyph-name="trademark" unicode="&#x2122;" horiz-adv-x="844" 
d="M406 355l10 41h42l54 221h-41l10 41h150l13 -198h7l107 198h155l-11 -41h-44l-55 -221h44l-10 -41h-151l10 41h35l53 208h-12l-142 -249h-42l-21 249h-13l-52 -208h37l-11 -41h-122zM128 355l11 41h54l57 225h-14c-39 0 -50 -11 -88 -85h-34l31 122h300l-30 -122h-30
c-3 73 -9 85 -46 85h-17l-56 -225h54l-10 -41h-182z" />
    <glyph glyph-name="asterisk" unicode="*" horiz-adv-x="434" 
d="M318 360c-8 23 -10 79 -10 121l-13 4c-23 -38 -53 -85 -71 -100c-26 -21 -49 -18 -66 3c-19 23 -16 46 11 66c19 16 71 34 112 47l-1 14c-42 10 -96 22 -116 36c-28 19 -32 40 -16 65c15 22 38 28 65 9c20 -14 53 -58 78 -93l13 5c-2 45 -6 100 0 122c9 33 28 43 56 36
c27 -8 38 -27 29 -60c-7 -22 -38 -68 -63 -103l8 -11c40 17 92 37 116 39c34 2 50 -14 51 -42c2 -29 -14 -45 -48 -46c-24 -1 -76 14 -117 27l-9 -10c28 -33 65 -76 74 -99c12 -31 3 -51 -25 -61c-27 -11 -47 -1 -58 31z" />
    <glyph glyph-name="dagger" unicode="&#x2020;" horiz-adv-x="527" 
d="M425 626l-86 -177c35 -12 82 -26 104 -26c2 0 7 0 9 1c-10 43 16 83 56 83c27 0 51 -20 51 -54c0 -38 -32 -80 -96 -80c-43 0 -70 9 -133 32l-42 -293l-36 -144c-11 -44 -57 -76 -69 -74c-14 2 -41 54 -30 98l36 144l102 282c-36 13 -82 26 -104 26h-9
c10 -44 -16 -83 -56 -83c-27 0 -51 19 -51 53c0 38 33 81 96 81c44 0 70 -10 135 -33l6 193l14 18c13 19 30 31 49 31c32 0 47 -27 51 -56z" />
    <glyph glyph-name="daggerdbl" unicode="&#x2021;" horiz-adv-x="527" 
d="M272 176c34 -12 81 -26 101 -26c3 0 8 0 10 1c-10 44 16 83 56 83c28 0 51 -19 51 -53c0 -39 -32 -81 -95 -81c-44 0 -71 10 -135 33l-6 -191l-14 -19c-13 -18 -30 -30 -49 -30c-32 0 -46 27 -51 56l-3 22l86 174c-35 12 -83 27 -103 27c-3 0 -8 0 -10 -1
c10 -44 -17 -83 -57 -83c-27 0 -51 19 -51 53c0 39 33 81 96 81c43 0 69 -9 130 -31l7 121l54 109c-34 12 -80 25 -99 25h-11c10 -44 -16 -83 -56 -83c-27 0 -51 19 -51 53c0 39 33 81 96 81c44 0 70 -10 135 -33l5 191l14 18c13 19 30 31 49 31c32 0 47 -27 51 -56l3 -22
l-85 -175c34 -12 83 -26 103 -26c3 0 7 0 10 1c-10 44 16 83 56 83c27 0 51 -19 51 -53c0 -39 -33 -81 -96 -81c-43 0 -69 9 -131 31l-7 -122z" />
    <glyph glyph-name="asciicircum" unicode="^" horiz-adv-x="350" 
d="M86 506l177 211h61l71 -211h-63l-57 109l-121 -109h-68z" />
    <glyph glyph-name="asciitilde" unicode="~" horiz-adv-x="389" 
d="M146 304c-19 0 -34 -15 -55 -59h-57c31 89 66 143 128 143c64 0 94 -54 125 -54c20 0 34 16 55 59h57c-31 -89 -65 -143 -128 -143c-64 0 -93 54 -125 54z" />
    <glyph glyph-name="dollar" unicode="$" horiz-adv-x="551" 
d="M364 710l65 -10l-17 -70c99 -18 153 -77 153 -129c0 -47 -28 -84 -71 -84c-37 0 -60 24 -60 55c0 26 14 50 34 62c-9 16 -34 33 -70 42l-52 -208c84 -38 152 -78 152 -168c0 -103 -78 -200 -232 -200h-11l-21 -88l-66 10l21 85c-98 20 -167 75 -167 139c0 46 32 85 77 85
c37 0 63 -27 63 -59c0 -27 -19 -54 -42 -65c11 -19 44 -36 84 -46l53 216c-80 37 -147 76 -147 160c0 119 108 198 235 199zM393 156c0 43 -33 70 -77 93l-49 -195c88 1 126 46 126 102zM221 480c0 -39 28 -63 66 -84l46 185c-72 -7 -112 -53 -112 -101z" />
    <glyph glyph-name="sterling" unicode="&#xa3;" horiz-adv-x="610" 
d="M487 277h-161c-2 -48 -17 -90 -55 -131l40 -15c51 -21 90 -37 118 -37c41 0 59 20 87 90l52 -11c-35 -136 -77 -188 -159 -188c-72 0 -122 34 -175 76l-16 12c-36 -60 -72 -86 -123 -86c-57 0 -93 34 -93 85c0 53 51 102 133 102c27 0 52 -4 76 -9c4 16 6 30 6 43
c0 22 -5 45 -10 69h-144l18 70h110c-3 17 -5 36 -5 55c0 148 116 248 254 248c121 0 183 -62 183 -128c0 -51 -32 -94 -83 -94c-39 0 -67 23 -67 62c0 31 18 57 47 70c-13 14 -34 29 -76 29c-85 0 -129 -57 -129 -172c0 -27 2 -49 5 -70h185zM105 42c28 0 53 22 75 55
c-19 10 -39 17 -62 17c-31 0 -50 -18 -50 -40c0 -20 14 -32 37 -32z" />
    <glyph glyph-name="Euro" unicode="&#x20ac;" horiz-adv-x="651" 
d="M443 347h-185c-5 -25 -9 -50 -11 -73h179l-17 -66h-162c9 -103 66 -141 132 -141c68 0 122 42 168 136l59 -30c-43 -107 -128 -189 -252 -189c-128 0 -224 74 -234 224h-100l16 66h84c2 25 6 49 12 73h-78l16 66h83c58 141 181 237 318 237c132 0 197 -76 197 -151
c0 -50 -32 -95 -79 -95c-40 0 -66 28 -66 65c0 35 21 62 45 76c-15 21 -46 37 -90 37c-102 0 -166 -78 -201 -170h183z" />
    <glyph glyph-name="yen" unicode="&#xa5;" horiz-adv-x="644" 
d="M109 333h148l-76 227h-79l19 74h289l-19 -74h-81l66 -222l177 222h-76l19 74h228l-18 -74h-71l-190 -227h141l-16 -68h-180l-13 -55h180l-17 -68h-181l-17 -69h109l-17 -73h-333l18 73h109l17 69h-183l18 68h182l14 55h-184z" />
    <glyph glyph-name="cent" unicode="&#xa2;" horiz-adv-x="500" 
d="M313 557l63 -10l-19 -80c84 -13 127 -66 127 -121c0 -41 -24 -83 -68 -83c-36 0 -59 24 -59 55c0 27 14 51 38 68c-7 10 -27 22 -56 26l-88 -351h8c56 0 102 34 143 95l43 -29c-43 -75 -102 -135 -211 -137l-23 -95l-63 10l23 91c-89 20 -138 87 -138 182
c0 147 112 280 259 292zM149 178c0 -58 17 -89 46 -104l83 333c-90 -30 -129 -155 -129 -229z" />
    <glyph glyph-name="numbersign" unicode="#" horiz-adv-x="659" 
d="M85 409l15 68h142l52 190l75 -8l-50 -182h142l53 190l75 -8l-50 -182h124l-15 -68h-128l-52 -188h139l-15 -68h-142l-54 -197l-75 8l52 189h-142l-54 -197l-75 8l51 189h-124l15 68h128l51 188h-138zM301 409l-52 -188h142l52 188h-142z" />
    <glyph glyph-name="paragraph" unicode="&#xb6;" horiz-adv-x="645" 
d="M219 -107l68 273c-130 11 -215 84 -215 194c0 109 72 256 338 256h298l-18 -74h-87l-162 -649h-76l163 650h-70l-163 -650h-76z" />
    <glyph glyph-name="section" unicode="&#xa7;" horiz-adv-x="514" 
d="M481 286c0 -79 -61 -129 -148 -142c38 -26 67 -59 67 -108c0 -97 -102 -157 -198 -157c-100 0 -206 46 -206 125c0 42 29 77 70 77c38 0 59 -24 59 -51c0 -29 -13 -51 -30 -62c18 -17 60 -35 108 -35c55 0 87 29 87 72c0 45 -42 69 -108 105c-69 38 -129 72 -129 144
c0 76 62 127 151 139c-34 25 -61 57 -61 105c0 99 102 156 197 156c102 0 188 -46 188 -116c0 -40 -27 -75 -69 -75c-37 0 -60 26 -60 53c0 25 12 45 29 58c-17 15 -51 26 -88 26c-54 0 -87 -27 -87 -70c0 -45 42 -71 106 -105c64 -35 122 -70 122 -139zM289 342l-44 24
c-60 -13 -83 -44 -83 -81c0 -41 41 -66 79 -87l49 -27c61 14 82 44 82 81c0 39 -40 65 -83 90z" />
    <glyph glyph-name="ordfeminine" unicode="&#xaa;" horiz-adv-x="419" 
d="M341 650h84l-60 -220c-5 -18 -7 -31 -7 -41c0 -12 6 -18 16 -18c17 0 32 23 49 71l34 -10c-29 -89 -66 -120 -111 -120c-35 0 -60 21 -60 61c0 3 0 9 1 17l-6 2c-27 -53 -68 -80 -109 -80c-61 0 -96 50 -96 113c0 72 31 138 69 176c33 33 72 54 113 54
c40 0 63 -28 69 -60zM207 370c57 0 101 124 101 181c0 37 -13 57 -38 57c-63 0 -104 -118 -104 -175c0 -42 15 -63 41 -63z" />
    <glyph glyph-name="ordmasculine" unicode="&#xba;" horiz-adv-x="377" 
d="M270 655c82 0 135 -57 135 -138c0 -111 -88 -205 -189 -205c-82 0 -136 57 -136 139c0 110 89 204 190 204zM319 549c0 47 -18 65 -47 65c-69 0 -106 -128 -106 -197c0 -46 18 -65 48 -65c69 0 105 129 105 197z" />
    <glyph glyph-name="degree" unicode="&#xb0;" horiz-adv-x="397" 
d="M254 411c66 0 95 73 95 125c0 49 -27 77 -72 77c-66 0 -94 -73 -94 -125c0 -49 27 -77 71 -77zM432 535c0 -103 -77 -184 -182 -184c-101 0 -151 66 -151 137c0 104 76 185 182 185c101 0 151 -66 151 -138z" />
    <glyph glyph-name="percent" unicode="%" horiz-adv-x="794" 
d="M179 266c-86 0 -135 49 -135 133c0 111 102 230 215 230c43 0 78 -16 99 -45c29 -10 60 -15 96 -15c86 0 156 29 225 84l42 -38l-564 -644l-56 41l488 537l-3 3c-40 -25 -98 -41 -146 -41c-21 0 -42 1 -61 4v-3c0 -97 -81 -246 -200 -246zM578 -14
c-86 0 -135 49 -135 132c0 111 102 230 215 230c71 0 120 -41 120 -116c0 -97 -81 -246 -200 -246zM587 39c69 0 134 116 134 193c0 38 -18 59 -49 59c-67 0 -134 -119 -134 -196c0 -42 19 -56 49 -56zM188 319c69 0 134 116 134 193c0 7 -1 13 -2 19c-21 9 -42 21 -61 38
c-62 -15 -120 -123 -120 -194c0 -42 19 -56 49 -56z" />
    <glyph glyph-name="quotedbl" unicode="&#x22;" horiz-adv-x="421" 
d="M136 400l-36 21l68 153c27 62 44 92 79 92c32 0 60 -25 60 -56c0 -29 -24 -56 -84 -118zM322 400l-36 21l68 153c27 62 44 92 79 92c32 0 60 -25 60 -56c0 -29 -24 -56 -84 -118z" />
    <glyph glyph-name="quotesingle" unicode="'" horiz-adv-x="234" 
d="M136 400l-36 21l68 153c27 62 44 92 79 92c32 0 60 -25 60 -56c0 -29 -24 -56 -84 -118z" />
    <glyph glyph-name="plus" unicode="+" horiz-adv-x="525" 
d="M185 68l44 180h-175l17 70h176l45 179h76l-45 -179h175l-17 -70h-176l-44 -180h-76z" />
    <glyph glyph-name="minus" unicode="&#x2212;" horiz-adv-x="520" 
d="M455 245h-381l19 76h381z" />
    <glyph glyph-name="divide" unicode="&#xf7;" horiz-adv-x="520" 
d="M482 248h-433l16 69h434zM230 53c-35 0 -62 25 -62 64c0 35 28 75 70 75c35 0 62 -25 62 -64c0 -35 -28 -75 -70 -75zM309 373c-34 0 -61 25 -61 64c0 35 28 75 70 75c34 0 61 -25 61 -64c0 -35 -28 -75 -70 -75z" />
    <glyph glyph-name="equal" unicode="=" horiz-adv-x="525" 
d="M81 343l19 72h417l-19 -72h-417zM33 150l19 72h417l-19 -72h-417z" />
    <glyph glyph-name="multiply" unicode="&#xd7;" horiz-adv-x="520" 
d="M326 280l105 -144l-60 -48l-102 144l-172 -143l-41 55l175 142l-105 144l60 47l101 -143l172 142l41 -54z" />
    <glyph glyph-name="less" unicode="&#x3c;" horiz-adv-x="524" 
d="M398 69l-323 184l17 72l394 174l22 -66l-351 -151l271 -145z" />
    <glyph glyph-name="greater" unicode="&#x3e;" horiz-adv-x="524" 
d="M153 499l323 -184l-17 -72l-393 -174l-23 65l352 151l-272 145z" />
    <glyph glyph-name="plusminus" unicode="&#xb1;" horiz-adv-x="538" 
d="M218 161l40 160h-156l15 63h156l40 157h69l-40 -157h155l-15 -63h-155l-40 -160h-69zM408 28h-379l16 64h379z" />
    <glyph glyph-name="zero.osf" horiz-adv-x="584" 
d="M45 225c0 166 120 346 294 346c136 0 220 -92 220 -241c0 -166 -120 -346 -294 -346c-136 0 -220 92 -220 241zM430 377c0 95 -40 126 -94 126c-111 0 -162 -217 -162 -325c0 -95 40 -126 94 -126c111 0 162 217 162 325z" />
    <glyph glyph-name="one.osf" horiz-adv-x="466" 
d="M2 0l17 74h133l88 348c-19 -8 -43 -12 -69 -12c-27 0 -57 4 -74 11l15 61c79 -4 157 26 201 79h82l-122 -487h133l-17 -74h-387z" />
    <glyph glyph-name="two.osf" horiz-adv-x="538" 
d="M201 480c20 -11 32 -34 32 -58c0 -40 -25 -76 -73 -76c-41 0 -70 28 -70 70c0 79 84 155 218 155s205 -71 205 -155c0 -115 -90 -156 -194 -183c-153 -44 -192 -75 -222 -123l3 -4c28 18 66 29 99 29c71 0 109 -39 154 -39c38 0 61 27 91 95l51 -10
c-37 -145 -91 -197 -174 -197c-92 0 -121 87 -176 87c-6 0 -16 -1 -25 -5c3 -8 4 -16 4 -23c0 -35 -26 -59 -61 -59c-33 0 -60 24 -60 66c0 112 118 174 207 214c103 45 178 78 178 162c0 51 -41 80 -98 80c-41 0 -70 -11 -89 -26z" />
    <glyph glyph-name="three.osf" horiz-adv-x="531" 
d="M107 -7c17 -10 43 -19 83 -19c96 0 140 68 140 146c0 55 -38 87 -128 87h-23l17 67h23c71 0 102 13 128 39c32 32 42 68 42 107c0 56 -30 87 -94 87c-29 0 -59 -10 -75 -21c14 -16 21 -31 21 -52c0 -43 -27 -78 -73 -78c-41 0 -69 27 -69 68c0 91 111 147 212 147
c138 0 207 -70 207 -152c0 -84 -63 -169 -212 -180l-1 -3c105 -16 152 -65 152 -131c0 -113 -103 -193 -249 -193c-136 0 -212 59 -212 134c0 48 34 92 83 92c41 0 66 -33 66 -68c0 -36 -16 -60 -38 -77z" />
    <glyph glyph-name="four.osf" horiz-adv-x="559" 
d="M299 185l66 269h-4l-258 -269h196zM365 -7h85l-18 -71h-281l18 71h82l29 118h-284l17 70l374 385h120l-94 -381h124l-19 -74h-124z" />
    <glyph glyph-name="five.osf" horiz-adv-x="515" 
d="M215 449l-53 -165c29 19 73 33 119 33c118 0 180 -74 180 -167c0 -101 -80 -238 -260 -238c-109 0 -203 50 -203 134c0 48 32 91 81 91c37 0 64 -27 64 -67c0 -27 -15 -54 -40 -73c9 -8 42 -21 79 -21c114 0 151 104 151 173c0 72 -43 101 -96 101
c-39 0 -76 -15 -112 -37l-49 20l100 318l23 17c55 -24 120 -35 172 -35c59 0 109 13 154 32l18 -38c-50 -66 -117 -104 -195 -104c-54 0 -102 13 -133 26z" />
    <glyph glyph-name="six.osf" horiz-adv-x="547" 
d="M392 640c100 0 168 -51 168 -121c0 -45 -30 -88 -78 -88c-40 0 -62 30 -62 60c0 25 11 50 36 67c-10 9 -30 19 -61 19c-94 0 -173 -95 -204 -250c34 39 84 67 145 67c102 0 170 -67 170 -163c0 -115 -86 -247 -243 -247c-132 0 -211 87 -211 234c0 206 142 422 340 422z
M260 49c73 0 119 102 119 185c0 63 -34 95 -84 95c-80 0 -127 -84 -127 -169c0 -70 33 -111 92 -111z" />
    <glyph glyph-name="seven.osf" horiz-adv-x="516" 
d="M214 -13c-18 -50 -39 -76 -78 -76c-37 0 -67 29 -67 65c0 96 165 281 314 399l75 63l-4 5c-39 -21 -73 -32 -106 -32c-67 0 -93 38 -128 38c-32 0 -53 -25 -93 -125h-71l59 238h77l-14 -77h6c35 61 67 83 105 83c74 0 79 -94 140 -94c5 0 12 1 17 3c-4 10 -5 21 -5 30
c0 39 24 68 63 68c35 0 59 -26 59 -57c0 -40 -23 -69 -78 -113c-114 -90 -198 -207 -271 -418z" />
    <glyph glyph-name="eight.osf" horiz-adv-x="538" 
d="M533 487c0 -74 -52 -131 -139 -154c53 -30 97 -72 97 -148c0 -106 -90 -201 -242 -201c-142 0 -221 73 -221 160c0 82 61 141 161 161c-46 29 -83 69 -83 138c0 96 82 197 228 197c128 0 199 -71 199 -153zM239 278c-3 1 -6 2 -8 4c-63 -27 -99 -73 -99 -130
c0 -56 39 -105 121 -105c78 0 122 47 122 103c0 61 -63 90 -137 125zM222 482c0 -62 58 -90 131 -125c58 30 82 79 82 128c0 51 -33 93 -102 93c-68 0 -111 -46 -111 -96z" />
    <glyph glyph-name="nine.osf" horiz-adv-x="547" 
d="M309 506c-74 0 -120 -102 -120 -190c0 -63 33 -96 83 -96c80 0 128 86 128 175c0 69 -33 111 -91 111zM376 223c-34 -40 -84 -67 -145 -67c-101 0 -169 67 -169 163c0 119 86 252 244 252c131 0 211 -87 211 -235c0 -206 -143 -424 -342 -424c-97 0 -169 53 -169 126
c0 45 29 88 79 88c39 0 61 -29 61 -61c0 -26 -8 -48 -35 -68c11 -12 31 -21 62 -21c94 0 172 95 203 247z" />
    <glyph glyph-name="dollar.osf" horiz-adv-x="538" 
d="M342 640l65 -10l-18 -71c95 -18 149 -75 149 -126c0 -46 -29 -83 -71 -83c-38 0 -61 24 -61 54c0 25 15 49 35 61c-9 14 -33 31 -66 40l-44 -179c81 -33 150 -70 150 -150c0 -94 -77 -181 -222 -181h-11l-21 -87l-65 10l21 84c-95 19 -162 74 -162 138c0 44 32 83 76 83
c37 0 63 -27 63 -59c0 -25 -18 -52 -42 -63c12 -19 42 -35 79 -45l45 184c-79 32 -145 69 -145 144c0 107 107 180 226 181zM376 132c0 38 -32 62 -74 82l-41 -165c79 0 115 38 115 83zM208 425c0 -33 25 -54 63 -73l40 158c-65 -6 -103 -45 -103 -85z" />
    <glyph glyph-name="sterling.osf" horiz-adv-x="597" 
d="M454 241h-147c-3 -30 -16 -66 -45 -102c14 -5 26 -11 39 -16c51 -19 89 -33 115 -33c40 0 59 19 85 87l52 -11c-34 -130 -76 -181 -157 -181c-68 0 -118 33 -169 74c-5 3 -9 7 -13 10c-34 -53 -77 -82 -125 -82c-59 0 -94 33 -94 79c0 54 51 101 133 101
c26 0 51 -4 74 -9c3 12 4 22 4 30c0 19 -3 37 -8 53h-147l17 69h106c-6 16 -9 33 -9 53c0 120 113 208 246 208c120 0 190 -59 190 -122c0 -44 -32 -84 -80 -84c-37 0 -65 20 -65 58c0 26 18 52 42 63c-10 11 -38 24 -79 24c-81 0 -124 -55 -124 -140c0 -22 4 -40 7 -60h169
zM97 41c27 0 56 19 77 53c-19 9 -40 15 -63 15c-31 0 -50 -18 -50 -39c0 -18 14 -29 36 -29z" />
    <glyph glyph-name="Euro.osf" horiz-adv-x="635" 
d="M424 304h-181c-6 -22 -9 -44 -10 -64h176l-16 -63h-157c14 -82 69 -111 129 -111c68 0 125 42 171 129l59 -30c-44 -100 -127 -181 -254 -181c-121 0 -215 68 -232 192h-100l16 64h83c1 22 4 43 9 64h-77l15 64h85c55 120 174 203 305 203c129 0 197 -73 197 -146
c0 -46 -33 -92 -81 -92c-41 0 -65 27 -65 62s22 61 46 74c-15 20 -47 35 -91 35c-94 0 -154 -63 -187 -137h176z" />
    <glyph glyph-name="yen.osf" horiz-adv-x="639" 
d="M108 328h114l-59 154h-81l18 73h289l-19 -72h-78l69 -199l169 199h-75l18 72h229l-19 -73h-71l-138 -154h107l-15 -63h-148l-42 -48l-4 -14h179l-16 -63h-179l-17 -68h107l-18 -72h-326l18 72h106l17 68h-181l16 63h181l5 17l-18 45h-153z" />
    <glyph glyph-name="space" unicode=" " horiz-adv-x="174" 
 />
    <glyph glyph-name="uni00A0" unicode="&#xa0;" horiz-adv-x="174" 
 />
    <glyph glyph-name="emspace" unicode="&#x2003;" horiz-adv-x="1000" 
 />
    <glyph glyph-name="enspace" unicode="&#x2002;" horiz-adv-x="500" 
 />
    <glyph glyph-name="threeperemspace" unicode="&#x2004;" horiz-adv-x="333" 
 />
    <glyph glyph-name="fourperemspace" unicode="&#x2005;" horiz-adv-x="250" 
 />
    <glyph glyph-name="thinspace" unicode="&#x2009;" horiz-adv-x="133" 
 />
    <glyph glyph-name="hairspace" unicode="&#x200a;" horiz-adv-x="75" 
 />
    <glyph glyph-name="hfjslug" horiz-adv-x="694" 
d="M644 -200h-208l-8 14h-163l-8 -14h-207v303c18 0 32 14 32 32c0 17 -14 32 -32 32v554h100l30 79h334l29 -79h101v-921zM400 563v-172h15v78h38v14h-38v66h43v14h-58zM184 563v-172h15v79h47v-79h15v172h-15v-79h-47v79h-15zM460 394c4 -2 15 -4 21 -4c20 0 31 11 31 36
v137h-16v-137c0 -16 -5 -22 -16 -22c-5 0 -15 3 -20 6v-16zM349 438l-16 31c13 12 23 26 23 42c0 15 -9 31 -27 31c-17 0 -28 -16 -28 -31s6 -24 14 -39c-15 -12 -23 -28 -23 -45c0 -22 13 -39 31 -39c13 0 22 12 27 24h1l12 -24l11 8l-16 30c5 12 10 25 13 39l-13 3
c-2 -9 -6 -21 -9 -30zM523 323v-46h8v13l7 7l16 -20h9l-19 26l18 20h-10l-21 -24v24h-8zM488 292l10 -15h9l-12 17c6 2 10 8 10 15c0 6 -6 14 -16 14h-21v-46h8v15h12zM426 276c15 0 24 11 24 24c0 12 -10 24 -24 24s-23 -12 -23 -24c0 -13 9 -24 23 -24zM370 301l-13 22h-9
l18 -29v-17h8v17l18 29h-9zM193 323v-46h33v7h-25v13h22v7h-22v12h25v7h-33zM132 323v-46h8v32l25 -32h7v46h-8v-32l-25 32h-7zM241 323l15 -47h8l10 34h1l11 -34h8l14 47h-8l-10 -35h-1l-10 35h-8l-11 -35h-1l-10 35h-8zM327 479c-7 13 -12 22 -12 32s6 19 14 19
s13 -9 13 -19c0 -12 -5 -21 -15 -32zM342 423c-3 -10 -11 -21 -18 -21c-10 0 -17 12 -17 27c0 11 6 24 15 33zM488 299h-12v17h11c6 0 10 -3 10 -8s-4 -9 -9 -9zM426 283c-9 0 -15 8 -15 17c0 8 6 17 15 17s16 -9 16 -17c0 -9 -7 -17 -16 -17z" />
    <glyph glyph-name="i.dot" horiz-adv-x="345" 
d="M325 629c0 -40 -33 -88 -86 -88c-35 0 -62 24 -62 64c0 41 31 88 84 88c38 0 64 -24 64 -64zM272 370c0 -78 -81 -217 -81 -275c0 -17 7 -24 20 -24c19 0 41 27 71 101l47 -15c-39 -118 -95 -167 -159 -167c-52 0 -90 34 -90 94c0 95 83 229 83 291c0 16 -6 22 -15 22
c-28 0 -53 -43 -81 -105l-48 20c43 100 96 159 164 159c52 0 89 -37 89 -101z" />
    <glyph glyph-name="acute" unicode="&#xb4;" horiz-adv-x="251" 
d="M276 608l-93 -74h-59l83 134c28 44 47 72 80 72c31 0 51 -27 51 -51c0 -29 -17 -44 -62 -81z" />
    <glyph glyph-name="hungarumlaut" unicode="&#x2dd;" horiz-adv-x="308" 
d="M209 608l-87 -74h-58l76 134c25 45 43 72 75 72c31 0 52 -27 52 -51c0 -30 -14 -44 -58 -81zM379 608l-91 -74h-58l82 134c26 45 47 72 79 72c31 0 49 -26 49 -50c0 -29 -16 -45 -61 -82z" />
    <glyph glyph-name="caron.alt" horiz-adv-x="238" 
d="M256 629l-63 -104h-47l34 160c11 56 30 79 64 79c28 0 50 -22 50 -49c0 -26 -13 -45 -38 -86z" />
    <glyph glyph-name="grave" unicode="`" horiz-adv-x="251" 
d="M261 644l20 -110h-53l-49 75c-26 39 -34 58 -34 80c0 25 21 50 50 50c46 0 55 -39 66 -95z" />
    <glyph glyph-name="circumflex" unicode="&#x2c6;" horiz-adv-x="321" 
d="M96 535l163 189h58l69 -189h-61l-54 90l-108 -90h-67z" />
    <glyph glyph-name="caron" unicode="&#x2c7;" horiz-adv-x="321" 
d="M427 730l-164 -189h-58l-69 189h62l54 -90l107 90h68z" />
    <glyph glyph-name="breve" unicode="&#x2d8;" horiz-adv-x="346" 
d="M266 537c-88 0 -139 59 -115 168h51c0 -56 24 -86 77 -86c47 0 83 32 109 86h54c-26 -108 -93 -168 -176 -168z" />
    <glyph glyph-name="tilde" unicode="&#x2dc;" horiz-adv-x="361" 
d="M206 593c-20 0 -34 -15 -55 -58h-57c30 89 65 143 128 143c66 0 97 -54 130 -54c20 0 34 15 55 58h57c-30 -88 -65 -143 -128 -143c-66 0 -97 54 -130 54z" />
    <glyph glyph-name="macron" unicode="&#xaf;" horiz-adv-x="339" 
d="M117 546l21 84h272l-22 -84h-271z" />
    <glyph glyph-name="dieresis" unicode="&#xa8;" horiz-adv-x="349" 
d="M248 628c0 -36 -30 -80 -77 -80c-31 0 -55 22 -55 58c0 38 28 81 74 81c34 0 58 -22 58 -59zM436 628c0 -36 -30 -80 -77 -80c-31 0 -55 22 -55 58c0 38 28 81 74 81c34 0 58 -22 58 -59z" />
    <glyph glyph-name="dotaccent" unicode="&#x2d9;" horiz-adv-x="201" 
d="M270 617c0 -37 -31 -82 -82 -82c-33 0 -58 22 -58 60c0 39 29 84 79 84c36 0 61 -23 61 -62z" />
    <glyph glyph-name="ring" unicode="&#x2da;" horiz-adv-x="274" 
d="M355 649c0 -65 -50 -121 -123 -121c-67 0 -104 45 -104 94c0 66 50 122 123 122c67 0 104 -44 104 -95zM188 621c0 -30 17 -51 47 -51c40 0 60 46 60 82c0 30 -17 50 -47 50c-40 0 -60 -46 -60 -81z" />
    <glyph glyph-name="commaaccent" unicode="&#x326;" horiz-adv-x="240" 
d="M-77 -337l-15 41c66 24 106 53 121 92l-5 4c-6 -3 -14 -5 -22 -5c-29 0 -53 20 -53 55c0 38 29 79 75 79c49 0 76 -38 76 -86c0 -75 -59 -145 -177 -180z" />
    <glyph glyph-name="cedilla" unicode="&#xb8;" horiz-adv-x="306" 
d="M-60 -164c25 -17 50 -28 83 -28c27 0 46 14 46 36c0 30 -39 42 -88 38l-13 31l114 93h68l-81 -69v-4c50 -9 85 -37 85 -81c0 -51 -41 -98 -124 -98c-40 0 -88 15 -121 42z" />
    <glyph glyph-name="ogonek" unicode="&#x2db;" horiz-adv-x="283" 
d="M146 -209c-31 -21 -69 -37 -111 -37c-63 0 -112 31 -112 90c0 56 42 97 141 158l21 13h71l-27 -19c-95 -74 -114 -105 -114 -137c0 -22 14 -44 51 -44c20 0 41 8 60 20z" />
    </font>
</defs>
</svg>
