<?xml version="1.0" standalone="no"?>
<!DOCTYPE svg PUBLIC "-//W3C//DTD SVG 1.1//EN" "http://www.w3.org/Graphics/SVG/1.1/DTD/svg11.dtd" >
<svg xmlns="http://www.w3.org/2000/svg" xmlns:xlink="http://www.w3.org/1999/xlink" version="1.1">
<metadata>
Created by FontForge 20170812 at Wed Dec  3 17:31:23 2008
 By www-data
Copyright (C) 2004, 2009 Hoefler &#38; Frere-Jones. http://www.typography.com
</metadata>
<defs>
<font id="Sentinel-Semibold" horiz-adv-x="732" >
  <font-face 
    font-family="Sentinel Semibold"
    font-weight="375"
    font-stretch="normal"
    units-per-em="1000"
    panose-1="0 0 0 0 0 0 0 0 0 0"
    ascent="800"
    descent="-200"
    x-height="463"
    cap-height="658"
    bbox="-64 -337 1184 1106"
    underline-thickness="50"
    underline-position="-100"
    stemh="74"
    stemv="116"
    unicode-range="U+0020-FB04"
  />
<missing-glyph horiz-adv-x="500" 
d="M0 -200v1000h500v-1000h-500zM71 750l179 -390l179 390h-358zM50 -76l172 376l-172 376v-752zM450 676l-172 -376l172 -376v752zM250 240l-179 -390h358z" />
    <glyph glyph-name="f_b" unicode="fb" horiz-adv-x="882" 
d="M33 0v74h71v315h-88v69h88v15c0 157 106 222 211 222c37 0 67 -6 90 -17l108 16v-324c31 62 86 101 151 101c54 0 91 -17 119 -46c43 -43 63 -108 63 -193c0 -78 -24 -148 -67 -191c-32 -31 -77 -51 -124 -51c-77 0 -125 40 -157 97l-39 -93h-63v395h-176v-315h67v-74
h-254zM623 62c61 0 96 59 96 169c0 106 -33 165 -96 165c-68 0 -115 -75 -115 -175s51 -159 115 -159zM217 489v-31h179v77h-2c-39 0 -66 21 -66 64c0 11 4 27 10 37c-8 4 -18 6 -34 6c-50 0 -87 -30 -87 -153z" />
    <glyph glyph-name="f_f" unicode="ff" horiz-adv-x="649" 
d="M316 694c69 0 115 -24 136 -57c39 40 93 58 148 58c90 0 136 -41 136 -93c0 -36 -26 -67 -63 -67c-39 0 -66 21 -66 64c0 11 5 27 11 37c-7 4 -16 6 -31 6c-47 0 -79 -31 -79 -146v-38h136v-69h-133v-315h102v-74h-280v74h61v315h-174v-315h61v-74h-246v74h69v315h-88v69
h88v12c0 158 108 224 212 224zM394 458v20c0 17 1 33 3 48c-37 1 -62 23 -62 63c0 14 6 31 13 40c-9 6 -18 12 -40 12c-52 0 -91 -34 -91 -148v-35h177z" />
    <glyph glyph-name="f_h" unicode="fh" horiz-adv-x="908" 
d="M343 0v74h66v315h-189v-315h67v-74h-254v74h71v315h-88v69h88v15c0 157 106 222 211 222c38 0 68 -7 91 -18l120 17v-342c45 80 95 118 166 118c85 0 131 -60 131 -152v-244h70v-74h-248v74h61v216c0 33 -7 59 -23 75c-12 13 -29 19 -51 19c-52 0 -106 -51 -106 -133
v-177h60v-74h-243zM217 489v-31h192v79c-5 -1 -10 -2 -15 -2c-39 0 -66 21 -66 64c0 11 4 27 10 37c-8 4 -18 6 -34 6c-50 0 -87 -30 -87 -153z" />
    <glyph glyph-name="fi" unicode="fi" horiz-adv-x="611" 
d="M399 389h-179v-315h62v-74h-249v74h71v315h-88v69h88v11c0 162 114 226 223 226c102 0 171 -50 171 -107c0 -39 -27 -67 -69 -67c-43 0 -70 24 -70 63c0 16 7 31 15 40c-10 9 -31 17 -58 17c-60 0 -99 -43 -99 -140v-43h299v-384h80v-74h-258v74h61v315z" />
    <glyph glyph-name="f_j" unicode="fj" horiz-adv-x="592" 
d="M516 458v-426c0 -127 -59 -202 -178 -202c-75 0 -124 33 -124 82c0 36 27 69 67 69c42 0 66 -31 66 -62c0 -11 -4 -24 -8 -32c5 -2 13 -3 17 -3c28 0 43 23 43 74v431h-179v-315h62v-74h-249v74h71v315h-88v69h88v11c0 162 114 226 223 226c102 0 171 -50 171 -107
c0 -39 -27 -67 -69 -67c-43 0 -70 24 -70 63c0 16 7 31 15 40c-10 9 -31 17 -58 17c-60 0 -99 -43 -99 -140v-43h299z" />
    <glyph glyph-name="f_k" unicode="fk" horiz-adv-x="880" 
d="M33 0v74h71v315h-88v69h88v15c0 157 106 222 211 222c38 0 68 -7 91 -18l120 17v-465l162 161h-75v73h233v-74h-70l-114 -109l157 -206h52v-74h-234v73h55l-103 142l-63 -61v-81h54v-73h-237v74h66v315h-189v-315h67v-74h-254zM217 489v-31h192v79c-5 -1 -10 -2 -15 -2
c-39 0 -66 21 -66 64c0 11 4 27 10 37c-8 4 -18 6 -34 6c-50 0 -87 -30 -87 -153z" />
    <glyph glyph-name="fl" unicode="fl" horiz-adv-x="625" 
d="M33 0v74h71v315h-88v69h88v15c0 157 106 222 211 222c38 0 68 -7 91 -18l120 17v-620h80v-74h-263v74h66v315h-189v-315h67v-74h-254zM217 489v-31h192v79c-5 -1 -10 -2 -15 -2c-39 0 -66 21 -66 64c0 11 4 27 10 37c-8 4 -18 6 -34 6c-50 0 -87 -30 -87 -153z" />
    <glyph glyph-name="f_f_b" unicode="ffb" horiz-adv-x="1173" 
d="M803 694v-324c32 62 86 101 152 101c54 0 90 -17 119 -46c43 -43 63 -108 63 -193c0 -78 -25 -148 -67 -191c-32 -31 -78 -51 -124 -51c-77 0 -125 40 -157 97l-39 -93h-63v395h-176v-315h66v-74h-244v74h61v315h-174v-315h61v-74h-246v74h69v315h-88v69h88v11
c0 158 108 225 212 225c70 0 116 -24 137 -58c40 41 97 59 153 59c37 0 67 -6 90 -17zM914 62c61 0 96 59 96 169c0 106 -34 165 -96 165c-69 0 -116 -75 -116 -175s51 -159 116 -159zM394 458v15c0 19 1 36 4 53c-37 1 -63 23 -63 63c0 14 6 31 13 40c-9 6 -18 12 -40 12
c-52 0 -91 -34 -91 -148v-35h177zM508 489v-31h179v77h-2c-40 0 -67 21 -67 64c0 11 4 27 11 37c-8 4 -18 6 -34 6c-51 0 -87 -30 -87 -153z" />
    <glyph glyph-name="f_f_h" unicode="ffh" horiz-adv-x="1199" 
d="M633 0v74h67v315h-189v-315h66v-74h-244v74h61v315h-174v-315h61v-74h-246v74h69v315h-88v69h88v11c0 158 108 225 212 225c70 0 116 -24 137 -58c40 41 97 59 153 59c38 0 68 -7 91 -18l119 17v-342c45 80 96 118 166 118c85 0 131 -60 131 -152v-244h71v-74h-248v74h61
v216c0 33 -8 59 -24 75c-12 13 -29 19 -50 19c-52 0 -107 -51 -107 -133v-177h61v-74h-244zM508 489v-31h192v79c-5 -1 -10 -2 -15 -2c-40 0 -67 21 -67 64c0 11 4 27 11 37c-8 4 -18 6 -34 6c-51 0 -87 -30 -87 -153zM394 473c0 19 1 36 4 53c-37 1 -63 23 -63 63
c0 14 6 31 13 40c-9 6 -18 12 -40 12c-52 0 -91 -34 -91 -148v-35h177v15z" />
    <glyph glyph-name="f_f_i" unicode="ffi" horiz-adv-x="902" 
d="M508 501v-43h298v-384h80v-74h-258v74h62v315h-179v-315h61v-74h-239v74h61v315h-174v-315h61v-74h-246v74h69v315h-88v69h88v11c0 158 108 225 212 225c71 0 119 -25 138 -61c43 43 104 62 163 62c102 0 171 -50 171 -107c0 -39 -27 -67 -68 -67c-43 0 -70 24 -70 63
c0 16 7 31 15 40c-10 9 -31 17 -58 17c-61 0 -99 -43 -99 -140zM394 469c0 20 1 39 5 57c-38 0 -64 22 -64 63c0 14 6 31 13 40c-9 6 -18 12 -40 12c-52 0 -91 -34 -91 -148v-35h177v11z" />
    <glyph glyph-name="f_f_j" unicode="ffj" horiz-adv-x="883" 
d="M806 458v-426c0 -127 -58 -202 -177 -202c-75 0 -124 33 -124 82c0 36 27 69 67 69c42 0 65 -31 65 -62c0 -11 -3 -24 -7 -32c5 -2 13 -3 16 -3c29 0 44 23 44 74v431h-179v-315h61v-74h-239v74h61v315h-174v-315h61v-74h-246v74h69v315h-88v69h88v11
c0 158 108 225 212 225c71 0 119 -25 138 -61c43 43 104 62 163 62c102 0 171 -50 171 -107c0 -39 -27 -67 -68 -67c-43 0 -70 24 -70 63c0 16 7 31 15 40c-10 9 -31 17 -58 17c-61 0 -99 -43 -99 -140v-43h298zM394 469c0 20 1 39 5 57c-38 0 -64 22 -64 63
c0 14 6 31 13 40c-9 6 -18 12 -40 12c-52 0 -91 -34 -91 -148v-35h177v11z" />
    <glyph glyph-name="f_f_k" unicode="ffk" horiz-adv-x="1171" 
d="M816 694v-465l162 161h-74v73h233v-74h-70l-115 -109l157 -206h53v-74h-234v73h55l-104 142l-63 -61v-81h54v-73h-237v74h67v315h-189v-315h66v-74h-244v74h61v315h-174v-315h61v-74h-246v74h69v315h-88v69h88v11c0 158 108 225 212 225c70 0 116 -24 137 -58
c40 41 97 59 153 59c38 0 68 -7 91 -18zM508 489v-31h192v79c-5 -1 -10 -2 -15 -2c-40 0 -67 21 -67 64c0 11 4 27 11 37c-8 4 -18 6 -34 6c-51 0 -87 -30 -87 -153zM394 473c0 19 1 36 4 53c-37 1 -63 23 -63 63c0 14 6 31 13 40c-9 6 -18 12 -40 12
c-52 0 -91 -34 -91 -148v-35h177v15z" />
    <glyph glyph-name="f_f_l" unicode="ffl" horiz-adv-x="916" 
d="M633 0v74h67v315h-189v-315h66v-74h-244v74h61v315h-174v-315h61v-74h-246v74h69v315h-88v69h88v11c0 158 108 225 212 225c70 0 116 -24 137 -58c40 41 97 59 153 59c38 0 68 -7 91 -18l119 17v-620h80v-74h-263zM508 489v-31h192v79c-5 -1 -10 -2 -15 -2
c-40 0 -67 21 -67 64c0 11 4 27 11 37c-8 4 -18 6 -34 6c-51 0 -87 -30 -87 -153zM394 458v15c0 19 1 36 4 53c-37 1 -63 23 -63 63c0 14 6 31 13 40c-9 6 -18 12 -40 12c-52 0 -91 -34 -91 -148v-35h177z" />
    <glyph glyph-name=".notdef" horiz-adv-x="500" 
d="M0 -200v1000h500v-1000h-500zM71 750l179 -390l179 390h-358zM50 -76l172 376l-172 376v-752zM450 676l-172 -376l172 -376v752zM250 240l-179 -390h358z" />
    <glyph glyph-name="A" unicode="A" horiz-adv-x="698" 
d="M484 75l-51 147h-232l-52 -147h83v-75h-241v75h72l221 587h128l213 -587h86v-75h-325v75h98zM318 548l-93 -259h185l-88 259h-4z" />
    <glyph glyph-name="B" unicode="B" horiz-adv-x="656" 
d="M28 0v75h102v508h-102v75h316c205 0 254 -78 254 -159c0 -59 -40 -129 -173 -151v-5c137 -12 201 -75 201 -158c0 -97 -62 -185 -279 -185h-319zM259 379h75c100 0 131 44 131 109c0 62 -25 95 -130 95h-76v-204zM259 75h75c118 0 158 34 158 122c0 67 -43 112 -160 112
h-73v-234z" />
    <glyph glyph-name="C" unicode="C" horiz-adv-x="684" 
d="M361 -16c-196 0 -324 147 -324 344c0 194 144 346 314 346c81 0 145 -30 185 -78l19 75h76v-260h-76c-43 121 -106 190 -192 190c-104 0 -181 -74 -181 -265c0 -179 72 -272 198 -272c110 0 173 87 190 199h82c-17 -174 -127 -279 -291 -279z" />
    <glyph glyph-name="D" unicode="D" horiz-adv-x="735" 
d="M28 0v75h102v508h-102v75h289c255 0 381 -130 381 -322c0 -187 -117 -336 -374 -336h-296zM259 74h69c159 0 224 69 224 262c0 174 -67 248 -232 248h-61v-510z" />
    <glyph glyph-name="E" unicode="E" horiz-adv-x="691" 
d="M28 0v75h102v508h-102v75h601v-223h-64c-32 122 -44 149 -124 149h-182v-214h63c66 0 74 10 90 97h64v-264h-64c-14 89 -24 99 -90 99h-63v-228h178c94 0 106 33 137 171h64v-245h-610z" />
    <glyph glyph-name="F" unicode="F" horiz-adv-x="656" 
d="M28 0v75h102v508h-102v75h588v-228h-64c-37 131 -57 154 -137 154h-156v-226h51c66 0 77 12 90 98h64v-268h-64c-11 90 -24 103 -90 103h-51v-216h117v-75h-348z" />
    <glyph glyph-name="G" unicode="G" 
d="M534 86c-37 -61 -96 -102 -182 -102c-187 0 -315 148 -315 346c0 192 146 344 315 344c81 0 143 -31 183 -79l20 76h76v-256h-82c-41 119 -102 186 -186 186c-102 0 -181 -77 -181 -265c0 -173 67 -273 190 -273c60 0 95 30 116 64c18 26 26 74 26 111v22h-117v75h327
v-75h-82v-267h-75z" />
    <glyph glyph-name="H" unicode="H" horiz-adv-x="801" 
d="M28 0v75h102v508h-102v75h324v-75h-93v-207h282v207h-92v75h323v-75h-102v-508h102v-75h-323v75h92v231h-282v-231h93v-75h-324z" />
    <glyph glyph-name="I" unicode="I" horiz-adv-x="413" 
d="M39 0v75h103v508h-103v75h335v-75h-103v-508h103v-75h-335z" />
    <glyph glyph-name="J" unicode="J" horiz-adv-x="569" 
d="M239 -16c-131 0 -217 67 -217 165c0 56 37 97 86 97c40 0 76 -26 76 -78c0 -35 -20 -60 -48 -74c20 -26 56 -39 96 -39c63 0 99 40 99 115v413h-105v75h332v-75h-98v-387c0 -131 -77 -212 -221 -212z" />
    <glyph glyph-name="K" unicode="K" horiz-adv-x="736" 
d="M259 227v-153h90v-74h-321v75h102v508h-102v75h322v-74h-91v-265l259 265h-85v74h270v-75h-82l-193 -191l231 -317h77v-75h-309v74h79l-164 234z" />
    <glyph glyph-name="L" unicode="L" horiz-adv-x="621" 
d="M28 658h337v-74h-106v-510h128c80 0 95 18 143 182h60v-256h-562v75h102v508h-102v75z" />
    <glyph glyph-name="M" unicode="M" horiz-adv-x="955" 
d="M32 0v75h94v508h-94v75h291l156 -452h4l154 452h286v-75h-99v-508h99v-75h-313v75h85v495h-9l-203 -570h-59l-208 570h-9v-495h89v-75h-264z" />
    <glyph glyph-name="N" unicode="N" horiz-adv-x="790" 
d="M561 -13l-345 528h-9v-440h98v-75h-273v75h94v508h-94v75h245l308 -472h9v397h-98v75h273v-75h-94v-596h-114z" />
    <glyph glyph-name="O" unicode="O" 
d="M366 -16c-186 0 -329 140 -329 344c0 201 148 346 329 346c186 0 329 -140 329 -344c0 -202 -148 -346 -329 -346zM367 57c120 0 183 94 183 272s-65 272 -185 272s-183 -95 -183 -272s65 -272 185 -272z" />
    <glyph glyph-name="P" unicode="P" horiz-adv-x="639" 
d="M28 0v75h102v508h-102v75h305c206 0 282 -88 282 -194c0 -100 -68 -201 -275 -201h-81v-188h112v-75h-343zM259 334h71c116 0 143 50 143 129c0 71 -31 121 -143 121h-71v-250z" />
    <glyph glyph-name="Q" unicode="Q" 
d="M366 -14c-186 0 -329 140 -329 342c0 201 148 346 329 346c186 0 329 -140 329 -344c0 -115 -52 -214 -130 -275c31 -59 53 -72 81 -72c33 0 47 21 58 80h58c-8 -112 -53 -173 -136 -173c-76 0 -119 35 -155 113c-33 -11 -69 -17 -105 -17zM223 142c16 66 67 113 141 113
c69 0 112 -41 150 -114c25 45 37 107 37 188c0 178 -65 272 -186 272c-120 0 -183 -95 -183 -272c0 -80 14 -145 41 -187zM367 57c28 0 53 5 75 14c-27 62 -59 106 -105 106c-42 0 -66 -30 -66 -66c0 -29 21 -54 96 -54z" />
    <glyph glyph-name="R" unicode="R" horiz-adv-x="704" 
d="M259 288v-213h102v-75h-333v75h102v508h-102v75h340c200 0 259 -86 259 -169c0 -73 -44 -142 -182 -161v-8c111 -18 146 -70 151 -143l4 -59c3 -36 12 -48 30 -48c16 0 28 14 43 50l50 -20c-20 -66 -58 -112 -127 -112c-79 0 -130 39 -132 137l-1 61
c-1 70 -17 102 -103 102h-101zM259 358h98c95 0 128 40 128 119c0 70 -28 107 -119 107h-107v-226z" />
    <glyph glyph-name="S" unicode="S" horiz-adv-x="599" 
d="M49 -13v240h72c61 -124 110 -172 209 -172c75 0 119 38 119 100c0 72 -77 91 -171 116c-106 28 -221 64 -221 204c0 109 91 199 218 199c62 0 128 -26 164 -71l21 68h75v-230h-72c-52 121 -107 162 -186 162c-65 0 -103 -39 -103 -93c0 -79 81 -97 176 -121
c104 -25 216 -58 216 -195c0 -120 -97 -210 -231 -210c-77 0 -148 29 -187 75l-23 -72h-76z" />
    <glyph glyph-name="T" unicode="T" horiz-adv-x="686" 
d="M168 0v75h111v519h-36c-85 0 -103 -28 -147 -183h-61v247h616v-247h-61c-44 155 -62 183 -147 183h-36v-519h111v-75h-350z" />
    <glyph glyph-name="U" unicode="U" horiz-adv-x="752" 
d="M381 -16c-180 0 -271 90 -271 227v372h-92v75h316v-75h-95v-344c0 -125 59 -171 172 -171c51 0 86 16 113 43c32 32 41 77 41 150v322h-97v75h268v-75h-89v-370c0 -122 -89 -229 -266 -229z" />
    <glyph glyph-name="V" unicode="V" horiz-adv-x="707" 
d="M300 -4l-220 587h-86v75h325v-75h-98l161 -458h8l167 458h-83v75h241v-75h-72l-226 -587h-117z" />
    <glyph glyph-name="W" unicode="W" horiz-adv-x="1024" 
d="M711 584h-104l122 -450h8l133 450h-83v74h241v-75h-72l-190 -587h-126l-113 399l-140 -399h-125l-180 587h-88v75h323v-74h-94l130 -451h8l131 378l-21 73h-84v74h324v-74z" />
    <glyph glyph-name="X" unicode="X" horiz-adv-x="698" 
d="M422 584v74h259v-75h-81l-182 -233l194 -275h82v-75h-315v74h83l-133 198l-150 -198h87v-74h-258v75h80l192 247l-186 261h-82v75h315v-74h-81l123 -184l138 184h-85z" />
    <glyph glyph-name="Y" unicode="Y" horiz-adv-x="660" 
d="M365 345l138 239h-81v74h241v-75h-75l-191 -308v-200h96v-75h-319v75h94v195l-185 313h-76v75h309v-74h-83z" />
    <glyph glyph-name="Z" unicode="Z" horiz-adv-x="640" 
d="M36 0v63l406 521h-183c-80 0 -97 -13 -144 -175h-61v249h544v-63l-405 -521h204c80 0 96 18 143 182h61v-256h-565z" />
    <glyph glyph-name="a" unicode="a" horiz-adv-x="516" 
d="M175 -7c-84 0 -138 49 -138 121c0 32 11 60 34 83c34 34 83 49 181 63c57 8 65 9 65 24v45c0 59 -28 82 -88 82c-27 0 -49 -5 -70 -17c16 -9 27 -28 27 -50c0 -32 -25 -58 -64 -58c-44 0 -67 31 -67 64c0 78 94 121 202 121c120 0 176 -53 176 -150v-224
c0 -22 8 -31 28 -31c13 0 25 13 34 41l41 -19c-22 -66 -57 -93 -112 -93c-48 0 -90 26 -93 88h-5c-28 -59 -88 -90 -151 -90zM229 66c44 0 88 40 88 97v65c-9 -4 -20 -6 -45 -10c-86 -14 -112 -30 -112 -83c0 -40 21 -69 69 -69z" />
    <glyph glyph-name="b" unicode="b" horiz-adv-x="560" 
d="M302 62c60 0 95 59 95 169c0 106 -33 165 -96 165c-68 0 -115 -75 -115 -175s51 -159 116 -159zM75 -6v617h-71v78h187v-319c31 62 86 101 151 101c54 0 91 -17 120 -46c43 -43 62 -108 62 -193c0 -78 -24 -148 -67 -191c-31 -31 -77 -51 -123 -51c-77 0 -125 40 -158 97
l-38 -93h-63z" />
    <glyph glyph-name="c" unicode="c" horiz-adv-x="495" 
d="M267 -10c-148 0 -234 98 -234 234c0 145 103 247 246 247c115 0 187 -74 187 -138c0 -49 -25 -84 -71 -84c-43 0 -68 30 -68 66c0 29 22 53 41 61c-14 21 -42 37 -86 37c-68 0 -123 -63 -123 -178c0 -107 45 -172 132 -172c55 0 97 32 118 93h61
c-22 -102 -94 -166 -203 -166z" />
    <glyph glyph-name="d" unicode="d" horiz-adv-x="569" 
d="M221 -10c-48 0 -90 19 -120 49c-44 44 -65 113 -65 187c0 78 26 152 68 195c33 32 75 50 124 50c67 0 112 -32 141 -80v220h-75v78h192v-615h66v-74h-178v96c-32 -68 -85 -106 -153 -106zM267 64c59 0 107 65 107 168c0 89 -33 166 -107 166c-69 0 -104 -61 -104 -168
c0 -108 43 -166 104 -166z" />
    <glyph glyph-name="e" unicode="e" horiz-adv-x="507" 
d="M474 220h-317c4 -113 51 -159 134 -159c55 0 95 24 120 83h60c-23 -98 -92 -154 -206 -154c-146 0 -232 100 -232 236c0 140 99 245 234 245c146 0 212 -117 207 -251zM261 412c-57 0 -95 -37 -103 -139h200c-6 90 -34 139 -97 139z" />
    <glyph glyph-name="f" unicode="f" horiz-adv-x="358" 
d="M33 0v74h71v315h-88v69h88v20c0 152 102 217 205 217c90 0 137 -41 137 -93c0 -36 -26 -67 -63 -67c-40 0 -66 21 -66 64c0 11 4 27 10 37c-7 4 -16 6 -30 6c-47 0 -80 -31 -80 -146v-38h136v-69h-133v-315h102v-74h-289z" />
    <glyph glyph-name="g" unicode="g" horiz-adv-x="496" 
d="M436 325c0 -97 -77 -151 -193 -151c-21 0 -43 3 -61 3c-32 0 -48 -19 -48 -38c0 -22 17 -37 69 -37h124c113 0 157 -48 157 -116c0 -87 -80 -156 -259 -156c-135 0 -210 41 -210 103c0 43 40 80 102 89v5c-55 15 -78 47 -78 83c0 40 43 79 100 88c-57 21 -93 60 -93 124
c0 92 77 149 194 149c28 0 55 -4 78 -11c27 57 73 97 130 97c48 0 74 -28 74 -63c0 -30 -22 -55 -54 -55c-30 0 -48 19 -48 47c0 3 0 7 1 11c-20 1 -44 -20 -60 -54c46 -26 75 -67 75 -118zM235 -112c94 0 147 27 147 70c0 28 -19 48 -74 48h-116c-58 0 -84 -21 -84 -57
c0 -32 26 -61 127 -61zM244 222c51 0 76 33 76 100c0 60 -29 100 -82 100c-52 0 -77 -31 -77 -101c0 -69 30 -99 83 -99z" />
    <glyph glyph-name="h" unicode="h" horiz-adv-x="593" 
d="M23 0v74h71v537h-71v78h187v-337c45 80 96 118 166 118c85 0 131 -60 131 -152v-244h71v-74h-249v74h62v216c0 33 -8 59 -24 75c-12 13 -29 19 -50 19c-53 0 -107 -51 -107 -133v-177h61v-74h-248z" />
    <glyph glyph-name="i" unicode="i" horiz-adv-x="328" 
d="M168 546c-45 0 -76 30 -76 73c0 44 31 76 76 76s75 -29 75 -73s-30 -76 -75 -76zM36 0v74h80v315h-80v74h197v-389h80v-74h-277z" />
    <glyph glyph-name="j" unicode="j" horiz-adv-x="314" 
d="M173 546c-46 0 -76 30 -76 73c0 44 31 76 76 76s75 -29 75 -73s-30 -76 -75 -76zM60 -170c-75 0 -124 33 -124 82c0 36 27 69 67 69c42 0 65 -31 65 -62c0 -11 -3 -24 -7 -32c5 -2 13 -3 16 -3c29 0 44 23 44 74v431h-83v74h199v-431c0 -127 -58 -202 -177 -202z" />
    <glyph glyph-name="k" unicode="k" horiz-adv-x="564" 
d="M461 389l-115 -109l157 -206h53v-74h-235v73h56l-104 142l-63 -61v-81h54v-73h-241v74h71v537h-71v78h187v-460l162 161h-74v73h233v-74h-70z" />
    <glyph glyph-name="l" unicode="l" horiz-adv-x="316" 
d="M20 0v74h80v537h-80v78h196v-615h80v-74h-276z" />
    <glyph glyph-name="m" unicode="m" horiz-adv-x="881" 
d="M504 350c46 80 98 120 166 120c83 0 126 -60 126 -152v-244h70v-74h-243v74h56v216c0 34 -7 61 -23 77c-11 11 -26 17 -46 17c-46 0 -102 -51 -102 -133v-177h56v-74h-229v74h56v216c0 34 -6 61 -22 77c-12 11 -26 17 -47 17c-47 0 -102 -51 -102 -133v-177h56v-74h-243
v74h70v315h-70v74h182v-119c44 82 98 126 167 126c70 0 114 -40 122 -120z" />
    <glyph glyph-name="n" unicode="n" horiz-adv-x="603" 
d="M33 0v74h70v315h-70v74h182v-119c44 82 96 126 171 126c85 0 131 -60 131 -152v-244h71v-74h-249v74h62v216c0 33 -8 59 -24 75c-12 13 -29 19 -51 19c-52 0 -106 -51 -106 -133v-177h61v-74h-248z" />
    <glyph glyph-name="o" unicode="o" horiz-adv-x="543" 
d="M272 -10c-146 0 -239 97 -239 239s99 242 239 242c145 0 239 -96 239 -238s-99 -243 -239 -243zM276 50c71 0 107 55 107 181c0 127 -42 180 -115 180s-107 -54 -107 -180s41 -181 115 -181z" />
    <glyph glyph-name="p" unicode="p" horiz-adv-x="573" 
d="M312 71c64 0 98 59 98 169c0 105 -39 156 -98 156c-58 0 -110 -71 -110 -168c0 -88 36 -157 110 -157zM20 -157v74h71v472h-71v74h182v-108c32 78 87 116 155 116c49 0 88 -18 118 -48c42 -42 61 -108 61 -184c0 -79 -24 -146 -66 -188c-32 -32 -73 -51 -118 -51
c-69 0 -118 35 -145 82v-165h92v-74h-279z" />
    <glyph glyph-name="q" unicode="q" horiz-adv-x="554" 
d="M265 398c-67 0 -102 -60 -102 -166c0 -109 40 -158 103 -158c59 0 106 65 106 162c0 94 -41 162 -107 162zM367 94c-29 -60 -81 -94 -143 -94c-52 0 -94 18 -126 50c-42 42 -62 110 -62 183c0 72 26 144 68 185c34 34 77 53 126 53c74 0 120 -42 151 -98l40 94h63v-550
h71v-74h-279v74h91v177z" />
    <glyph glyph-name="r" unicode="r" horiz-adv-x="447" 
d="M33 0v74h70v315h-70v74h182v-113c25 81 83 120 140 120c54 0 86 -39 86 -84c0 -41 -29 -74 -68 -74s-69 23 -69 64c0 4 1 9 2 13c-37 0 -69 -42 -86 -100v-215h87v-74h-274z" />
    <glyph glyph-name="s" unicode="s" horiz-adv-x="460" 
d="M41 -9v173h68c31 -69 89 -116 149 -116c49 0 70 23 70 56c0 38 -28 56 -120 80c-111 30 -160 68 -160 145c0 78 65 142 164 142c52 0 96 -19 121 -54l12 54h67v-159h-67c-34 63 -70 103 -128 103c-36 0 -65 -19 -65 -53c0 -37 32 -55 116 -77c105 -28 163 -62 163 -146
c0 -74 -62 -149 -170 -149c-63 0 -111 27 -141 63l-13 -62h-66z" />
    <glyph glyph-name="t" unicode="t" horiz-adv-x="384" 
d="M94 570l115 13v-125h150v-69h-150v-256c0 -44 13 -67 52 -67c29 0 48 26 67 83l51 -18c-24 -99 -76 -141 -152 -141c-90 0 -135 50 -135 139v260h-87v69h89v112z" />
    <glyph glyph-name="u" unicode="u" horiz-adv-x="588" 
d="M217 -8c-85 0 -129 60 -129 153v244h-70v74h187v-290c0 -33 6 -61 23 -77c11 -11 27 -17 48 -17c52 0 106 51 106 132v178h-72v74h189v-389h71v-74h-183v119c-44 -83 -96 -127 -170 -127z" />
    <glyph glyph-name="v" unicode="v" horiz-adv-x="538" 
d="M214 -5l-150 394h-63v74h264v-74h-75l103 -296h4l106 296h-62v74h198v-74h-58l-155 -394h-112z" />
    <glyph glyph-name="w" unicode="w" horiz-adv-x="800" 
d="M550 390h-75l95 -296h4l88 296h-60v73h197v-74h-59l-131 -394h-117l-84 251l-97 -251h-115l-129 394h-63v74h251v-73h-68l90 -297h4l94 248l-16 49h-59v73h250v-73z" />
    <glyph glyph-name="x" unicode="x" horiz-adv-x="524" 
d="M260 391h-65l86 -111l96 111h-60v72h191v-74h-48l-138 -147l136 -168h53v-74h-244v72h65l-86 113l-99 -113h58v-72h-191v74h51l139 148l-137 167h-55v74h248v-72z" />
    <glyph glyph-name="y" unicode="y" horiz-adv-x="530" 
d="M81 -7c42 0 66 -34 66 -67c0 -12 -4 -26 -8 -34c40 7 65 27 96 106l-172 391h-63v74h264v-74h-75l106 -269l106 269h-62v74h197v-74h-58l-159 -377c-55 -129 -111 -182 -198 -182c-69 0 -110 36 -110 90c0 40 29 73 70 73z" />
    <glyph glyph-name="z" unicode="z" horiz-adv-x="479" 
d="M35 0v60l280 342h-102c-67 0 -82 -13 -112 -116h-54v177h401v-60l-281 -343h122c65 0 79 16 107 126h54v-186h-415z" />
    <glyph glyph-name="Aacute" unicode="&#xc1;" horiz-adv-x="698" 
d="M484 75l-51 147h-232l-52 -147h83v-75h-241v75h72l221 587h128l213 -587h86v-75h-325v75h98zM318 548l-93 -259h185l-88 259h-4zM314 736l47 121c20 54 39 84 76 84c29 0 51 -23 51 -49s-14 -46 -48 -81l-69 -75h-57z" />
    <glyph glyph-name="aacute" unicode="&#xe1;" horiz-adv-x="516" 
d="M175 -7c-84 0 -138 49 -138 121c0 32 11 60 34 83c34 34 83 49 181 63c57 8 65 9 65 24v45c0 59 -28 82 -88 82c-27 0 -49 -5 -70 -17c16 -9 27 -28 27 -50c0 -32 -25 -58 -64 -58c-44 0 -67 31 -67 64c0 78 94 121 202 121c120 0 176 -53 176 -150v-224
c0 -22 8 -31 28 -31c13 0 25 13 34 41l41 -19c-22 -66 -57 -93 -112 -93c-48 0 -90 26 -93 88h-5c-28 -59 -88 -90 -151 -90zM229 66c44 0 88 40 88 97v65c-9 -4 -20 -6 -45 -10c-86 -14 -112 -30 -112 -83c0 -40 21 -69 69 -69zM221 534l47 121c20 54 39 84 76 84
c29 0 51 -23 51 -49s-14 -46 -48 -81l-69 -75h-57z" />
    <glyph glyph-name="Abreve" unicode="&#x102;" horiz-adv-x="698" 
d="M484 75l-51 147h-232l-52 -147h83v-75h-241v75h72l221 587h128l213 -587h86v-75h-325v75h98zM350 739c-88 0 -143 59 -146 168h53c14 -54 42 -86 94 -86c51 0 78 32 92 86h53c-1 -109 -58 -168 -146 -168zM318 548l-93 -259h185l-88 259h-4z" />
    <glyph glyph-name="abreve" unicode="&#x103;" horiz-adv-x="516" 
d="M175 -7c-84 0 -138 49 -138 121c0 32 11 60 34 83c34 34 83 49 181 63c57 8 65 9 65 24v45c0 59 -28 82 -88 82c-27 0 -49 -5 -70 -17c16 -9 27 -28 27 -50c0 -32 -25 -58 -64 -58c-44 0 -67 31 -67 64c0 78 94 121 202 121c120 0 176 -53 176 -150v-224
c0 -22 8 -31 28 -31c13 0 25 13 34 41l41 -19c-22 -66 -57 -93 -112 -93c-48 0 -90 26 -93 88h-5c-28 -59 -88 -90 -151 -90zM229 66c44 0 88 40 88 97v65c-9 -4 -20 -6 -45 -10c-86 -14 -112 -30 -112 -83c0 -40 21 -69 69 -69zM257 537c-88 0 -143 59 -146 168h53
c14 -54 42 -86 94 -86c51 0 78 32 92 86h53c-1 -109 -58 -168 -146 -168z" />
    <glyph glyph-name="Acircumflex" unicode="&#xc2;" horiz-adv-x="698" 
d="M484 75l-51 147h-232l-52 -147h83v-75h-241v75h72l221 587h128l213 -587h86v-75h-325v75h98zM204 737l117 189h58l116 -189h-65l-81 90l-80 -90h-65zM318 548l-93 -259h185l-88 259h-4z" />
    <glyph glyph-name="acircumflex" unicode="&#xe2;" horiz-adv-x="516" 
d="M175 -7c-84 0 -138 49 -138 121c0 32 11 60 34 83c34 34 83 49 181 63c57 8 65 9 65 24v45c0 59 -28 82 -88 82c-27 0 -49 -5 -70 -17c16 -9 27 -28 27 -50c0 -32 -25 -58 -64 -58c-44 0 -67 31 -67 64c0 78 94 121 202 121c120 0 176 -53 176 -150v-224
c0 -22 8 -31 28 -31c13 0 25 13 34 41l41 -19c-22 -66 -57 -93 -112 -93c-48 0 -90 26 -93 88h-5c-28 -59 -88 -90 -151 -90zM229 66c44 0 88 40 88 97v65c-9 -4 -20 -6 -45 -10c-86 -14 -112 -30 -112 -83c0 -40 21 -69 69 -69zM111 535l117 189h58l116 -189h-65l-81 90
l-80 -90h-65z" />
    <glyph glyph-name="Adieresis" unicode="&#xc4;" horiz-adv-x="698" 
d="M484 75l-51 147h-232l-52 -147h83v-75h-241v75h72l221 587h128l213 -587h86v-75h-325v75h98zM318 548l-93 -259h185l-88 259h-4zM446 750c-39 0 -67 30 -67 67c0 39 28 70 67 70s67 -30 67 -68c0 -39 -28 -69 -67 -69zM256 750c-39 0 -67 30 -67 67c0 39 28 70 67 70
s66 -30 66 -68c0 -39 -28 -69 -66 -69z" />
    <glyph glyph-name="adieresis" unicode="&#xe4;" horiz-adv-x="516" 
d="M175 -7c-84 0 -138 49 -138 121c0 32 11 60 34 83c34 34 83 49 181 63c57 8 65 9 65 24v45c0 59 -28 82 -88 82c-27 0 -49 -5 -70 -17c16 -9 27 -28 27 -50c0 -32 -25 -58 -64 -58c-44 0 -67 31 -67 64c0 78 94 121 202 121c120 0 176 -53 176 -150v-224
c0 -22 8 -31 28 -31c13 0 25 13 34 41l41 -19c-22 -66 -57 -93 -112 -93c-48 0 -90 26 -93 88h-5c-28 -59 -88 -90 -151 -90zM229 66c44 0 88 40 88 97v65c-9 -4 -20 -6 -45 -10c-86 -14 -112 -30 -112 -83c0 -40 21 -69 69 -69zM353 548c-39 0 -67 30 -67 67
c0 39 28 70 67 70s67 -30 67 -68c0 -39 -28 -69 -67 -69zM163 548c-39 0 -67 30 -67 67c0 39 28 70 67 70s66 -30 66 -68c0 -39 -28 -69 -66 -69z" />
    <glyph glyph-name="AE" unicode="&#xc6;" horiz-adv-x="1019" 
d="M459 299v282h-10l-171 -282h181zM236 232l-95 -158h84v-74h-252v75h76l316 508h-96v75h689v-223h-65c-31 122 -44 149 -124 149h-182v-214h63c66 0 74 10 90 97h64v-264h-64c-14 89 -24 99 -90 99h-63v-228h178c94 0 106 33 137 171h65v-245h-610v75h102v157h-223z" />
    <glyph glyph-name="ae" unicode="&#xe6;" horiz-adv-x="776" 
d="M744 220h-313c3 -113 48 -159 131 -159c55 0 93 24 118 83h61c-24 -98 -91 -154 -203 -154c-97 0 -162 41 -193 110c-36 -74 -103 -107 -167 -107c-87 0 -141 49 -141 121c0 32 11 60 34 83c34 34 83 49 181 63c57 8 65 9 65 24v45c0 59 -28 82 -88 82
c-27 0 -49 -5 -70 -17c16 -9 27 -28 27 -50c0 -32 -25 -58 -64 -58c-44 0 -67 31 -67 64c0 78 94 121 199 121c70 0 116 -20 140 -61c34 39 83 61 146 61c141 0 209 -117 204 -251zM532 412c-57 0 -93 -37 -100 -139h196c-6 90 -33 139 -96 139zM229 66c44 0 88 40 88 97v65
c-9 -4 -20 -6 -45 -10c-86 -14 -112 -30 -112 -83c0 -40 21 -69 69 -69z" />
    <glyph glyph-name="AEacute" unicode="&#x1fc;" horiz-adv-x="1019" 
d="M512 736l47 121c20 54 39 84 76 84c29 0 51 -23 51 -49s-14 -46 -48 -81l-69 -75h-57zM459 299v282h-10l-171 -282h181zM236 232l-95 -158h84v-74h-252v75h76l316 508h-96v75h689v-223h-65c-31 122 -44 149 -124 149h-182v-214h63c66 0 74 10 90 97h64v-264h-64
c-14 89 -24 99 -90 99h-63v-228h178c94 0 106 33 137 171h65v-245h-610v75h102v157h-223z" />
    <glyph glyph-name="aeacute" unicode="&#x1fd;" horiz-adv-x="776" 
d="M744 220h-313c3 -113 48 -159 131 -159c55 0 93 24 118 83h61c-24 -98 -91 -154 -203 -154c-97 0 -162 41 -193 110c-36 -74 -103 -107 -167 -107c-87 0 -141 49 -141 121c0 32 11 60 34 83c34 34 83 49 181 63c57 8 65 9 65 24v45c0 59 -28 82 -88 82
c-27 0 -49 -5 -70 -17c16 -9 27 -28 27 -50c0 -32 -25 -58 -64 -58c-44 0 -67 31 -67 64c0 78 94 121 199 121c70 0 116 -20 140 -61c34 39 83 61 146 61c141 0 209 -117 204 -251zM532 412c-57 0 -93 -37 -100 -139h196c-6 90 -33 139 -96 139zM229 66c44 0 88 40 88 97v65
c-9 -4 -20 -6 -45 -10c-86 -14 -112 -30 -112 -83c0 -40 21 -69 69 -69zM371 534l47 121c20 54 39 84 76 84c29 0 51 -23 51 -49s-14 -46 -48 -81l-69 -75h-57z" />
    <glyph glyph-name="Agrave" unicode="&#xc0;" horiz-adv-x="698" 
d="M484 75l-51 147h-232l-52 -147h83v-75h-241v75h72l221 587h128l213 -587h86v-75h-325v75h98zM318 548l-93 -259h185l-88 259h-4zM388 736h-57l-70 75c-33 35 -47 55 -47 81s22 49 51 49c37 0 56 -31 76 -84z" />
    <glyph glyph-name="agrave" unicode="&#xe0;" horiz-adv-x="516" 
d="M175 -7c-84 0 -138 49 -138 121c0 32 11 60 34 83c34 34 83 49 181 63c57 8 65 9 65 24v45c0 59 -28 82 -88 82c-27 0 -49 -5 -70 -17c16 -9 27 -28 27 -50c0 -32 -25 -58 -64 -58c-44 0 -67 31 -67 64c0 78 94 121 202 121c120 0 176 -53 176 -150v-224
c0 -22 8 -31 28 -31c13 0 25 13 34 41l41 -19c-22 -66 -57 -93 -112 -93c-48 0 -90 26 -93 88h-5c-28 -59 -88 -90 -151 -90zM229 66c44 0 88 40 88 97v65c-9 -4 -20 -6 -45 -10c-86 -14 -112 -30 -112 -83c0 -40 21 -69 69 -69zM295 534h-57l-70 75c-33 35 -47 55 -47 81
s22 49 51 49c37 0 56 -31 76 -84z" />
    <glyph glyph-name="Amacron" unicode="&#x100;" horiz-adv-x="698" 
d="M484 75l-51 147h-232l-52 -147h83v-75h-241v75h72l221 587h128l213 -587h86v-75h-325v75h98zM318 548l-93 -259h185l-88 259h-4zM215 748v84h271v-84h-271z" />
    <glyph glyph-name="amacron" unicode="&#x101;" horiz-adv-x="516" 
d="M175 -7c-84 0 -138 49 -138 121c0 32 11 60 34 83c34 34 83 49 181 63c57 8 65 9 65 24v45c0 59 -28 82 -88 82c-27 0 -49 -5 -70 -17c16 -9 27 -28 27 -50c0 -32 -25 -58 -64 -58c-44 0 -67 31 -67 64c0 78 94 121 202 121c120 0 176 -53 176 -150v-224
c0 -22 8 -31 28 -31c13 0 25 13 34 41l41 -19c-22 -66 -57 -93 -112 -93c-48 0 -90 26 -93 88h-5c-28 -59 -88 -90 -151 -90zM229 66c44 0 88 40 88 97v65c-9 -4 -20 -6 -45 -10c-86 -14 -112 -30 -112 -83c0 -40 21 -69 69 -69zM122 546v84h271v-84h-271z" />
    <glyph glyph-name="Aogonek" unicode="&#x104;" horiz-adv-x="698" 
d="M550 -246c-73 0 -113 39 -113 95c0 51 32 89 96 141l12 10h-159v75h98l-51 147h-232l-52 -147h83v-75h-241v75h72l221 587h128l213 -587h86v-75h-93l-12 -12c-62 -60 -76 -92 -76 -121c0 -33 22 -50 52 -50c23 0 42 10 58 20l22 -42c-31 -23 -70 -41 -112 -41zM318 548
l-93 -259h185l-88 259h-4z" />
    <glyph glyph-name="aogonek" unicode="&#x105;" horiz-adv-x="516" 
d="M408 -246c-73 0 -113 39 -113 95c0 50 29 89 104 148c-37 8 -66 36 -68 86h-5c-28 -59 -88 -90 -151 -90c-84 0 -138 49 -138 121c0 36 16 70 51 95c34 26 80 40 174 52c42 6 53 10 55 21v47c0 59 -28 82 -88 82c-27 0 -49 -5 -70 -17c16 -9 27 -28 27 -50
c0 -32 -25 -58 -64 -58c-44 0 -67 31 -67 64c0 78 94 121 202 121c120 0 176 -53 176 -150v-224c0 -22 8 -31 28 -31c13 0 25 13 34 41l41 -19c-10 -31 -21 -53 -51 -80c-85 -79 -97 -110 -97 -141c0 -33 23 -50 53 -50c22 0 41 10 57 20l23 -42c-31 -23 -70 -41 -113 -41z
M229 66c44 0 88 40 88 97v65c-9 -4 -20 -6 -45 -10c-86 -14 -112 -30 -112 -83c0 -40 21 -69 69 -69z" />
    <glyph glyph-name="Aring" unicode="&#xc5;" horiz-adv-x="698" 
d="M202 222l-53 -147h83v-75h-241v75h72l221 587c-34 17 -51 51 -51 90c0 58 40 108 115 108s116 -49 116 -108c0 -39 -17 -72 -52 -90l213 -587h86v-75h-325v75h98l-50 147h-232zM411 289l-89 259h-4l-93 -259h186zM349 686c33 0 54 30 54 66c0 42 -21 67 -55 67
c-33 0 -54 -25 -54 -67c0 -36 22 -66 55 -66z" />
    <glyph glyph-name="aring" unicode="&#xe5;" horiz-adv-x="516" 
d="M175 -7c-84 0 -138 49 -138 121c0 32 11 60 34 83c34 34 83 49 181 63c57 8 65 9 65 24v45c0 59 -28 82 -88 82c-27 0 -49 -5 -70 -17c16 -9 27 -28 27 -50c0 -32 -25 -58 -64 -58c-44 0 -67 31 -67 64c0 78 94 121 202 121c120 0 176 -53 176 -150v-224
c0 -22 8 -31 28 -31c13 0 25 13 34 41l41 -19c-22 -66 -57 -93 -112 -93c-48 0 -90 26 -93 88h-5c-28 -59 -88 -90 -151 -90zM229 66c44 0 88 40 88 97v65c-9 -4 -20 -6 -45 -10c-86 -14 -112 -30 -112 -83c0 -40 21 -69 69 -69zM257 528c-76 0 -116 50 -116 108
s41 108 116 108s116 -49 116 -108c0 -58 -42 -108 -116 -108zM257 570c34 0 54 26 54 66s-21 67 -54 67s-54 -27 -54 -67s22 -66 54 -66z" />
    <glyph glyph-name="Aringacute" unicode="&#x1fa;" horiz-adv-x="698" 
d="M202 222l-53 -147h83v-75h-241v75h72l221 587c-34 17 -51 51 -51 90c0 58 40 108 115 108s116 -49 116 -108c0 -39 -17 -72 -52 -90l213 -587h86v-75h-325v75h98l-50 147h-232zM411 289l-89 259h-4l-93 -259h186zM306 901l47 121c20 54 39 84 76 84c29 0 51 -23 51 -49
s-14 -46 -48 -81l-69 -75h-57zM349 686c33 0 54 30 54 66c0 42 -21 67 -55 67c-33 0 -54 -25 -54 -67c0 -36 22 -66 55 -66z" />
    <glyph glyph-name="aringacute" unicode="&#x1fb;" horiz-adv-x="516" 
d="M175 -7c-84 0 -138 49 -138 121c0 32 11 60 34 83c34 34 83 49 181 63c57 8 65 9 65 24v45c0 59 -28 82 -88 82c-27 0 -49 -5 -70 -17c16 -9 27 -28 27 -50c0 -32 -25 -58 -64 -58c-44 0 -67 31 -67 64c0 78 94 121 202 121c120 0 176 -53 176 -150v-224
c0 -22 8 -31 28 -31c13 0 25 13 34 41l41 -19c-22 -66 -57 -93 -112 -93c-48 0 -90 26 -93 88h-5c-28 -59 -88 -90 -151 -90zM229 66c44 0 88 40 88 97v65c-9 -4 -20 -6 -45 -10c-86 -14 -112 -30 -112 -83c0 -40 21 -69 69 -69zM218 784l47 121c20 54 39 84 76 84
c29 0 51 -23 51 -49s-14 -46 -48 -81l-69 -75h-57zM255 528c-76 0 -116 50 -116 108s41 108 116 108s116 -49 116 -108c0 -58 -42 -108 -116 -108zM255 570c34 0 54 26 54 66s-21 67 -54 67s-54 -27 -54 -67s22 -66 54 -66z" />
    <glyph glyph-name="Atilde" unicode="&#xc3;" horiz-adv-x="698" 
d="M484 75l-51 147h-232l-52 -147h83v-75h-241v75h72l221 587h128l213 -587h86v-75h-325v75h98zM186 737c10 98 37 140 104 140c55 0 105 -48 136 -48c18 0 27 16 34 55h56c-11 -98 -37 -140 -104 -140c-55 0 -105 48 -136 48c-19 0 -27 -16 -34 -55h-56zM318 548l-93 -259
h185l-88 259h-4z" />
    <glyph glyph-name="atilde" unicode="&#xe3;" horiz-adv-x="516" 
d="M175 -7c-84 0 -138 49 -138 121c0 32 11 60 34 83c34 34 83 49 181 63c57 8 65 9 65 24v45c0 59 -28 82 -88 82c-27 0 -49 -5 -70 -17c16 -9 27 -28 27 -50c0 -32 -25 -58 -64 -58c-44 0 -67 31 -67 64c0 78 94 121 202 121c120 0 176 -53 176 -150v-224
c0 -22 8 -31 28 -31c13 0 25 13 34 41l41 -19c-22 -66 -57 -93 -112 -93c-48 0 -90 26 -93 88h-5c-28 -59 -88 -90 -151 -90zM229 66c44 0 88 40 88 97v65c-9 -4 -20 -6 -45 -10c-86 -14 -112 -30 -112 -83c0 -40 21 -69 69 -69zM93 535c10 98 37 140 104 140
c55 0 105 -48 136 -48c18 0 27 16 34 55h56c-11 -98 -37 -140 -104 -140c-55 0 -105 48 -136 48c-19 0 -27 -16 -34 -55h-56z" />
    <glyph glyph-name="Cacute" unicode="&#x106;" horiz-adv-x="684" 
d="M318 736l47 121c20 54 39 84 76 84c29 0 51 -23 51 -49s-14 -46 -48 -81l-69 -75h-57zM361 -16c-196 0 -324 147 -324 344c0 194 144 346 314 346c81 0 145 -30 185 -78l19 75h76v-260h-76c-43 121 -106 190 -192 190c-104 0 -181 -74 -181 -265c0 -179 72 -272 198 -272
c110 0 173 87 190 199h82c-17 -174 -127 -279 -291 -279z" />
    <glyph glyph-name="cacute" unicode="&#x107;" horiz-adv-x="495" 
d="M235 534l47 121c20 54 39 84 76 84c29 0 51 -23 51 -49s-14 -46 -48 -81l-69 -75h-57zM267 -10c-148 0 -234 98 -234 234c0 145 103 247 246 247c115 0 187 -74 187 -138c0 -49 -25 -84 -71 -84c-43 0 -68 30 -68 66c0 29 22 53 41 61c-14 21 -42 37 -86 37
c-68 0 -123 -63 -123 -178c0 -107 45 -172 132 -172c55 0 97 32 118 93h61c-22 -102 -94 -166 -203 -166z" />
    <glyph glyph-name="Ccaron" unicode="&#x10c;" horiz-adv-x="684" 
d="M327 743l-116 189h65l81 -90l80 90h65l-117 -189h-58zM361 -16c-196 0 -324 147 -324 344c0 194 144 346 314 346c81 0 145 -30 185 -78l19 75h76v-260h-76c-43 121 -106 190 -192 190c-104 0 -181 -74 -181 -265c0 -179 72 -272 198 -272c110 0 173 87 190 199h82
c-17 -174 -127 -279 -291 -279z" />
    <glyph glyph-name="ccaron" unicode="&#x10d;" horiz-adv-x="495" 
d="M244 541l-116 189h65l81 -90l80 90h65l-117 -189h-58zM267 -10c-148 0 -234 98 -234 234c0 145 103 247 246 247c115 0 187 -74 187 -138c0 -49 -25 -84 -71 -84c-43 0 -68 30 -68 66c0 29 22 53 41 61c-14 21 -42 37 -86 37c-68 0 -123 -63 -123 -178
c0 -107 45 -172 132 -172c55 0 97 32 118 93h61c-22 -102 -94 -166 -203 -166z" />
    <glyph glyph-name="Ccedilla" unicode="&#xc7;" horiz-adv-x="684" 
d="M346 -246c-39 0 -82 10 -118 33l26 41c25 -14 51 -20 77 -20c35 0 51 11 51 33c0 23 -27 39 -72 39c-11 0 -20 0 -31 -3l-19 30l81 78c-185 9 -304 153 -304 343c0 194 144 346 314 346c81 0 145 -30 185 -78l19 75h76v-260h-76c-43 121 -106 190 -192 190
c-104 0 -181 -74 -181 -265c0 -179 72 -272 198 -272c110 0 173 87 190 199h82c-16 -157 -107 -258 -245 -276l-49 -49l2 -4c71 -7 106 -42 106 -85c0 -59 -47 -95 -120 -95z" />
    <glyph glyph-name="ccedilla" unicode="&#xe7;" horiz-adv-x="495" 
d="M251 -246c-39 0 -82 10 -118 33l26 41c25 -14 51 -20 77 -20c35 0 51 11 51 33c0 23 -27 39 -72 39c-11 0 -20 0 -31 -3l-19 30l86 83c-138 7 -218 103 -218 234c0 145 103 247 246 247c115 0 187 -74 187 -138c0 -49 -25 -84 -71 -84c-43 0 -68 30 -68 66
c0 29 22 53 41 61c-14 21 -42 37 -86 37c-68 0 -123 -63 -123 -178c0 -107 45 -172 132 -172c55 0 97 32 118 93h61c-18 -85 -71 -143 -150 -160l-57 -58l2 -4c71 -7 106 -42 106 -85c0 -59 -47 -95 -120 -95z" />
    <glyph glyph-name="Cdotaccent" unicode="&#x10a;" horiz-adv-x="684" 
d="M361 -16c-196 0 -324 147 -324 344c0 194 144 346 314 346c81 0 145 -30 185 -78l19 75h76v-260h-76c-43 121 -106 190 -192 190c-104 0 -181 -74 -181 -265c0 -179 72 -272 198 -272c110 0 173 87 190 199h82c-17 -174 -127 -279 -291 -279zM355 737
c-44 0 -72 29 -72 70c0 39 30 72 72 72c43 0 71 -30 71 -71c0 -39 -30 -71 -71 -71z" />
    <glyph glyph-name="cdotaccent" unicode="&#x10b;" horiz-adv-x="495" 
d="M267 -10c-148 0 -234 98 -234 234c0 145 103 247 246 247c115 0 187 -74 187 -138c0 -49 -25 -84 -71 -84c-43 0 -68 30 -68 66c0 29 22 53 41 61c-14 21 -42 37 -86 37c-68 0 -123 -63 -123 -178c0 -107 45 -172 132 -172c55 0 97 32 118 93h61
c-22 -102 -94 -166 -203 -166zM271 535c-44 0 -72 29 -72 70c0 39 30 72 72 72c43 0 71 -30 71 -71c0 -39 -30 -71 -71 -71z" />
    <glyph glyph-name="Dcaron" unicode="&#x10e;" horiz-adv-x="735" 
d="M351 743l-116 189h65l81 -90l80 90h65l-117 -189h-58zM28 0v75h102v508h-102v75h289c255 0 381 -130 381 -322c0 -187 -117 -336 -374 -336h-296zM259 74h69c159 0 224 69 224 262c0 174 -67 248 -232 248h-61v-510z" />
    <glyph glyph-name="dcaron" unicode="&#x10f;" horiz-adv-x="569" 
d="M604 531h-46c-3 42 -6 146 -6 152c-1 60 21 87 56 87c29 0 50 -22 50 -55c0 -19 -6 -39 -18 -75zM221 -10c-48 0 -90 19 -120 49c-44 44 -65 113 -65 187c0 78 26 152 68 195c33 32 75 50 124 50c67 0 112 -32 141 -80v220h-75v78h192v-615h66v-74h-178v96
c-32 -68 -85 -106 -153 -106zM267 64c59 0 107 65 107 168c0 89 -33 166 -107 166c-69 0 -104 -61 -104 -168c0 -108 43 -166 104 -166z" />
    <glyph glyph-name="Dcroat" unicode="&#x110;" horiz-adv-x="735" 
d="M28 0v75h102v232h-102v72h102v204h-102v75h289c255 0 381 -130 381 -322c0 -187 -117 -336 -374 -336h-296zM259 74h69c159 0 224 69 224 262c0 174 -67 248 -232 248h-61v-205h135v-72h-135v-233z" />
    <glyph glyph-name="dcroat" unicode="&#x111;" horiz-adv-x="569" 
d="M221 -10c-48 0 -90 19 -120 49c-44 44 -65 112 -65 186c0 77 26 150 68 193c33 32 75 50 124 50c67 0 112 -32 141 -80v116h-124v59h124v51h-75v75h192v-126h67v-59h-67v-430h66v-74h-178v96c-32 -68 -85 -106 -153 -106zM267 64c59 0 107 64 107 166
c0 89 -33 165 -107 165c-69 0 -104 -60 -104 -166c0 -107 43 -165 104 -165z" />
    <glyph glyph-name="Eacute" unicode="&#xc9;" horiz-adv-x="691" 
d="M333 736l47 121c20 54 39 84 76 84c29 0 51 -23 51 -49s-14 -46 -48 -81l-69 -75h-57zM28 0v75h102v508h-102v75h601v-223h-64c-32 122 -44 149 -124 149h-182v-214h63c66 0 74 10 90 97h64v-264h-64c-14 89 -24 99 -90 99h-63v-228h178c94 0 106 33 137 171h64v-245
h-610z" />
    <glyph glyph-name="eacute" unicode="&#xe9;" horiz-adv-x="507" 
d="M474 220h-317c4 -113 51 -159 134 -159c55 0 95 24 120 83h60c-23 -98 -92 -154 -206 -154c-146 0 -232 100 -232 236c0 140 99 245 234 245c146 0 212 -117 207 -251zM261 412c-57 0 -95 -37 -103 -139h200c-6 90 -34 139 -97 139zM228 534l47 121c20 54 39 84 76 84
c29 0 51 -23 51 -49s-14 -46 -48 -81l-69 -75h-57z" />
    <glyph glyph-name="Ebreve" unicode="&#x114;" horiz-adv-x="691" 
d="M28 0v75h102v508h-102v75h601v-223h-64c-32 122 -44 149 -124 149h-182v-214h63c66 0 74 10 90 97h64v-264h-64c-14 89 -24 99 -90 99h-63v-228h178c94 0 106 33 137 171h64v-245h-610zM369 739c-88 0 -143 59 -146 168h53c14 -54 42 -86 94 -86c51 0 78 32 92 86h53
c-1 -109 -58 -168 -146 -168z" />
    <glyph glyph-name="ebreve" unicode="&#x115;" horiz-adv-x="507" 
d="M474 220h-317c4 -113 51 -159 134 -159c55 0 95 24 120 83h60c-23 -98 -92 -154 -206 -154c-146 0 -232 100 -232 236c0 140 99 245 234 245c146 0 212 -117 207 -251zM264 537c-88 0 -143 59 -146 168h53c14 -54 42 -86 94 -86c51 0 78 32 92 86h53
c-1 -109 -58 -168 -146 -168zM261 412c-57 0 -95 -37 -103 -139h200c-6 90 -34 139 -97 139z" />
    <glyph glyph-name="Ecaron" unicode="&#x11a;" horiz-adv-x="691" 
d="M342 743l-116 189h65l81 -90l80 90h65l-117 -189h-58zM28 0v75h102v508h-102v75h601v-223h-64c-32 122 -44 149 -124 149h-182v-214h63c66 0 74 10 90 97h64v-264h-64c-14 89 -24 99 -90 99h-63v-228h178c94 0 106 33 137 171h64v-245h-610z" />
    <glyph glyph-name="ecaron" unicode="&#x11b;" horiz-adv-x="507" 
d="M474 220h-317c4 -113 51 -159 134 -159c55 0 95 24 120 83h60c-23 -98 -92 -154 -206 -154c-146 0 -232 100 -232 236c0 140 99 245 234 245c146 0 212 -117 207 -251zM237 541l-116 189h65l81 -90l80 90h65l-117 -189h-58zM261 412c-57 0 -95 -37 -103 -139h200
c-6 90 -34 139 -97 139z" />
    <glyph glyph-name="Ecircumflex" unicode="&#xca;" horiz-adv-x="691" 
d="M223 737l117 189h58l116 -189h-65l-81 90l-80 -90h-65zM28 0v75h102v508h-102v75h601v-223h-64c-32 122 -44 149 -124 149h-182v-214h63c66 0 74 10 90 97h64v-264h-64c-14 89 -24 99 -90 99h-63v-228h178c94 0 106 33 137 171h64v-245h-610z" />
    <glyph glyph-name="ecircumflex" unicode="&#xea;" horiz-adv-x="507" 
d="M474 220h-317c4 -113 51 -159 134 -159c55 0 95 24 120 83h60c-23 -98 -92 -154 -206 -154c-146 0 -232 100 -232 236c0 140 99 245 234 245c146 0 212 -117 207 -251zM118 535l117 189h58l116 -189h-65l-81 90l-80 -90h-65zM261 412c-57 0 -95 -37 -103 -139h200
c-6 90 -34 139 -97 139z" />
    <glyph glyph-name="Edieresis" unicode="&#xcb;" horiz-adv-x="691" 
d="M465 750c-39 0 -67 30 -67 67c0 39 28 70 67 70s67 -30 67 -68c0 -39 -28 -69 -67 -69zM275 750c-39 0 -67 30 -67 67c0 39 28 70 67 70s66 -30 66 -68c0 -39 -28 -69 -66 -69zM28 0v75h102v508h-102v75h601v-223h-64c-32 122 -44 149 -124 149h-182v-214h63
c66 0 74 10 90 97h64v-264h-64c-14 89 -24 99 -90 99h-63v-228h178c94 0 106 33 137 171h64v-245h-610z" />
    <glyph glyph-name="edieresis" unicode="&#xeb;" horiz-adv-x="507" 
d="M474 220h-317c4 -113 51 -159 134 -159c55 0 95 24 120 83h60c-23 -98 -92 -154 -206 -154c-146 0 -232 100 -232 236c0 140 99 245 234 245c146 0 212 -117 207 -251zM261 412c-57 0 -95 -37 -103 -139h200c-6 90 -34 139 -97 139zM359 548c-39 0 -67 30 -67 67
c0 39 28 70 67 70s67 -30 67 -68c0 -39 -28 -69 -67 -69zM169 548c-39 0 -67 30 -67 67c0 39 28 70 67 70s66 -30 66 -68c0 -39 -28 -69 -66 -69z" />
    <glyph glyph-name="Edotaccent" unicode="&#x116;" horiz-adv-x="691" 
d="M28 0v75h102v508h-102v75h601v-223h-64c-32 122 -44 149 -124 149h-182v-214h63c66 0 74 10 90 97h64v-264h-64c-14 89 -24 99 -90 99h-63v-228h178c94 0 106 33 137 171h64v-245h-610zM370 737c-44 0 -72 29 -72 70c0 39 30 72 72 72c43 0 71 -30 71 -71
c0 -39 -30 -71 -71 -71z" />
    <glyph glyph-name="edotaccent" unicode="&#x117;" horiz-adv-x="507" 
d="M474 220h-317c4 -113 51 -159 134 -159c55 0 95 24 120 83h60c-23 -98 -92 -154 -206 -154c-146 0 -232 100 -232 236c0 140 99 245 234 245c146 0 212 -117 207 -251zM261 412c-57 0 -95 -37 -103 -139h200c-6 90 -34 139 -97 139zM264 535c-44 0 -72 29 -72 70
c0 39 30 72 72 72c43 0 71 -30 71 -71c0 -39 -30 -71 -71 -71z" />
    <glyph glyph-name="Egrave" unicode="&#xc8;" horiz-adv-x="691" 
d="M28 0v75h102v508h-102v75h601v-223h-64c-32 122 -44 149 -124 149h-182v-214h63c66 0 74 10 90 97h64v-264h-64c-14 89 -24 99 -90 99h-63v-228h178c94 0 106 33 137 171h64v-245h-610zM407 736h-57l-70 75c-33 35 -47 55 -47 81s22 49 51 49c37 0 56 -31 76 -84z" />
    <glyph glyph-name="egrave" unicode="&#xe8;" horiz-adv-x="507" 
d="M474 220h-317c4 -113 51 -159 134 -159c55 0 95 24 120 83h60c-23 -98 -92 -154 -206 -154c-146 0 -232 100 -232 236c0 140 99 245 234 245c146 0 212 -117 207 -251zM261 412c-57 0 -95 -37 -103 -139h200c-6 90 -34 139 -97 139zM302 534h-57l-70 75
c-33 35 -47 55 -47 81s22 49 51 49c37 0 56 -31 76 -84z" />
    <glyph glyph-name="Emacron" unicode="&#x112;" horiz-adv-x="691" 
d="M28 0v75h102v508h-102v75h601v-223h-64c-32 122 -44 149 -124 149h-182v-214h63c66 0 74 10 90 97h64v-264h-64c-14 89 -24 99 -90 99h-63v-228h178c94 0 106 33 137 171h64v-245h-610zM234 748v84h271v-84h-271z" />
    <glyph glyph-name="emacron" unicode="&#x113;" horiz-adv-x="507" 
d="M474 220h-317c4 -113 51 -159 134 -159c55 0 95 24 120 83h60c-23 -98 -92 -154 -206 -154c-146 0 -232 100 -232 236c0 140 99 245 234 245c146 0 212 -117 207 -251zM129 546v84h271v-84h-271zM261 412c-57 0 -95 -37 -103 -139h200c-6 90 -34 139 -97 139z" />
    <glyph glyph-name="Eogonek" unicode="&#x118;" horiz-adv-x="691" 
d="M28 0v75h102v508h-102v75h601v-223h-64c-32 122 -44 149 -124 149h-182v-214h63c66 0 74 10 90 97h64v-264h-64c-14 89 -24 99 -90 99h-63v-228h178c94 0 106 33 137 171h64v-245h-52l-12 -12c-62 -60 -76 -92 -76 -121c0 -33 22 -50 52 -50c23 0 42 10 58 20l22 -42
c-31 -23 -70 -41 -112 -41c-73 0 -113 39 -113 95c0 51 32 89 96 141l12 10h-485z" />
    <glyph glyph-name="eogonek" unicode="&#x119;" horiz-adv-x="507" 
d="M474 220h-317c4 -113 51 -159 134 -159c55 0 95 24 120 83h60c-14 -59 -42 -95 -79 -131l-32 -35c-54 -58 -65 -84 -65 -111c0 -33 23 -50 52 -50c23 0 42 10 58 20l22 -42c-31 -23 -70 -41 -112 -41c-73 0 -113 39 -113 95c0 49 28 84 84 133l12 10
c-11 -1 -22 -2 -29 -2c-152 0 -236 100 -236 236c0 140 99 245 234 245c146 0 212 -117 207 -251zM261 412c-57 0 -95 -37 -103 -139h200c-6 90 -34 139 -97 139z" />
    <glyph glyph-name="Eth" unicode="&#xd0;" horiz-adv-x="735" 
d="M28 0v75h102v230h-102v76h102v202h-102v75h289c255 0 381 -130 381 -322c0 -187 -117 -336 -374 -336h-296zM259 74h69c159 0 224 69 224 262c0 174 -67 248 -232 248h-61v-203h127v-76h-127v-231z" />
    <glyph glyph-name="eth" unicode="&#xf0;" horiz-adv-x="549" 
d="M476 625l-86 -35c70 -83 121 -180 121 -298c0 -191 -96 -302 -249 -302c-139 0 -229 99 -229 233c0 140 87 239 212 239c62 0 109 -28 136 -77c-9 56 -37 114 -76 170l-117 -48l-22 53l103 42c-22 27 -47 53 -71 77l90 12c20 -18 40 -36 60 -56l106 44zM275 50
c69 0 107 58 107 177c0 122 -43 172 -117 172c-70 0 -105 -50 -105 -172c0 -124 41 -177 115 -177z" />
    <glyph glyph-name="Gbreve" unicode="&#x11e;" 
d="M534 86c-37 -61 -96 -102 -182 -102c-187 0 -315 148 -315 346c0 192 146 344 315 344c81 0 143 -31 183 -79l20 76h76v-256h-82c-41 119 -102 186 -186 186c-102 0 -181 -77 -181 -265c0 -173 67 -273 190 -273c60 0 95 30 116 64c18 26 26 74 26 111v22h-117v75h327
v-75h-82v-267h-75zM359 739c-88 0 -143 59 -146 168h53c14 -54 42 -86 94 -86c51 0 78 32 92 86h53c-1 -109 -58 -168 -146 -168z" />
    <glyph glyph-name="gbreve" unicode="&#x11f;" horiz-adv-x="496" 
d="M436 325c0 -97 -77 -151 -193 -151c-21 0 -43 3 -61 3c-32 0 -48 -19 -48 -38c0 -22 17 -37 69 -37h124c113 0 157 -48 157 -116c0 -87 -80 -156 -259 -156c-135 0 -210 41 -210 103c0 43 40 80 102 89v5c-55 15 -78 47 -78 83c0 40 43 79 100 88c-57 21 -93 60 -93 124
c0 92 77 149 194 149c28 0 55 -4 78 -11c27 57 73 97 130 97c48 0 74 -28 74 -63c0 -30 -22 -55 -54 -55c-30 0 -48 19 -48 47c0 3 0 7 1 11c-20 1 -44 -20 -60 -54c46 -26 75 -67 75 -118zM235 -112c94 0 147 27 147 70c0 28 -19 48 -74 48h-116c-58 0 -84 -21 -84 -57
c0 -32 26 -61 127 -61zM237 543c-88 0 -143 59 -146 168h53c14 -54 42 -86 94 -86c51 0 78 32 92 86h53c-1 -109 -58 -168 -146 -168zM244 222c51 0 76 33 76 100c0 60 -29 100 -82 100c-52 0 -77 -31 -77 -101c0 -69 30 -99 83 -99z" />
    <glyph glyph-name="Gcommaaccent" unicode="&#x122;" 
d="M289 -337l-20 39c64 29 94 64 100 105l-6 3c-6 -6 -17 -11 -31 -11c-28 0 -53 24 -53 59c0 38 29 71 70 71c49 0 80 -36 80 -92c0 -75 -40 -133 -140 -174zM534 86c-37 -61 -96 -102 -182 -102c-187 0 -315 148 -315 346c0 192 146 344 315 344c81 0 143 -31 183 -79
l20 76h76v-256h-82c-41 119 -102 186 -186 186c-102 0 -181 -77 -181 -265c0 -173 67 -273 190 -273c60 0 95 30 116 64c18 26 26 74 26 111v22h-117v75h327v-75h-82v-267h-75z" />
    <glyph glyph-name="gcommaaccent" unicode="&#x123;" horiz-adv-x="496" 
d="M436 325c0 -97 -77 -151 -193 -151c-21 0 -43 3 -61 3c-32 0 -48 -19 -48 -38c0 -22 17 -37 69 -37h124c113 0 157 -48 157 -116c0 -87 -80 -156 -259 -156c-135 0 -210 41 -210 103c0 43 40 80 102 89v5c-55 15 -78 47 -78 83c0 40 43 79 100 88c-57 21 -93 60 -93 124
c0 92 77 149 194 149c28 0 55 -4 78 -11c27 57 73 97 130 97c48 0 74 -28 74 -63c0 -30 -22 -55 -54 -55c-30 0 -48 19 -48 47c0 3 0 7 1 11c-20 1 -44 -20 -60 -54c46 -26 75 -67 75 -118zM235 -112c94 0 147 27 147 70c0 28 -19 48 -74 48h-116c-58 0 -84 -21 -84 -57
c0 -32 26 -61 127 -61zM244 222c51 0 76 33 76 100c0 60 -29 100 -82 100c-52 0 -77 -31 -77 -101c0 -69 30 -99 83 -99zM302 803l20 -39c-64 -29 -94 -64 -100 -105l6 -3c6 6 17 11 31 11c28 0 53 -24 53 -59c0 -38 -29 -71 -70 -71c-49 0 -80 36 -80 92
c0 75 40 133 140 174z" />
    <glyph glyph-name="Gdotaccent" unicode="&#x120;" 
d="M534 86c-37 -61 -96 -102 -182 -102c-187 0 -315 148 -315 346c0 192 146 344 315 344c81 0 143 -31 183 -79l20 76h76v-256h-82c-41 119 -102 186 -186 186c-102 0 -181 -77 -181 -265c0 -173 67 -273 190 -273c60 0 95 30 116 64c18 26 26 74 26 111v22h-117v75h327
v-75h-82v-267h-75zM360 737c-44 0 -72 29 -72 70c0 39 30 72 72 72c43 0 71 -30 71 -71c0 -39 -30 -71 -71 -71z" />
    <glyph glyph-name="gdotaccent" unicode="&#x121;" horiz-adv-x="496" 
d="M436 325c0 -97 -77 -151 -193 -151c-21 0 -43 3 -61 3c-32 0 -48 -19 -48 -38c0 -22 17 -37 69 -37h124c113 0 157 -48 157 -116c0 -87 -80 -156 -259 -156c-135 0 -210 41 -210 103c0 43 40 80 102 89v5c-55 15 -78 47 -78 83c0 40 43 79 100 88c-57 21 -93 60 -93 124
c0 92 77 149 194 149c28 0 55 -4 78 -11c27 57 73 97 130 97c48 0 74 -28 74 -63c0 -30 -22 -55 -54 -55c-30 0 -48 19 -48 47c0 3 0 7 1 11c-20 1 -44 -20 -60 -54c46 -26 75 -67 75 -118zM235 -112c94 0 147 27 147 70c0 28 -19 48 -74 48h-116c-58 0 -84 -21 -84 -57
c0 -32 26 -61 127 -61zM244 222c51 0 76 33 76 100c0 60 -29 100 -82 100c-52 0 -77 -31 -77 -101c0 -69 30 -99 83 -99zM237 538c-44 0 -72 29 -72 70c0 39 30 72 72 72c43 0 71 -30 71 -71c0 -39 -30 -71 -71 -71z" />
    <glyph glyph-name="Hbar" unicode="&#x126;" horiz-adv-x="801" 
d="M28 439v68h102v76h-102v75h324v-75h-93v-80h282v80h-92v75h323v-75h-102v-76h102v-68h-102v-364h102v-75h-323v75h92v219h-282v-219h93v-75h-324v75h102v364h-102zM259 363h282v79h-282v-79z" />
    <glyph glyph-name="hbar" unicode="&#x127;" horiz-adv-x="593" 
d="M23 0v74h71v430h-71v59h71v48h-71v78h187v-126h120v-59h-120v-155c45 80 96 118 166 118c85 0 131 -60 131 -152v-241h71v-74h-249v74h62v213c0 32 -8 59 -24 75c-12 13 -29 19 -50 19c-53 0 -107 -51 -107 -133v-174h61v-74h-248z" />
    <glyph glyph-name="Iacute" unicode="&#xcd;" horiz-adv-x="413" 
d="M39 0v75h103v508h-103v75h335v-75h-103v-508h103v-75h-335zM169 736l47 121c20 54 39 84 76 84c29 0 51 -23 51 -49s-14 -46 -48 -81l-69 -75h-57z" />
    <glyph glyph-name="iacute" unicode="&#xed;" horiz-adv-x="328" 
d="M122 534l47 121c20 54 39 84 76 84c29 0 51 -23 51 -49s-14 -46 -48 -81l-69 -75h-57zM36 0v74h80v315h-80v74h197v-389h80v-74h-277z" />
    <glyph glyph-name="Ibreve" unicode="&#x12c;" horiz-adv-x="413" 
d="M39 0v75h103v508h-103v75h335v-75h-103v-508h103v-75h-335zM206 739c-88 0 -143 59 -146 168h53c14 -54 42 -86 94 -86c51 0 78 32 92 86h53c-1 -109 -58 -168 -146 -168z" />
    <glyph glyph-name="ibreve" unicode="&#x12d;" horiz-adv-x="328" 
d="M36 0v74h80v315h-80v74h197v-389h80v-74h-277zM159 537c-88 0 -143 59 -146 168h53c14 -54 42 -86 94 -86c51 0 78 32 92 86h53c-1 -109 -58 -168 -146 -168z" />
    <glyph glyph-name="Icircumflex" unicode="&#xce;" horiz-adv-x="413" 
d="M39 0v75h103v508h-103v75h335v-75h-103v-508h103v-75h-335zM60 737l117 189h58l116 -189h-65l-81 90l-80 -90h-65z" />
    <glyph glyph-name="icircumflex" unicode="&#xee;" horiz-adv-x="328" 
d="M13 535l117 189h58l116 -189h-65l-81 90l-80 -90h-65zM36 0v74h80v315h-80v74h197v-389h80v-74h-277z" />
    <glyph glyph-name="Idieresis" unicode="&#xcf;" horiz-adv-x="413" 
d="M39 0v75h103v508h-103v75h335v-75h-103v-508h103v-75h-335zM301 750c-39 0 -67 30 -67 67c0 39 28 70 67 70s67 -30 67 -68c0 -39 -28 -69 -67 -69zM111 750c-39 0 -67 30 -67 67c0 39 28 70 67 70s66 -30 66 -68c0 -39 -28 -69 -66 -69z" />
    <glyph glyph-name="idieresis" unicode="&#xef;" horiz-adv-x="328" 
d="M254 548c-39 0 -67 30 -67 67c0 39 28 70 67 70s67 -30 67 -68c0 -39 -28 -69 -67 -69zM64 548c-39 0 -67 30 -67 67c0 39 28 70 67 70s66 -30 66 -68c0 -39 -28 -69 -66 -69zM36 0v74h80v315h-80v74h197v-389h80v-74h-277z" />
    <glyph glyph-name="Idotaccent" unicode="&#x130;" horiz-adv-x="413" 
d="M39 0v75h103v508h-103v75h335v-75h-103v-508h103v-75h-335zM206 737c-44 0 -72 29 -72 70c0 39 30 72 72 72c43 0 71 -30 71 -71c0 -39 -30 -71 -71 -71z" />
    <glyph glyph-name="dotlessi" unicode="&#x131;" horiz-adv-x="328" 
d="M36 0v74h80v315h-80v74h197v-389h80v-74h-277z" />
    <glyph glyph-name="Igrave" unicode="&#xcc;" horiz-adv-x="413" 
d="M39 0v75h103v508h-103v75h335v-75h-103v-508h103v-75h-335zM243 736h-57l-70 75c-33 35 -47 55 -47 81s22 49 51 49c37 0 56 -31 76 -84z" />
    <glyph glyph-name="igrave" unicode="&#xec;" horiz-adv-x="328" 
d="M36 0v74h80v315h-80v74h197v-389h80v-74h-277zM196 534h-57l-70 75c-33 35 -47 55 -47 81s22 49 51 49c37 0 56 -31 76 -84z" />
    <glyph glyph-name="Imacron" unicode="&#x12a;" horiz-adv-x="413" 
d="M39 0v75h103v508h-103v75h335v-75h-103v-508h103v-75h-335zM70 748v84h271v-84h-271z" />
    <glyph glyph-name="imacron" unicode="&#x12b;" horiz-adv-x="328" 
d="M36 0v74h80v315h-80v74h197v-389h80v-74h-277zM23 546v84h271v-84h-271z" />
    <glyph glyph-name="Iogonek" unicode="&#x12e;" horiz-adv-x="413" 
d="M39 0v75h103v508h-103v75h335v-75h-103v-508h103v-75h-104l-12 -12c-62 -60 -76 -92 -76 -121c0 -33 22 -50 52 -50c23 0 42 10 58 20l22 -42c-31 -23 -70 -41 -112 -41c-73 0 -113 39 -113 95c0 51 32 89 96 141l12 10h-158z" />
    <glyph glyph-name="iogonek" unicode="&#x12f;" horiz-adv-x="328" 
d="M36 0v74h80v315h-80v74h197v-389h80v-74h-74l-12 -12c-62 -60 -76 -92 -76 -121c0 -33 22 -50 52 -50c23 0 42 10 58 20l22 -42c-31 -23 -70 -41 -112 -41c-73 0 -113 39 -113 95c0 51 32 89 96 141l12 10h-130zM168 546c-45 0 -76 30 -76 73c0 44 31 76 76 76
s75 -29 75 -73s-30 -76 -75 -76z" />
    <glyph glyph-name="Kcommaaccent" unicode="&#x136;" horiz-adv-x="736" 
d="M259 227v-153h90v-74h-321v75h102v508h-102v75h322v-74h-91v-265l259 265h-85v74h270v-75h-82l-193 -191l231 -317h77v-75h-309v74h79l-164 234zM310 -337l-20 39c64 29 94 64 100 105l-6 3c-6 -6 -17 -11 -31 -11c-28 0 -53 24 -53 59c0 38 29 71 70 71
c49 0 80 -36 80 -92c0 -75 -40 -133 -140 -174z" />
    <glyph glyph-name="kcommaaccent" unicode="&#x137;" horiz-adv-x="564" 
d="M461 389l-115 -109l157 -206h53v-74h-235v73h56l-104 142l-63 -61v-81h54v-73h-241v74h71v537h-71v78h187v-460l162 161h-74v73h233v-74h-70zM214 -337l-20 39c64 29 94 64 100 105l-6 3c-6 -6 -17 -11 -31 -11c-28 0 -53 24 -53 59c0 38 29 71 70 71c49 0 80 -36 80 -92
c0 -75 -40 -133 -140 -174z" />
    <glyph glyph-name="Lacute" unicode="&#x139;" horiz-adv-x="621" 
d="M162 736l47 121c20 54 39 84 76 84c29 0 51 -23 51 -49s-14 -46 -48 -81l-69 -75h-57zM28 658h337v-74h-106v-510h128c80 0 95 18 143 182h60v-256h-562v75h102v508h-102v75z" />
    <glyph glyph-name="lacute" unicode="&#x13a;" horiz-adv-x="316" 
d="M108 760l47 121c20 54 39 84 76 84c29 0 51 -23 51 -49s-14 -46 -48 -81l-69 -75h-57zM20 0v74h80v537h-80v78h196v-615h80v-74h-276z" />
    <glyph glyph-name="Lcaron" unicode="&#x13d;" horiz-adv-x="621" 
d="M479 495h-46c-3 42 -6 146 -6 152c-1 60 21 87 56 87c29 0 50 -22 50 -55c0 -19 -6 -39 -18 -75zM28 658h337v-74h-106v-510h128c80 0 95 18 143 182h60v-256h-562v75h102v508h-102v75z" />
    <glyph glyph-name="lcaron" unicode="&#x13e;" horiz-adv-x="316" 
d="M335 525h-46c-3 42 -6 146 -6 152c-1 60 21 87 56 87c29 0 50 -22 50 -55c0 -19 -6 -39 -18 -75zM20 0v74h80v537h-80v78h196v-615h80v-74h-276z" />
    <glyph glyph-name="Lcommaaccent" unicode="&#x13b;" horiz-adv-x="621" 
d="M255 -337l-20 39c64 29 94 64 100 105l-6 3c-6 -6 -17 -11 -31 -11c-28 0 -53 24 -53 59c0 38 29 71 70 71c49 0 80 -36 80 -92c0 -75 -40 -133 -140 -174zM28 658h337v-74h-106v-510h128c80 0 95 18 143 182h60v-256h-562v75h102v508h-102v75z" />
    <glyph glyph-name="lcommaaccent" unicode="&#x13c;" horiz-adv-x="316" 
d="M93 -337l-20 39c64 29 94 64 100 105l-6 3c-6 -6 -17 -11 -31 -11c-28 0 -53 24 -53 59c0 38 29 71 70 71c49 0 80 -36 80 -92c0 -75 -40 -133 -140 -174zM20 0v74h80v537h-80v78h196v-615h80v-74h-276z" />
    <glyph glyph-name="Ldot" unicode="&#x13f;" horiz-adv-x="621" 
d="M28 658h337v-74h-106v-510h128c80 0 95 16 143 165h60v-239h-562v75h102v508h-102v75zM485 302c-43 0 -72 29 -72 69s31 72 72 72c42 0 71 -30 71 -70s-30 -71 -71 -71z" />
    <glyph glyph-name="ldot" unicode="&#x140;" horiz-adv-x="386" 
d="M351 279c-42 0 -69 28 -69 67c0 38 29 69 69 69c41 0 69 -29 69 -68c0 -38 -30 -68 -69 -68zM20 0v74h80v537h-80v78h196v-615h80v-74h-276z" />
    <glyph glyph-name="Lslash" unicode="&#x141;" horiz-adv-x="623" 
d="M29 658h337v-74h-106v-203l166 56v-71l-166 -57v-235h128c80 0 95 18 143 182h60v-256h-562v75h102v190l-84 -28v72l84 28v246h-102v75z" />
    <glyph glyph-name="lslash" unicode="&#x142;" horiz-adv-x="332" 
d="M28 0v74h80v226l-91 -30v65l91 30v246h-80v78h196v-286l95 31v-64l-95 -32v-264h80v-74h-276z" />
    <glyph glyph-name="Nacute" unicode="&#x143;" horiz-adv-x="790" 
d="M363 736l47 121c20 54 39 84 76 84c29 0 51 -23 51 -49s-14 -46 -48 -81l-69 -75h-57zM561 -13l-345 528h-9v-440h98v-75h-273v75h94v508h-94v75h245l308 -472h9v397h-98v75h273v-75h-94v-596h-114z" />
    <glyph glyph-name="nacute" unicode="&#x144;" horiz-adv-x="603" 
d="M278 534l47 121c20 54 39 84 76 84c29 0 51 -23 51 -49s-14 -46 -48 -81l-69 -75h-57zM33 0v74h70v315h-70v74h182v-119c44 82 96 126 171 126c85 0 131 -60 131 -152v-244h71v-74h-249v74h62v216c0 33 -8 59 -24 75c-12 13 -29 19 -51 19c-52 0 -106 -51 -106 -133v-177
h61v-74h-248z" />
    <glyph glyph-name="Ncaron" unicode="&#x147;" horiz-adv-x="790" 
d="M372 743l-116 189h65l81 -90l80 90h65l-117 -189h-58zM561 -13l-345 528h-9v-440h98v-75h-273v75h94v508h-94v75h245l308 -472h9v397h-98v75h273v-75h-94v-596h-114z" />
    <glyph glyph-name="ncaron" unicode="&#x148;" horiz-adv-x="603" 
d="M287 541l-116 189h65l81 -90l80 90h65l-117 -189h-58zM33 0v74h70v315h-70v74h182v-119c44 82 96 126 171 126c85 0 131 -60 131 -152v-244h71v-74h-249v74h62v216c0 33 -8 59 -24 75c-12 13 -29 19 -51 19c-52 0 -106 -51 -106 -133v-177h61v-74h-248z" />
    <glyph glyph-name="Ncommaaccent" unicode="&#x145;" horiz-adv-x="790" 
d="M326 -337l-20 39c64 29 94 64 100 105l-6 3c-6 -6 -17 -11 -31 -11c-28 0 -53 24 -53 59c0 38 29 71 70 71c49 0 80 -36 80 -92c0 -75 -40 -133 -140 -174zM561 -13l-345 528h-9v-440h98v-75h-273v75h94v508h-94v75h245l308 -472h9v397h-98v75h273v-75h-94v-596h-114z
" />
    <glyph glyph-name="ncommaaccent" unicode="&#x146;" horiz-adv-x="603" 
d="M247 -337l-20 39c64 29 94 64 100 105l-6 3c-6 -6 -17 -11 -31 -11c-28 0 -53 24 -53 59c0 38 29 71 70 71c49 0 80 -36 80 -92c0 -75 -40 -133 -140 -174zM33 0v74h70v315h-70v74h182v-119c44 82 96 126 171 126c85 0 131 -60 131 -152v-244h71v-74h-249v74h62v216
c0 33 -8 59 -24 75c-12 13 -29 19 -51 19c-52 0 -106 -51 -106 -133v-177h61v-74h-248z" />
    <glyph glyph-name="Ntilde" unicode="&#xd1;" horiz-adv-x="790" 
d="M561 -13l-345 528h-9v-440h98v-75h-273v75h94v508h-94v75h245l308 -472h9v397h-98v75h273v-75h-94v-596h-114zM235 737c10 98 37 140 104 140c55 0 105 -48 136 -48c18 0 27 16 34 55h56c-11 -98 -37 -140 -104 -140c-55 0 -105 48 -136 48c-19 0 -27 -16 -34 -55h-56z
" />
    <glyph glyph-name="ntilde" unicode="&#xf1;" horiz-adv-x="603" 
d="M33 0v74h70v315h-70v74h182v-119c44 82 96 126 171 126c85 0 131 -60 131 -152v-244h71v-74h-249v74h62v216c0 33 -8 59 -24 75c-12 13 -29 19 -51 19c-52 0 -106 -51 -106 -133v-177h61v-74h-248zM149 535c10 98 37 140 104 140c55 0 105 -48 136 -48c18 0 27 16 34 55
h56c-11 -98 -37 -140 -104 -140c-55 0 -105 48 -136 48c-19 0 -27 -16 -34 -55h-56z" />
    <glyph glyph-name="Oacute" unicode="&#xd3;" 
d="M330 736l47 121c20 54 39 84 76 84c29 0 51 -23 51 -49s-14 -46 -48 -81l-69 -75h-57zM366 -16c-186 0 -329 140 -329 344c0 201 148 346 329 346c186 0 329 -140 329 -344c0 -202 -148 -346 -329 -346zM367 57c120 0 183 94 183 272s-65 272 -185 272
s-183 -95 -183 -272s65 -272 185 -272z" />
    <glyph glyph-name="oacute" unicode="&#xf3;" horiz-adv-x="543" 
d="M235 534l47 121c20 54 39 84 76 84c29 0 51 -23 51 -49s-14 -46 -48 -81l-69 -75h-57zM272 -10c-146 0 -239 97 -239 239s99 242 239 242c145 0 239 -96 239 -238s-99 -243 -239 -243zM276 50c71 0 107 55 107 181c0 127 -42 180 -115 180s-107 -54 -107 -180
s41 -181 115 -181z" />
    <glyph glyph-name="Obreve" unicode="&#x14e;" 
d="M366 -16c-186 0 -329 140 -329 344c0 201 148 346 329 346c186 0 329 -140 329 -344c0 -202 -148 -346 -329 -346zM367 57c120 0 183 94 183 272s-65 272 -185 272s-183 -95 -183 -272s65 -272 185 -272zM366 739c-88 0 -143 59 -146 168h53c14 -54 42 -86 94 -86
c51 0 78 32 92 86h53c-1 -109 -58 -168 -146 -168z" />
    <glyph glyph-name="obreve" unicode="&#x14f;" horiz-adv-x="543" 
d="M272 -10c-146 0 -239 97 -239 239s99 242 239 242c145 0 239 -96 239 -238s-99 -243 -239 -243zM276 50c71 0 107 55 107 181c0 127 -42 180 -115 180s-107 -54 -107 -180s41 -181 115 -181zM271 537c-88 0 -143 59 -146 168h53c14 -54 42 -86 94 -86c51 0 78 32 92 86
h53c-1 -109 -58 -168 -146 -168z" />
    <glyph glyph-name="Ocircumflex" unicode="&#xd4;" 
d="M220 737l117 189h58l116 -189h-65l-81 90l-80 -90h-65zM366 -16c-186 0 -329 140 -329 344c0 201 148 346 329 346c186 0 329 -140 329 -344c0 -202 -148 -346 -329 -346zM367 57c120 0 183 94 183 272s-65 272 -185 272s-183 -95 -183 -272s65 -272 185 -272z" />
    <glyph glyph-name="ocircumflex" unicode="&#xf4;" horiz-adv-x="543" 
d="M125 535l117 189h58l116 -189h-65l-81 90l-80 -90h-65zM272 -10c-146 0 -239 97 -239 239s99 242 239 242c145 0 239 -96 239 -238s-99 -243 -239 -243zM276 50c71 0 107 55 107 181c0 127 -42 180 -115 180s-107 -54 -107 -180s41 -181 115 -181z" />
    <glyph glyph-name="Odieresis" unicode="&#xd6;" 
d="M461 750c-39 0 -67 30 -67 67c0 39 28 70 67 70s67 -30 67 -68c0 -39 -28 -69 -67 -69zM271 750c-39 0 -67 30 -67 67c0 39 28 70 67 70s66 -30 66 -68c0 -39 -28 -69 -66 -69zM366 -16c-186 0 -329 140 -329 344c0 201 148 346 329 346c186 0 329 -140 329 -344
c0 -202 -148 -346 -329 -346zM367 57c120 0 183 94 183 272s-65 272 -185 272s-183 -95 -183 -272s65 -272 185 -272z" />
    <glyph glyph-name="odieresis" unicode="&#xf6;" horiz-adv-x="543" 
d="M366 548c-39 0 -67 30 -67 67c0 39 28 70 67 70s67 -30 67 -68c0 -39 -28 -69 -67 -69zM176 548c-39 0 -67 30 -67 67c0 39 28 70 67 70s66 -30 66 -68c0 -39 -28 -69 -66 -69zM272 -10c-146 0 -239 97 -239 239s99 242 239 242c145 0 239 -96 239 -238
s-99 -243 -239 -243zM276 50c71 0 107 55 107 181c0 127 -42 180 -115 180s-107 -54 -107 -180s41 -181 115 -181z" />
    <glyph glyph-name="OE" unicode="&#x152;" horiz-adv-x="1035" 
d="M418 0c-255 0 -381 130 -381 322c0 187 116 336 374 336h563v-223h-64c-32 122 -44 149 -124 149h-182v-214h63c66 0 74 10 90 97h64v-264h-64c-14 89 -24 99 -90 99h-63v-228h178c94 0 105 33 137 171h64v-245h-565zM415 74h60v510h-69c-158 0 -224 -69 -224 -262
c0 -174 68 -248 233 -248z" />
    <glyph glyph-name="oe" unicode="&#x153;" horiz-adv-x="854" 
d="M822 220h-318c5 -113 51 -159 134 -159c56 0 95 24 120 83h60c-23 -98 -92 -154 -200 -154c-82 0 -140 33 -176 86c-38 -52 -97 -86 -172 -86c-143 0 -237 97 -237 239s99 242 237 242c81 0 140 -31 177 -87c39 55 97 87 170 87c142 0 209 -117 205 -251zM276 50
c71 0 107 55 107 181c0 127 -42 180 -115 180s-107 -54 -107 -180s41 -181 115 -181zM609 412c-58 0 -96 -37 -104 -139h200c-6 90 -33 139 -96 139z" />
    <glyph glyph-name="Ograve" unicode="&#xd2;" 
d="M366 -16c-186 0 -329 140 -329 344c0 201 148 346 329 346c186 0 329 -140 329 -344c0 -202 -148 -346 -329 -346zM367 57c120 0 183 94 183 272s-65 272 -185 272s-183 -95 -183 -272s65 -272 185 -272zM404 736h-57l-70 75c-33 35 -47 55 -47 81s22 49 51 49
c37 0 56 -31 76 -84z" />
    <glyph glyph-name="ograve" unicode="&#xf2;" horiz-adv-x="543" 
d="M272 -10c-146 0 -239 97 -239 239s99 242 239 242c145 0 239 -96 239 -238s-99 -243 -239 -243zM276 50c71 0 107 55 107 181c0 127 -42 180 -115 180s-107 -54 -107 -180s41 -181 115 -181zM309 534h-57l-70 75c-33 35 -47 55 -47 81s22 49 51 49c37 0 56 -31 76 -84z
" />
    <glyph glyph-name="Ohungarumlaut" unicode="&#x150;" 
d="M418 736l50 121c22 53 43 84 79 84c27 0 48 -21 48 -47s-16 -48 -49 -83l-71 -75h-57zM257 736l48 121c21 53 40 84 77 84c28 0 49 -22 49 -47c0 -26 -14 -48 -47 -83l-70 -75h-57zM366 -16c-186 0 -329 140 -329 344c0 201 148 346 329 346c186 0 329 -140 329 -344
c0 -202 -148 -346 -329 -346zM367 57c120 0 183 94 183 272s-65 272 -185 272s-183 -95 -183 -272s65 -272 185 -272z" />
    <glyph glyph-name="ohungarumlaut" unicode="&#x151;" horiz-adv-x="543" 
d="M323 534l50 121c22 53 43 84 79 84c27 0 48 -21 48 -47s-16 -48 -49 -83l-71 -75h-57zM162 534l48 121c21 53 40 84 77 84c28 0 49 -22 49 -47c0 -26 -14 -48 -47 -83l-70 -75h-57zM272 -10c-146 0 -239 97 -239 239s99 242 239 242c145 0 239 -96 239 -238
s-99 -243 -239 -243zM276 50c71 0 107 55 107 181c0 127 -42 180 -115 180s-107 -54 -107 -180s41 -181 115 -181z" />
    <glyph glyph-name="Omacron" unicode="&#x14c;" 
d="M231 748v84h271v-84h-271zM366 -16c-186 0 -329 140 -329 344c0 201 148 346 329 346c186 0 329 -140 329 -344c0 -202 -148 -346 -329 -346zM367 57c120 0 183 94 183 272s-65 272 -185 272s-183 -95 -183 -272s65 -272 185 -272z" />
    <glyph glyph-name="omacron" unicode="&#x14d;" horiz-adv-x="543" 
d="M136 546v84h271v-84h-271zM272 -10c-146 0 -239 97 -239 239s99 242 239 242c145 0 239 -96 239 -238s-99 -243 -239 -243zM276 50c71 0 107 55 107 181c0 127 -42 180 -115 180s-107 -54 -107 -180s41 -181 115 -181z" />
    <glyph glyph-name="Oslash" unicode="&#xd8;" 
d="M139 -34h-91l85 113c-60 61 -96 147 -96 249c0 201 148 346 328 346c66 0 128 -19 179 -51l49 69h91l-85 -113c60 -61 96 -147 96 -249c0 -202 -148 -346 -327 -346c-67 0 -128 18 -180 51zM367 56c121 0 184 94 184 273c0 65 -9 119 -25 161l-282 -386
c31 -32 71 -48 123 -48zM181 329c0 -66 8 -120 25 -162l281 386c-30 33 -71 49 -122 49c-121 0 -184 -95 -184 -273z" />
    <glyph glyph-name="oslash" unicode="&#xf8;" horiz-adv-x="543" 
d="M102 -28h-73l68 86c-41 42 -64 101 -64 172c0 141 99 241 239 241c50 0 94 -12 130 -33l39 51h74l-69 -86c41 -42 65 -101 65 -171c0 -141 -100 -242 -238 -242c-51 0 -95 11 -131 32zM157 231c0 -37 3 -67 9 -92l185 238c-19 25 -48 36 -83 36c-74 0 -111 -56 -111 -182
zM276 49c73 0 110 56 110 182c0 36 -3 66 -10 91l-184 -238c20 -24 48 -35 84 -35z" />
    <glyph glyph-name="Oslashacute" unicode="&#x1fe;" 
d="M139 -34h-91l85 113c-60 61 -96 147 -96 249c0 201 148 346 328 346c66 0 128 -19 179 -51l49 69h91l-85 -113c60 -61 96 -147 96 -249c0 -202 -148 -346 -327 -346c-67 0 -128 18 -180 51zM367 56c121 0 184 94 184 273c0 65 -9 119 -25 161l-282 -386
c31 -32 71 -48 123 -48zM181 329c0 -66 8 -120 25 -162l281 386c-30 33 -71 49 -122 49c-121 0 -184 -95 -184 -273zM330 736l47 121c20 54 39 84 76 84c29 0 51 -23 51 -49s-14 -46 -48 -81l-69 -75h-57z" />
    <glyph glyph-name="oslashacute" unicode="&#x1ff;" horiz-adv-x="543" 
d="M102 -28h-73l68 86c-41 42 -64 101 -64 172c0 141 99 241 239 241c50 0 94 -12 130 -33l39 51h74l-69 -86c41 -42 65 -101 65 -171c0 -141 -100 -242 -238 -242c-51 0 -95 11 -131 32zM157 231c0 -37 3 -67 9 -92l185 238c-19 25 -48 36 -83 36c-74 0 -111 -56 -111 -182
zM276 49c73 0 110 56 110 182c0 36 -3 66 -10 91l-184 -238c20 -24 48 -35 84 -35zM235 534l47 121c20 54 39 84 76 84c29 0 51 -23 51 -49s-14 -46 -48 -81l-69 -75h-57z" />
    <glyph glyph-name="Otilde" unicode="&#xd5;" 
d="M366 -16c-186 0 -329 140 -329 344c0 201 148 346 329 346c186 0 329 -140 329 -344c0 -202 -148 -346 -329 -346zM367 57c120 0 183 94 183 272s-65 272 -185 272s-183 -95 -183 -272s65 -272 185 -272zM201 737c10 98 37 140 104 140c55 0 105 -48 136 -48
c18 0 27 16 34 55h56c-11 -98 -37 -140 -104 -140c-55 0 -105 48 -136 48c-19 0 -27 -16 -34 -55h-56z" />
    <glyph glyph-name="otilde" unicode="&#xf5;" horiz-adv-x="543" 
d="M272 -10c-146 0 -239 97 -239 239s99 242 239 242c145 0 239 -96 239 -238s-99 -243 -239 -243zM276 50c71 0 107 55 107 181c0 127 -42 180 -115 180s-107 -54 -107 -180s41 -181 115 -181zM106 535c10 98 37 140 104 140c55 0 105 -48 136 -48c18 0 27 16 34 55h56
c-11 -98 -37 -140 -104 -140c-55 0 -105 48 -136 48c-19 0 -27 -16 -34 -55h-56z" />
    <glyph glyph-name="Racute" unicode="&#x154;" horiz-adv-x="704" 
d="M321 736l47 121c20 54 39 84 76 84c29 0 51 -23 51 -49s-14 -46 -48 -81l-69 -75h-57zM259 288v-213h102v-75h-333v75h102v508h-102v75h340c200 0 259 -86 259 -169c0 -73 -44 -142 -182 -161v-8c111 -18 146 -70 151 -143l4 -59c3 -36 12 -48 30 -48c16 0 28 14 43 50
l50 -20c-20 -66 -58 -112 -127 -112c-79 0 -130 39 -132 137l-1 61c-1 70 -17 102 -103 102h-101zM259 358h98c95 0 128 40 128 119c0 70 -28 107 -119 107h-107v-226z" />
    <glyph glyph-name="racute" unicode="&#x155;" horiz-adv-x="447" 
d="M206 534l47 121c20 54 39 84 76 84c29 0 51 -23 51 -49s-14 -46 -48 -81l-69 -75h-57zM33 0v74h70v315h-70v74h182v-113c25 81 83 120 140 120c54 0 86 -39 86 -84c0 -41 -29 -74 -68 -74s-69 23 -69 64c0 4 1 9 2 13c-37 0 -69 -42 -86 -100v-215h87v-74h-274z" />
    <glyph glyph-name="Rcaron" unicode="&#x158;" horiz-adv-x="704" 
d="M330 743l-116 189h65l81 -90l80 90h65l-117 -189h-58zM259 288v-213h102v-75h-333v75h102v508h-102v75h340c200 0 259 -86 259 -169c0 -73 -44 -142 -182 -161v-8c111 -18 146 -70 151 -143l4 -59c3 -36 12 -48 30 -48c16 0 28 14 43 50l50 -20
c-20 -66 -58 -112 -127 -112c-79 0 -130 39 -132 137l-1 61c-1 70 -17 102 -103 102h-101zM259 358h98c95 0 128 40 128 119c0 70 -28 107 -119 107h-107v-226z" />
    <glyph glyph-name="rcaron" unicode="&#x159;" horiz-adv-x="447" 
d="M215 541l-116 189h65l81 -90l80 90h65l-117 -189h-58zM33 0v74h70v315h-70v74h182v-113c25 81 83 120 140 120c54 0 86 -39 86 -84c0 -41 -29 -74 -68 -74s-69 23 -69 64c0 4 1 9 2 13c-37 0 -69 -42 -86 -100v-215h87v-74h-274z" />
    <glyph glyph-name="Rcommaaccent" unicode="&#x156;" horiz-adv-x="704" 
d="M302 -337l-20 39c64 29 94 64 100 105l-6 3c-6 -6 -17 -11 -31 -11c-28 0 -53 24 -53 59c0 38 29 71 70 71c49 0 80 -36 80 -92c0 -75 -40 -133 -140 -174zM259 288v-213h102v-75h-333v75h102v508h-102v75h340c200 0 259 -86 259 -169c0 -73 -44 -142 -182 -161v-8
c111 -18 146 -70 151 -143l4 -59c3 -36 12 -48 30 -48c16 0 28 14 43 50l50 -20c-20 -66 -58 -112 -127 -112c-79 0 -130 39 -132 137l-1 61c-1 70 -17 102 -103 102h-101zM259 358h98c95 0 128 40 128 119c0 70 -28 107 -119 107h-107v-226z" />
    <glyph glyph-name="rcommaaccent" unicode="&#x157;" horiz-adv-x="447" 
d="M102 -337l-20 39c64 29 94 64 100 105l-6 3c-6 -6 -17 -11 -31 -11c-28 0 -53 24 -53 59c0 38 29 71 70 71c49 0 80 -36 80 -92c0 -75 -40 -133 -140 -174zM33 0v74h70v315h-70v74h182v-113c25 81 83 120 140 120c54 0 86 -39 86 -84c0 -41 -29 -74 -68 -74
s-69 23 -69 64c0 4 1 9 2 13c-37 0 -69 -42 -86 -100v-215h87v-74h-274z" />
    <glyph glyph-name="Sacute" unicode="&#x15a;" horiz-adv-x="599" 
d="M266 736l47 121c20 54 39 84 76 84c29 0 51 -23 51 -49s-14 -46 -48 -81l-69 -75h-57zM49 -13v240h72c61 -124 110 -172 209 -172c75 0 119 38 119 100c0 72 -77 91 -171 116c-106 28 -221 64 -221 204c0 109 91 199 218 199c62 0 128 -26 164 -71l21 68h75v-230h-72
c-52 121 -107 162 -186 162c-65 0 -103 -39 -103 -93c0 -79 81 -97 176 -121c104 -25 216 -58 216 -195c0 -120 -97 -210 -231 -210c-77 0 -148 29 -187 75l-23 -72h-76z" />
    <glyph glyph-name="sacute" unicode="&#x15b;" horiz-adv-x="460" 
d="M194 534l47 121c20 54 39 84 76 84c29 0 51 -23 51 -49s-14 -46 -48 -81l-69 -75h-57zM41 -9v173h68c31 -69 89 -116 149 -116c49 0 70 23 70 56c0 38 -28 56 -120 80c-111 30 -160 68 -160 145c0 78 65 142 164 142c52 0 96 -19 121 -54l12 54h67v-159h-67
c-34 63 -70 103 -128 103c-36 0 -65 -19 -65 -53c0 -37 32 -55 116 -77c105 -28 163 -62 163 -146c0 -74 -62 -149 -170 -149c-63 0 -111 27 -141 63l-13 -62h-66z" />
    <glyph glyph-name="Scaron" unicode="&#x160;" horiz-adv-x="599" 
d="M275 743l-116 189h65l81 -90l80 90h65l-117 -189h-58zM49 -13v240h72c61 -124 110 -172 209 -172c75 0 119 38 119 100c0 72 -77 91 -171 116c-106 28 -221 64 -221 204c0 109 91 199 218 199c62 0 128 -26 164 -71l21 68h75v-230h-72c-52 121 -107 162 -186 162
c-65 0 -103 -39 -103 -93c0 -79 81 -97 176 -121c104 -25 216 -58 216 -195c0 -120 -97 -210 -231 -210c-77 0 -148 29 -187 75l-23 -72h-76z" />
    <glyph glyph-name="scaron" unicode="&#x161;" horiz-adv-x="460" 
d="M203 541l-116 189h65l81 -90l80 90h65l-117 -189h-58zM41 -9v173h68c31 -69 89 -116 149 -116c49 0 70 23 70 56c0 38 -28 56 -120 80c-111 30 -160 68 -160 145c0 78 65 142 164 142c52 0 96 -19 121 -54l12 54h67v-159h-67c-34 63 -70 103 -128 103
c-36 0 -65 -19 -65 -53c0 -37 32 -55 116 -77c105 -28 163 -62 163 -146c0 -74 -62 -149 -170 -149c-63 0 -111 27 -141 63l-13 -62h-66z" />
    <glyph glyph-name="Scedilla" unicode="&#x15e;" horiz-adv-x="599" 
d="M290 -246c-39 0 -82 10 -118 33l26 41c25 -14 51 -20 77 -20c35 0 51 11 51 33c0 23 -27 39 -72 39c-11 0 -20 0 -31 -3l-19 30l84 81c-58 9 -109 34 -140 71l-23 -72h-76v240h72c61 -124 110 -172 209 -172c75 0 119 38 119 100c0 72 -77 91 -171 116
c-106 28 -221 64 -221 204c0 109 91 199 218 199c62 0 128 -26 164 -71l21 68h75v-230h-72c-52 121 -107 162 -186 162c-65 0 -103 -39 -103 -93c0 -79 81 -97 176 -121c104 -25 216 -58 216 -195c0 -116 -91 -204 -218 -210l-46 -46l2 -4c71 -7 106 -42 106 -85
c0 -59 -47 -95 -120 -95z" />
    <glyph glyph-name="scedilla" unicode="&#x15f;" horiz-adv-x="460" 
d="M219 -246c-39 0 -82 10 -118 33l26 41c25 -14 51 -20 77 -20c35 0 51 11 51 33c0 23 -27 39 -72 39c-11 0 -20 0 -31 -3l-19 30l90 87c-45 8 -80 30 -103 59l-13 -62h-66v173h68c31 -69 89 -116 149 -116c49 0 70 23 70 56c0 38 -28 56 -120 80c-111 30 -160 68 -160 145
c0 78 65 142 164 142c52 0 96 -19 121 -54l12 54h67v-159h-67c-34 63 -70 103 -128 103c-36 0 -65 -19 -65 -53c0 -37 32 -55 116 -77c105 -28 163 -62 163 -146c0 -69 -54 -138 -147 -148l-53 -53l2 -4c71 -7 106 -42 106 -85c0 -59 -47 -95 -120 -95z" />
    <glyph glyph-name="Scommaaccent" unicode="&#x218;" horiz-adv-x="599" 
d="M237 -337l-20 39c64 29 94 64 100 105l-6 3c-6 -6 -17 -11 -31 -11c-28 0 -53 24 -53 59c0 38 29 71 70 71c49 0 80 -36 80 -92c0 -75 -40 -133 -140 -174zM49 -13v240h72c61 -124 110 -172 209 -172c75 0 119 38 119 100c0 72 -77 91 -171 116c-106 28 -221 64 -221 204
c0 109 91 199 218 199c62 0 128 -26 164 -71l21 68h75v-230h-72c-52 121 -107 162 -186 162c-65 0 -103 -39 -103 -93c0 -79 81 -97 176 -121c104 -25 216 -58 216 -195c0 -120 -97 -210 -231 -210c-77 0 -148 29 -187 75l-23 -72h-76z" />
    <glyph glyph-name="scommaaccent" unicode="&#x219;" horiz-adv-x="460" 
d="M165 -337l-20 39c64 29 94 64 100 105l-6 3c-6 -6 -17 -11 -31 -11c-28 0 -53 24 -53 59c0 38 29 71 70 71c49 0 80 -36 80 -92c0 -75 -40 -133 -140 -174zM41 -9v173h68c31 -69 89 -116 149 -116c49 0 70 23 70 56c0 38 -28 56 -120 80c-111 30 -160 68 -160 145
c0 78 65 142 164 142c52 0 96 -19 121 -54l12 54h67v-159h-67c-34 63 -70 103 -128 103c-36 0 -65 -19 -65 -53c0 -37 32 -55 116 -77c105 -28 163 -62 163 -146c0 -74 -62 -149 -170 -149c-63 0 -111 27 -141 63l-13 -62h-66z" />
    <glyph glyph-name="Tcaron" unicode="&#x164;" horiz-adv-x="686" 
d="M316 743l-116 189h65l81 -90l80 90h65l-117 -189h-58zM168 0v75h111v519h-36c-85 0 -103 -28 -147 -183h-61v247h616v-247h-61c-44 155 -62 183 -147 183h-36v-519h111v-75h-350z" />
    <glyph glyph-name="tcaron" unicode="&#x165;" horiz-adv-x="384" 
d="M326 525h-46c-3 42 -6 146 -6 152c-1 60 21 87 56 87c29 0 50 -22 50 -55c0 -19 -6 -39 -18 -75zM94 570l115 13v-125h150v-69h-150v-256c0 -44 13 -67 52 -67c29 0 48 26 67 83l51 -18c-24 -99 -76 -141 -152 -141c-90 0 -135 50 -135 139v260h-87v69h89v112z" />
    <glyph glyph-name="Tcommaaccent" unicode="&#x162;" horiz-adv-x="686" 
d="M277 -337l-20 39c64 29 94 64 100 105l-6 3c-6 -6 -17 -11 -31 -11c-28 0 -53 24 -53 59c0 38 29 71 70 71c49 0 80 -36 80 -92c0 -75 -40 -133 -140 -174zM168 0v75h111v519h-36c-85 0 -103 -28 -147 -183h-61v247h616v-247h-61c-44 155 -62 183 -147 183h-36v-519h111
v-75h-350z" />
    <glyph glyph-name="tcommaaccent" unicode="&#x163;" horiz-adv-x="384" 
d="M142 -337l-20 39c64 29 94 64 100 105l-6 3c-6 -6 -17 -11 -31 -11c-28 0 -53 24 -53 59c0 38 29 71 70 71c49 0 80 -36 80 -92c0 -75 -40 -133 -140 -174zM94 570l115 13v-125h150v-69h-150v-256c0 -44 13 -67 52 -67c29 0 48 26 67 83l51 -18
c-24 -99 -76 -141 -152 -141c-90 0 -135 50 -135 139v260h-87v69h89v112z" />
    <glyph glyph-name="Thorn" unicode="&#xde;" horiz-adv-x="647" 
d="M28 0v75h102v508h-102v75h331v-75h-100v-59h76c207 0 282 -81 282 -183c0 -98 -67 -189 -276 -189h-82v-77h100v-75h-331zM259 224h71c115 0 145 43 145 118c0 65 -32 110 -146 110h-70v-228z" />
    <glyph glyph-name="thorn" unicode="&#xfe;" horiz-adv-x="560" 
d="M4 -157v74h71v694h-71v78h187v-319c31 62 86 101 151 101c54 0 91 -17 120 -46c43 -43 62 -108 62 -193c0 -67 -21 -135 -67 -182c-31 -31 -75 -50 -121 -50c-69 0 -118 34 -145 81v-164h92v-74h-279zM303 64c59 0 94 60 94 169c0 104 -33 163 -96 163
c-68 0 -115 -74 -115 -172s51 -160 117 -160z" />
    <glyph glyph-name="Uacute" unicode="&#xda;" horiz-adv-x="752" 
d="M359 736l47 121c20 54 39 84 76 84c29 0 51 -23 51 -49s-14 -46 -48 -81l-69 -75h-57zM381 -16c-180 0 -271 90 -271 227v372h-92v75h316v-75h-95v-344c0 -125 59 -171 172 -171c51 0 86 16 113 43c32 32 41 77 41 150v322h-97v75h268v-75h-89v-370
c0 -122 -89 -229 -266 -229z" />
    <glyph glyph-name="uacute" unicode="&#xfa;" horiz-adv-x="588" 
d="M248 534l47 121c20 54 39 84 76 84c29 0 51 -23 51 -49s-14 -46 -48 -81l-69 -75h-57zM217 -8c-85 0 -129 60 -129 153v244h-70v74h187v-290c0 -33 6 -61 23 -77c11 -11 27 -17 48 -17c52 0 106 51 106 132v178h-72v74h189v-389h71v-74h-183v119
c-44 -83 -96 -127 -170 -127z" />
    <glyph glyph-name="Ubreve" unicode="&#x16c;" horiz-adv-x="752" 
d="M381 -16c-180 0 -271 90 -271 227v372h-92v75h316v-75h-95v-344c0 -125 59 -171 172 -171c51 0 86 16 113 43c32 32 41 77 41 150v322h-97v75h268v-75h-89v-370c0 -122 -89 -229 -266 -229zM395 739c-88 0 -143 59 -146 168h53c14 -54 42 -86 94 -86c51 0 78 32 92 86h53
c-1 -109 -58 -168 -146 -168z" />
    <glyph glyph-name="ubreve" unicode="&#x16d;" horiz-adv-x="588" 
d="M217 -8c-85 0 -129 60 -129 153v244h-70v74h187v-290c0 -33 6 -61 23 -77c11 -11 27 -17 48 -17c52 0 106 51 106 132v178h-72v74h189v-389h71v-74h-183v119c-44 -83 -96 -127 -170 -127zM284 537c-88 0 -143 59 -146 168h53c14 -54 42 -86 94 -86c51 0 78 32 92 86h53
c-1 -109 -58 -168 -146 -168z" />
    <glyph glyph-name="Ucircumflex" unicode="&#xdb;" horiz-adv-x="752" 
d="M249 737l117 189h58l116 -189h-65l-81 90l-80 -90h-65zM381 -16c-180 0 -271 90 -271 227v372h-92v75h316v-75h-95v-344c0 -125 59 -171 172 -171c51 0 86 16 113 43c32 32 41 77 41 150v322h-97v75h268v-75h-89v-370c0 -122 -89 -229 -266 -229z" />
    <glyph glyph-name="ucircumflex" unicode="&#xfb;" horiz-adv-x="588" 
d="M138 535l117 189h58l116 -189h-65l-81 90l-80 -90h-65zM217 -8c-85 0 -129 60 -129 153v244h-70v74h187v-290c0 -33 6 -61 23 -77c11 -11 27 -17 48 -17c52 0 106 51 106 132v178h-72v74h189v-389h71v-74h-183v119c-44 -83 -96 -127 -170 -127z" />
    <glyph glyph-name="Udieresis" unicode="&#xdc;" horiz-adv-x="752" 
d="M490 750c-39 0 -67 30 -67 67c0 39 28 70 67 70s67 -30 67 -68c0 -39 -28 -69 -67 -69zM300 750c-39 0 -67 30 -67 67c0 39 28 70 67 70s66 -30 66 -68c0 -39 -28 -69 -66 -69zM381 -16c-180 0 -271 90 -271 227v372h-92v75h316v-75h-95v-344c0 -125 59 -171 172 -171
c51 0 86 16 113 43c32 32 41 77 41 150v322h-97v75h268v-75h-89v-370c0 -122 -89 -229 -266 -229z" />
    <glyph glyph-name="udieresis" unicode="&#xfc;" horiz-adv-x="588" 
d="M379 548c-39 0 -67 30 -67 67c0 39 28 70 67 70s67 -30 67 -68c0 -39 -28 -69 -67 -69zM189 548c-39 0 -67 30 -67 67c0 39 28 70 67 70s66 -30 66 -68c0 -39 -28 -69 -66 -69zM217 -8c-85 0 -129 60 -129 153v244h-70v74h187v-290c0 -33 6 -61 23 -77
c11 -11 27 -17 48 -17c52 0 106 51 106 132v178h-72v74h189v-389h71v-74h-183v119c-44 -83 -96 -127 -170 -127z" />
    <glyph glyph-name="Ugrave" unicode="&#xd9;" horiz-adv-x="752" 
d="M381 -16c-180 0 -271 90 -271 227v372h-92v75h316v-75h-95v-344c0 -125 59 -171 172 -171c51 0 86 16 113 43c32 32 41 77 41 150v322h-97v75h268v-75h-89v-370c0 -122 -89 -229 -266 -229zM433 736h-57l-70 75c-33 35 -47 55 -47 81s22 49 51 49c37 0 56 -31 76 -84z
" />
    <glyph glyph-name="ugrave" unicode="&#xf9;" horiz-adv-x="588" 
d="M217 -8c-85 0 -129 60 -129 153v244h-70v74h187v-290c0 -33 6 -61 23 -77c11 -11 27 -17 48 -17c52 0 106 51 106 132v178h-72v74h189v-389h71v-74h-183v119c-44 -83 -96 -127 -170 -127zM322 534h-57l-70 75c-33 35 -47 55 -47 81s22 49 51 49c37 0 56 -31 76 -84z" />
    <glyph glyph-name="Uhungarumlaut" unicode="&#x170;" horiz-adv-x="752" 
d="M381 -16c-180 0 -271 90 -271 227v372h-92v75h316v-75h-95v-344c0 -125 59 -171 172 -171c51 0 86 16 113 43c32 32 41 77 41 150v322h-97v75h268v-75h-89v-370c0 -122 -89 -229 -266 -229zM447 736l50 121c22 53 43 84 79 84c27 0 48 -21 48 -47s-16 -48 -49 -83
l-71 -75h-57zM286 736l48 121c21 53 40 84 77 84c28 0 49 -22 49 -47c0 -26 -14 -48 -47 -83l-70 -75h-57z" />
    <glyph glyph-name="uhungarumlaut" unicode="&#x171;" horiz-adv-x="588" 
d="M217 -8c-85 0 -129 60 -129 153v244h-70v74h187v-290c0 -33 6 -61 23 -77c11 -11 27 -17 48 -17c52 0 106 51 106 132v178h-72v74h189v-389h71v-74h-183v119c-44 -83 -96 -127 -170 -127zM336 534l50 121c22 53 43 84 79 84c27 0 48 -21 48 -47s-16 -48 -49 -83l-71 -75
h-57zM175 534l48 121c21 53 40 84 77 84c28 0 49 -22 49 -47c0 -26 -14 -48 -47 -83l-70 -75h-57z" />
    <glyph glyph-name="Umacron" unicode="&#x16a;" horiz-adv-x="752" 
d="M381 -16c-180 0 -271 90 -271 227v372h-92v75h316v-75h-95v-344c0 -125 59 -171 172 -171c51 0 86 16 113 43c32 32 41 77 41 150v322h-97v75h268v-75h-89v-370c0 -122 -89 -229 -266 -229zM260 748v84h271v-84h-271z" />
    <glyph glyph-name="umacron" unicode="&#x16b;" horiz-adv-x="588" 
d="M217 -8c-85 0 -129 60 -129 153v244h-70v74h187v-290c0 -33 6 -61 23 -77c11 -11 27 -17 48 -17c52 0 106 51 106 132v178h-72v74h189v-389h71v-74h-183v119c-44 -83 -96 -127 -170 -127zM149 546v84h271v-84h-271z" />
    <glyph glyph-name="Uogonek" unicode="&#x172;" horiz-adv-x="752" 
d="M378 -246c-73 0 -113 39 -113 95c0 49 29 87 89 136c-162 8 -244 96 -244 226v372h-92v75h316v-75h-95v-344c0 -125 59 -171 172 -171c51 0 86 16 113 43c32 32 41 77 41 150v322h-97v75h268v-75h-89v-370c0 -110 -72 -207 -214 -225c-61 -60 -75 -92 -75 -121
c0 -33 22 -50 52 -50c23 0 42 10 58 20l22 -42c-31 -23 -70 -41 -112 -41z" />
    <glyph glyph-name="uogonek" unicode="&#x173;" horiz-adv-x="588" 
d="M217 -8c-85 0 -129 60 -129 153v244h-70v74h187v-290c0 -33 6 -61 23 -77c11 -11 27 -17 48 -17c52 0 106 51 106 132v178h-72v74h189v-389h71v-74h-37l-12 -12c-62 -60 -76 -92 -76 -121c0 -33 22 -50 52 -50c23 0 42 10 58 20l22 -42c-31 -23 -70 -41 -112 -41
c-73 0 -113 39 -113 95c0 51 32 89 96 141l12 10h-73v119c-44 -83 -96 -127 -170 -127z" />
    <glyph glyph-name="Uring" unicode="&#x16e;" horiz-adv-x="752" 
d="M395 730c-76 0 -116 50 -116 108s41 108 116 108s116 -49 116 -108c0 -58 -42 -108 -116 -108zM395 772c34 0 54 26 54 66s-21 67 -54 67s-54 -27 -54 -67s22 -66 54 -66zM381 -16c-180 0 -271 90 -271 227v372h-92v75h316v-75h-95v-344c0 -125 59 -171 172 -171
c51 0 86 16 113 43c32 32 41 77 41 150v322h-97v75h268v-75h-89v-370c0 -122 -89 -229 -266 -229z" />
    <glyph glyph-name="uring" unicode="&#x16f;" horiz-adv-x="588" 
d="M284 528c-76 0 -116 50 -116 108s41 108 116 108s116 -49 116 -108c0 -58 -42 -108 -116 -108zM284 570c34 0 54 26 54 66s-21 67 -54 67s-54 -27 -54 -67s22 -66 54 -66zM217 -8c-85 0 -129 60 -129 153v244h-70v74h187v-290c0 -33 6 -61 23 -77c11 -11 27 -17 48 -17
c52 0 106 51 106 132v178h-72v74h189v-389h71v-74h-183v119c-44 -83 -96 -127 -170 -127z" />
    <glyph glyph-name="Wacute" unicode="&#x1e82;" horiz-adv-x="1024" 
d="M711 584h-104l122 -450h8l133 450h-83v74h241v-75h-72l-190 -587h-126l-113 399l-140 -399h-125l-180 587h-88v75h323v-74h-94l130 -451h8l131 378l-21 73h-84v74h324v-74zM506 736l47 121c20 54 39 84 76 84c29 0 51 -23 51 -49s-14 -46 -48 -81l-69 -75h-57z" />
    <glyph glyph-name="wacute" unicode="&#x1e83;" horiz-adv-x="800" 
d="M550 390h-75l95 -296h4l88 296h-60v73h197v-74h-59l-131 -394h-117l-84 251l-97 -251h-115l-129 394h-63v74h251v-73h-68l90 -297h4l94 248l-16 49h-59v73h250v-73zM384 534l47 121c20 54 39 84 76 84c29 0 51 -23 51 -49s-14 -46 -48 -81l-69 -75h-57z" />
    <glyph glyph-name="Wcircumflex" unicode="&#x174;" horiz-adv-x="1024" 
d="M711 584h-104l122 -450h8l133 450h-83v74h241v-75h-72l-190 -587h-126l-113 399l-140 -399h-125l-180 587h-88v75h323v-74h-94l130 -451h8l131 378l-21 73h-84v74h324v-74zM396 737l117 189h58l116 -189h-65l-81 90l-80 -90h-65z" />
    <glyph glyph-name="wcircumflex" unicode="&#x175;" horiz-adv-x="800" 
d="M550 390h-75l95 -296h4l88 296h-60v73h197v-74h-59l-131 -394h-117l-84 251l-97 -251h-115l-129 394h-63v74h251v-73h-68l90 -297h4l94 248l-16 49h-59v73h250v-73zM274 535l117 189h58l116 -189h-65l-81 90l-80 -90h-65z" />
    <glyph glyph-name="Wdieresis" unicode="&#x1e84;" horiz-adv-x="1024" 
d="M711 584h-104l122 -450h8l133 450h-83v74h241v-75h-72l-190 -587h-126l-113 399l-140 -399h-125l-180 587h-88v75h323v-74h-94l130 -451h8l131 378l-21 73h-84v74h324v-74zM638 750c-39 0 -67 30 -67 67c0 39 28 70 67 70s67 -30 67 -68c0 -39 -28 -69 -67 -69zM448 750
c-39 0 -67 30 -67 67c0 39 28 70 67 70s66 -30 66 -68c0 -39 -28 -69 -66 -69z" />
    <glyph glyph-name="wdieresis" unicode="&#x1e85;" horiz-adv-x="800" 
d="M550 390h-75l95 -296h4l88 296h-60v73h197v-74h-59l-131 -394h-117l-84 251l-97 -251h-115l-129 394h-63v74h251v-73h-68l90 -297h4l94 248l-16 49h-59v73h250v-73zM516 548c-39 0 -67 30 -67 67c0 39 28 70 67 70s67 -30 67 -68c0 -39 -28 -69 -67 -69zM326 548
c-39 0 -67 30 -67 67c0 39 28 70 67 70s66 -30 66 -68c0 -39 -28 -69 -66 -69z" />
    <glyph glyph-name="Wgrave" unicode="&#x1e80;" horiz-adv-x="1024" 
d="M711 584h-104l122 -450h8l133 450h-83v74h241v-75h-72l-190 -587h-126l-113 399l-140 -399h-125l-180 587h-88v75h323v-74h-94l130 -451h8l131 378l-21 73h-84v74h324v-74zM580 736h-57l-70 75c-33 35 -47 55 -47 81s22 49 51 49c37 0 56 -31 76 -84z" />
    <glyph glyph-name="wgrave" unicode="&#x1e81;" horiz-adv-x="800" 
d="M550 390h-75l95 -296h4l88 296h-60v73h197v-74h-59l-131 -394h-117l-84 251l-97 -251h-115l-129 394h-63v74h251v-73h-68l90 -297h4l94 248l-16 49h-59v73h250v-73zM458 534h-57l-70 75c-33 35 -47 55 -47 81s22 49 51 49c37 0 56 -31 76 -84z" />
    <glyph glyph-name="Yacute" unicode="&#xdd;" horiz-adv-x="660" 
d="M365 345l138 239h-81v74h241v-75h-75l-191 -308v-200h96v-75h-319v75h94v195l-185 313h-76v75h309v-74h-83zM319 736l47 121c20 54 39 84 76 84c29 0 51 -23 51 -49s-14 -46 -48 -81l-69 -75h-57z" />
    <glyph glyph-name="yacute" unicode="&#xfd;" horiz-adv-x="530" 
d="M81 -7c42 0 66 -34 66 -67c0 -12 -4 -26 -8 -34c40 7 65 27 96 106l-172 391h-63v74h264v-74h-75l106 -269l106 269h-62v74h197v-74h-58l-159 -377c-55 -129 -111 -182 -198 -182c-69 0 -110 36 -110 90c0 40 29 73 70 73zM247 534l47 121c20 54 39 84 76 84
c29 0 51 -23 51 -49s-14 -46 -48 -81l-69 -75h-57z" />
    <glyph glyph-name="Ycircumflex" unicode="&#x176;" horiz-adv-x="660" 
d="M365 345l138 239h-81v74h241v-75h-75l-191 -308v-200h96v-75h-319v75h94v195l-185 313h-76v75h309v-74h-83zM209 737l117 189h58l116 -189h-65l-81 90l-80 -90h-65z" />
    <glyph glyph-name="ycircumflex" unicode="&#x177;" horiz-adv-x="530" 
d="M81 -7c42 0 66 -34 66 -67c0 -12 -4 -26 -8 -34c40 7 65 27 96 106l-172 391h-63v74h264v-74h-75l106 -269l106 269h-62v74h197v-74h-58l-159 -377c-55 -129 -111 -182 -198 -182c-69 0 -110 36 -110 90c0 40 29 73 70 73zM137 535l117 189h58l116 -189h-65l-81 90
l-80 -90h-65z" />
    <glyph glyph-name="Ydieresis" unicode="&#x178;" horiz-adv-x="660" 
d="M365 345l138 239h-81v74h241v-75h-75l-191 -308v-200h96v-75h-319v75h94v195l-185 313h-76v75h309v-74h-83zM451 750c-39 0 -67 30 -67 67c0 39 28 70 67 70s67 -30 67 -68c0 -39 -28 -69 -67 -69zM261 750c-39 0 -67 30 -67 67c0 39 28 70 67 70s66 -30 66 -68
c0 -39 -28 -69 -66 -69z" />
    <glyph glyph-name="ydieresis" unicode="&#xff;" horiz-adv-x="530" 
d="M81 -7c42 0 66 -34 66 -67c0 -12 -4 -26 -8 -34c40 7 65 27 96 106l-172 391h-63v74h264v-74h-75l106 -269l106 269h-62v74h197v-74h-58l-159 -377c-55 -129 -111 -182 -198 -182c-69 0 -110 36 -110 90c0 40 29 73 70 73zM379 548c-39 0 -67 30 -67 67c0 39 28 70 67 70
s67 -30 67 -68c0 -39 -28 -69 -67 -69zM189 548c-39 0 -67 30 -67 67c0 39 28 70 67 70s66 -30 66 -68c0 -39 -28 -69 -66 -69z" />
    <glyph glyph-name="Ygrave" unicode="&#x1ef2;" horiz-adv-x="660" 
d="M365 345l138 239h-81v74h241v-75h-75l-191 -308v-200h96v-75h-319v75h94v195l-185 313h-76v75h309v-74h-83zM393 736h-57l-70 75c-33 35 -47 55 -47 81s22 49 51 49c37 0 56 -31 76 -84z" />
    <glyph glyph-name="ygrave" unicode="&#x1ef3;" horiz-adv-x="530" 
d="M81 -7c42 0 66 -34 66 -67c0 -12 -4 -26 -8 -34c40 7 65 27 96 106l-172 391h-63v74h264v-74h-75l106 -269l106 269h-62v74h197v-74h-58l-159 -377c-55 -129 -111 -182 -198 -182c-69 0 -110 36 -110 90c0 40 29 73 70 73zM321 534h-57l-70 75c-33 35 -47 55 -47 81
s22 49 51 49c37 0 56 -31 76 -84z" />
    <glyph glyph-name="Zacute" unicode="&#x179;" horiz-adv-x="640" 
d="M291 736l47 121c20 54 39 84 76 84c29 0 51 -23 51 -49s-14 -46 -48 -81l-69 -75h-57zM36 0v63l406 521h-183c-80 0 -97 -13 -144 -175h-61v249h544v-63l-405 -521h204c80 0 96 18 143 182h61v-256h-565z" />
    <glyph glyph-name="zacute" unicode="&#x17a;" horiz-adv-x="479" 
d="M217 534l47 121c20 54 39 84 76 84c29 0 51 -23 51 -49s-14 -46 -48 -81l-69 -75h-57zM35 0v60l280 342h-102c-67 0 -82 -13 -112 -116h-54v177h401v-60l-281 -343h122c65 0 79 16 107 126h54v-186h-415z" />
    <glyph glyph-name="Zcaron" unicode="&#x17d;" horiz-adv-x="640" 
d="M300 743l-116 189h65l81 -90l80 90h65l-117 -189h-58zM36 0v63l406 521h-183c-80 0 -97 -13 -144 -175h-61v249h544v-63l-405 -521h204c80 0 96 18 143 182h61v-256h-565z" />
    <glyph glyph-name="zcaron" unicode="&#x17e;" horiz-adv-x="479" 
d="M226 541l-116 189h65l81 -90l80 90h65l-117 -189h-58zM35 0v60l280 342h-102c-67 0 -82 -13 -112 -116h-54v177h401v-60l-281 -343h122c65 0 79 16 107 126h54v-186h-415z" />
    <glyph glyph-name="Zdotaccent" unicode="&#x17b;" horiz-adv-x="640" 
d="M36 0v63l406 521h-183c-80 0 -97 -13 -144 -175h-61v249h544v-63l-405 -521h204c80 0 96 18 143 182h61v-256h-565zM328 737c-44 0 -72 29 -72 70c0 39 30 72 72 72c43 0 71 -30 71 -71c0 -39 -30 -71 -71 -71z" />
    <glyph glyph-name="zdotaccent" unicode="&#x17c;" horiz-adv-x="479" 
d="M35 0v60l280 342h-102c-67 0 -82 -13 -112 -116h-54v177h401v-60l-281 -343h122c65 0 79 16 107 126h54v-186h-415zM253 535c-44 0 -72 29 -72 70c0 39 30 72 72 72c43 0 71 -30 71 -71c0 -39 -30 -71 -71 -71z" />
    <glyph glyph-name="schwa" unicode="&#x259;" horiz-adv-x="507" 
d="M239 -10c-146 0 -212 117 -207 251h317c-4 112 -52 159 -134 159c-55 0 -95 -24 -120 -83h-60c23 98 92 154 206 154c146 0 232 -100 232 -236c0 -140 -99 -245 -234 -245zM245 49c57 0 95 37 102 139h-199c6 -90 34 -139 97 -139z" />
    <glyph glyph-name="germandbls" unicode="&#xdf;" horiz-adv-x="599" 
d="M421 -9c-87 0 -148 39 -148 101c0 32 21 62 59 62c36 0 57 -28 57 -60c0 -15 -6 -30 -15 -39c13 -10 29 -14 51 -14c40 0 66 26 66 63c0 32 -25 62 -89 100c-75 43 -108 72 -108 132c0 33 18 63 52 98c39 43 59 72 59 116c0 53 -33 89 -87 89c-66 0 -98 -40 -98 -130
v-509h-187v74h71v315h-88v69h88v9c0 166 106 228 222 228c115 0 190 -61 190 -139c0 -55 -32 -85 -82 -119c-42 -29 -52 -42 -52 -63c0 -26 21 -37 86 -77c62 -38 118 -79 118 -152c0 -82 -62 -154 -165 -154z" />
    <glyph glyph-name="zero" unicode="0" horiz-adv-x="585" 
d="M292 -16c-159 0 -253 137 -253 331s100 335 254 335c159 0 254 -137 254 -331c0 -195 -100 -335 -255 -335zM294 52c84 0 117 86 117 265s-39 265 -120 265c-83 0 -117 -86 -117 -265s39 -265 120 -265z" />
    <glyph glyph-name="one" unicode="1" horiz-adv-x="480" 
d="M57 0v74h140v428c-16 -6 -42 -11 -70 -11c-24 0 -56 4 -75 10v62c80 -4 156 25 187 79h81v-568h138v-74h-401z" />
    <glyph glyph-name="two" unicode="2" horiz-adv-x="572" 
d="M43 68c0 79 74 148 179 211c110 68 156 102 156 191c0 70 -41 115 -112 115c-51 0 -91 -21 -110 -56c32 -11 51 -37 51 -69c0 -41 -27 -74 -73 -74c-47 0 -79 37 -79 87c0 90 93 177 232 177c147 0 227 -86 227 -187c0 -106 -83 -159 -202 -213
c-107 -49 -155 -81 -179 -133l3 -4c27 19 64 30 100 30c72 0 125 -45 169 -45c40 0 56 29 75 108l54 -5c-12 -159 -65 -217 -144 -217c-102 0 -143 96 -208 96c-7 0 -16 -2 -19 -2c6 -7 12 -20 12 -35c0 -32 -23 -59 -60 -59c-43 0 -72 35 -72 84z" />
    <glyph glyph-name="three" unicode="3" horiz-adv-x="551" 
d="M260 -16c-135 0 -228 63 -228 146c0 45 32 81 79 81c45 0 70 -32 70 -68c0 -27 -16 -49 -36 -62c19 -18 58 -31 107 -31c82 0 123 45 123 118c0 76 -38 122 -168 122h-28v68h25c123 0 157 49 157 123c0 67 -38 103 -107 103c-47 0 -84 -15 -102 -31c23 -11 42 -34 42 -63
c0 -35 -23 -68 -71 -68c-42 0 -76 31 -76 79c0 80 92 149 226 149c145 0 223 -75 223 -161c0 -73 -54 -137 -186 -159v-3c132 -10 200 -71 200 -155c0 -104 -96 -188 -250 -188z" />
    <glyph glyph-name="four" unicode="4" horiz-adv-x="580" 
d="M320 256v278h-5l-205 -278h210zM437 73h96v-73h-315v73h101v109h-294v75l293 388h119v-389h126v-74h-126v-109z" />
    <glyph glyph-name="five" unicode="5" horiz-adv-x="545" 
d="M167 526l-12 -168c34 26 86 46 143 46c146 0 209 -93 209 -196c0 -111 -75 -224 -245 -224c-118 0 -219 60 -219 146c0 47 32 85 78 85c45 0 67 -33 67 -67c0 -27 -15 -52 -35 -65c18 -18 53 -35 97 -35c82 0 125 53 125 146c0 95 -41 140 -119 140
c-50 0 -88 -20 -121 -50l-54 15l22 329l19 17c63 -24 134 -35 194 -35c66 0 114 13 158 36l19 -42c-40 -68 -104 -104 -187 -104c-57 0 -104 13 -139 26z" />
    <glyph glyph-name="six" unicode="6" horiz-adv-x="568" 
d="M176 315c36 52 88 85 157 85c121 0 193 -80 193 -194c0 -113 -77 -222 -233 -222c-157 0 -246 134 -246 306c0 219 117 360 293 360c111 0 172 -59 172 -126c0 -46 -30 -80 -73 -80c-44 0 -68 28 -68 64c0 25 14 48 33 60c-12 10 -34 19 -67 19c-98 0 -163 -79 -161 -272
zM181 194c0 -86 51 -146 115 -146c70 0 101 55 101 147c0 86 -34 139 -104 139c-67 0 -112 -53 -112 -140z" />
    <glyph glyph-name="seven" unicode="7" horiz-adv-x="536" 
d="M300 67c-6 -51 -27 -83 -71 -83c-42 0 -72 27 -72 74c0 99 74 234 215 387c9 11 49 52 65 67l-5 6c-34 -21 -73 -32 -107 -32c-68 0 -105 40 -145 40c-36 0 -52 -26 -68 -128h-70v239h76l6 -76h6c20 61 50 82 90 82c80 0 110 -94 170 -94c9 0 17 2 22 3
c-6 8 -13 22 -13 37c0 34 24 61 63 61c40 0 65 -31 65 -65c0 -39 -26 -71 -61 -110c-85 -93 -146 -205 -166 -408z" />
    <glyph glyph-name="eight" unicode="8" horiz-adv-x="556" 
d="M61 460c0 101 88 190 224 190c135 0 212 -74 212 -158c0 -64 -39 -114 -115 -141c86 -32 134 -87 134 -164c0 -113 -99 -203 -241 -203c-148 0 -229 78 -229 170c0 58 38 115 123 146c-72 32 -108 80 -108 160zM222 282h-1c-46 -24 -70 -64 -70 -116
c0 -67 46 -119 134 -119c77 0 123 49 123 102c0 69 -62 97 -187 130zM170 494c0 -70 59 -99 162 -124c49 30 66 74 66 115c0 53 -40 102 -118 102c-71 0 -110 -43 -110 -93z" />
    <glyph glyph-name="nine" unicode="9" horiz-adv-x="568" 
d="M392 311c-36 -52 -87 -85 -157 -85c-121 0 -192 79 -192 197c0 117 76 227 232 227c157 0 246 -134 246 -306c0 -221 -112 -360 -290 -360c-120 0 -183 59 -183 129c0 46 30 81 74 81s67 -29 67 -65c0 -25 -13 -48 -33 -60c20 -14 45 -22 76 -22c99 0 163 76 160 264z
M387 436c0 90 -51 150 -115 150c-69 0 -101 -56 -101 -151c0 -90 34 -143 104 -143c67 0 112 54 112 144z" />
    <glyph glyph-name="period" unicode="." horiz-adv-x="242" 
d="M121 -16c-43 0 -76 33 -76 74s33 75 77 75c42 0 75 -33 75 -74c0 -42 -33 -75 -76 -75z" />
    <glyph glyph-name="comma" unicode="," horiz-adv-x="242" 
d="M35 -158l-21 40c79 35 117 73 126 121l-6 3c-8 -7 -18 -12 -33 -12c-30 0 -55 26 -55 63c0 41 30 76 73 76c51 0 84 -39 84 -97c0 -84 -51 -148 -168 -194z" />
    <glyph glyph-name="colon" unicode=":" horiz-adv-x="254" 
d="M127 274c-43 0 -76 33 -76 74s33 75 77 75c42 0 75 -33 75 -74c0 -42 -33 -75 -76 -75zM127 -16c-43 0 -76 33 -76 74s33 75 77 75c42 0 75 -33 75 -74c0 -42 -33 -75 -76 -75z" />
    <glyph glyph-name="semicolon" unicode=";" horiz-adv-x="254" 
d="M129 274c-43 0 -76 33 -76 74s33 75 77 75c42 0 75 -33 75 -74c0 -42 -33 -75 -76 -75zM37 -158l-20 40c79 35 117 73 126 121l-7 3c-7 -7 -18 -12 -32 -12c-31 0 -55 26 -55 63c0 41 29 76 72 76c51 0 85 -39 85 -97c0 -84 -51 -148 -169 -194z" />
    <glyph glyph-name="ellipsis" unicode="&#x2026;" horiz-adv-x="708" 
d="M588 -16c-43 0 -76 33 -76 73c0 41 33 75 76 75c42 0 75 -33 75 -74s-33 -74 -75 -74zM354 -16c-42 0 -75 33 -75 73c0 41 33 75 76 75c41 0 74 -33 74 -74s-33 -74 -75 -74zM121 -16c-43 0 -76 33 -76 73c0 41 33 75 76 75c42 0 75 -33 75 -74s-33 -74 -75 -74z" />
    <glyph glyph-name="periodcentered" unicode="&#xb7;" horiz-adv-x="245" 
d="M122 245c-43 0 -76 33 -76 74s33 75 77 75c42 0 75 -33 75 -74c0 -42 -33 -75 -76 -75z" />
    <glyph glyph-name="bullet" unicode="&#x2022;" horiz-adv-x="490" 
d="M245 174c-81 0 -146 65 -146 146c0 80 65 146 146 146s146 -66 146 -146c0 -81 -65 -146 -146 -146z" />
    <glyph glyph-name="ampersand" unicode="&#x26;" horiz-adv-x="738" 
d="M488 384h224v-72h-74c-31 -63 -70 -123 -118 -176c37 -56 52 -68 78 -68c24 0 39 13 57 58l49 -18c-22 -72 -63 -124 -141 -124c-60 0 -91 20 -132 84c-53 -55 -112 -84 -186 -84c-136 0 -202 83 -202 168c0 92 60 147 159 188c-42 44 -65 83 -65 133
c0 94 76 160 181 160c103 0 159 -62 159 -129c0 -77 -55 -116 -131 -155c57 -56 98 -106 136 -163c32 38 60 82 80 127h-74v71zM281 64c42 0 78 17 115 51c-42 67 -91 124 -156 188c-51 -30 -75 -67 -75 -125c0 -63 43 -114 116 -114zM242 504c0 -33 17 -68 67 -119
c46 30 72 65 72 111c0 41 -21 78 -70 78c-41 0 -69 -27 -69 -70z" />
    <glyph glyph-name="exclam" unicode="!" horiz-adv-x="288" 
d="M145 684c45 0 73 -29 73 -80c0 -36 -6 -85 -15 -146c-10 -74 -23 -165 -31 -266h-56c-8 101 -21 192 -31 266c-8 61 -14 110 -14 146c0 51 27 80 74 80zM144 -16c-43 0 -76 33 -76 73c0 41 33 74 77 74c42 0 75 -33 75 -73c0 -41 -33 -74 -76 -74z" />
    <glyph glyph-name="exclamdown" unicode="&#xa1;" horiz-adv-x="288" 
d="M143 -17c-45 0 -73 29 -73 80c0 36 6 85 15 146c10 74 23 165 31 266h56c8 -101 21 -192 31 -266c8 -61 14 -110 14 -146c0 -51 -27 -80 -74 -80zM144 683c43 0 76 -33 76 -73c0 -41 -33 -74 -77 -74c-42 0 -75 33 -75 73c0 41 33 74 76 74z" />
    <glyph glyph-name="question" unicode="?" horiz-adv-x="471" 
d="M178 205c1 62 21 120 60 170c38 48 79 81 79 147c0 60 -37 99 -99 99c-46 0 -84 -18 -98 -49c28 -11 48 -39 48 -68c0 -38 -26 -73 -72 -73c-45 0 -79 35 -79 84c0 87 84 169 212 169c145 0 218 -85 218 -175c0 -72 -38 -117 -113 -173c-50 -36 -74 -76 -87 -131h-69z
M214 -16c-42 0 -76 33 -76 73c0 41 34 74 77 74c42 0 75 -33 75 -73c0 -41 -33 -74 -76 -74z" />
    <glyph glyph-name="questiondown" unicode="&#xbf;" horiz-adv-x="462" 
d="M292 462c-1 -62 -21 -120 -60 -170c-38 -48 -79 -81 -79 -147c0 -60 37 -99 99 -99c46 0 84 18 98 49c-28 11 -48 39 -48 68c0 38 26 73 72 73c45 0 79 -35 79 -84c0 -87 -84 -169 -212 -169c-145 0 -218 85 -218 175c0 72 38 117 113 173c50 36 74 76 87 131h69z
M256 683c42 0 76 -33 76 -73c0 -41 -34 -74 -77 -74c-42 0 -75 33 -75 73c0 41 33 74 76 74z" />
    <glyph glyph-name="quotedblleft" unicode="&#x201c;" horiz-adv-x="446" 
d="M331 392c-51 0 -85 39 -85 97c0 84 51 148 168 194l21 -40c-79 -35 -117 -73 -126 -121l7 -3c7 7 18 12 32 12c31 0 55 -26 55 -63c0 -41 -29 -76 -72 -76zM124 392c-51 0 -85 39 -85 97c0 84 52 148 169 194l20 -40c-78 -35 -117 -73 -126 -121l7 -3c8 7 18 12 32 12
c31 0 55 -26 55 -63c0 -41 -29 -76 -72 -76z" />
    <glyph glyph-name="quotedblright" unicode="&#x201d;" horiz-adv-x="446" 
d="M243 384l-21 40c79 34 117 72 126 120l-6 4c-8 -8 -18 -13 -33 -13c-30 0 -55 26 -55 63c0 41 30 76 72 76c52 0 85 -39 85 -97c0 -84 -51 -148 -168 -193zM36 384l-20 40c78 34 117 72 126 120l-7 4c-8 -8 -18 -13 -32 -13c-31 0 -56 26 -56 63c0 41 30 76 73 76
c51 0 85 -39 85 -97c0 -84 -52 -148 -169 -193z" />
    <glyph glyph-name="quoteleft" unicode="&#x2018;" horiz-adv-x="242" 
d="M125 392c-51 0 -85 39 -85 97c0 84 51 148 168 194l21 -40c-79 -35 -117 -73 -126 -121l7 -3c7 7 18 12 32 12c31 0 55 -26 55 -63c0 -41 -29 -76 -72 -76z" />
    <glyph glyph-name="quoteright" unicode="&#x2019;" horiz-adv-x="242" 
d="M36 384l-20 40c78 34 117 72 126 120l-7 4c-8 -8 -18 -13 -32 -13c-31 0 -56 26 -56 63c0 41 30 76 73 76c51 0 85 -39 85 -97c0 -84 -52 -148 -169 -193z" />
    <glyph glyph-name="quotedblbase" unicode="&#x201e;" horiz-adv-x="446" 
d="M243 -157l-21 40c79 34 117 72 126 120l-6 4c-8 -8 -18 -13 -33 -13c-30 0 -55 26 -55 63c0 41 30 76 72 76c52 0 85 -39 85 -97c0 -84 -51 -148 -168 -193zM36 -157l-20 40c78 34 117 72 126 120l-7 4c-8 -8 -18 -13 -32 -13c-31 0 -56 26 -56 63c0 41 30 76 73 76
c51 0 85 -39 85 -97c0 -84 -52 -148 -169 -193z" />
    <glyph glyph-name="quotesinglbase" unicode="&#x201a;" horiz-adv-x="242" 
d="M36 -157l-20 40c78 34 117 72 126 120l-7 4c-8 -8 -18 -13 -32 -13c-31 0 -56 26 -56 63c0 41 30 76 73 76c51 0 85 -39 85 -97c0 -84 -52 -148 -169 -193z" />
    <glyph glyph-name="guillemotleft" unicode="&#xab;" horiz-adv-x="509" 
d="M147 228l112 -170l-37 -27l-163 155c-21 19 -26 31 -26 40s6 20 26 39l163 155l37 -27zM354 228l112 -170l-37 -27l-164 155c-20 19 -25 31 -25 40s6 20 25 39l164 155l37 -27z" />
    <glyph glyph-name="guillemotright" unicode="&#xbb;" horiz-adv-x="509" 
d="M362 222l-112 170l37 27l163 -155c21 -19 26 -31 26 -40s-6 -20 -26 -39l-163 -155l-37 27zM155 222l-112 170l37 27l164 -155c20 -19 25 -31 25 -40s-6 -20 -25 -39l-164 -155l-37 27z" />
    <glyph glyph-name="guilsinglleft" unicode="&#x2039;" horiz-adv-x="305" 
d="M148 228l114 -169l-37 -28l-166 155c-20 18 -26 31 -26 40s5 20 26 40l166 154l37 -28z" />
    <glyph glyph-name="guilsinglright" unicode="&#x203a;" horiz-adv-x="305" 
d="M156 223l-114 169l37 28l166 -155c20 -18 26 -31 26 -40s-5 -20 -26 -40l-166 -154l-37 28z" />
    <glyph glyph-name="hyphen" unicode="-" horiz-adv-x="361" 
d="M52 208v86h257v-86h-257z" />
    <glyph glyph-name="endash" unicode="&#x2013;" horiz-adv-x="535" 
d="M52 209v78h431v-78h-431z" />
    <glyph glyph-name="emdash" unicode="&#x2014;" horiz-adv-x="785" 
d="M52 209v78h681v-78h-681z" />
    <glyph glyph-name="underscore" unicode="_" horiz-adv-x="443" 
d="M-2 0v75h447v-75h-447z" />
    <glyph glyph-name="slash" unicode="/" horiz-adv-x="428" 
d="M-54 -203l387 910h84l-387 -910h-84z" />
    <glyph glyph-name="backslash" unicode="\" horiz-adv-x="428" 
d="M399 -203l-388 910h84l388 -910h-84z" />
    <glyph glyph-name="bar" unicode="|" horiz-adv-x="290" 
d="M108 -203v910h75v-910h-75z" />
    <glyph glyph-name="parenleft" unicode="(" horiz-adv-x="373" 
d="M357 -159c-160 68 -292 216 -292 439c0 225 133 375 292 443l31 -52c-120 -74 -202 -195 -202 -387c0 -194 82 -317 202 -391z" />
    <glyph glyph-name="parenright" unicode=")" horiz-adv-x="373" 
d="M16 723c160 -68 292 -216 292 -439c0 -225 -133 -375 -292 -443l-31 52c120 74 202 195 202 387c0 194 -82 317 -202 391z" />
    <glyph glyph-name="bracketleft" unicode="[" horiz-adv-x="353" 
d="M85 -158v881h277v-69h-165v-743h165v-69h-277z" />
    <glyph glyph-name="bracketright" unicode="]" horiz-adv-x="353" 
d="M267 723v-881h-277v69h165v743h-165v69h277z" />
    <glyph glyph-name="braceleft" unicode="{" horiz-adv-x="392" 
d="M17 318h28c94 0 131 31 131 85c0 48 -15 96 -15 142c0 111 80 174 239 178v-68c-106 -9 -123 -42 -123 -113c0 -20 4 -69 4 -106c0 -99 -40 -139 -158 -150v-7c118 -11 158 -51 158 -150c0 -37 -4 -86 -4 -106c0 -71 17 -104 123 -113v-68c-159 4 -239 67 -239 178
c0 46 15 94 15 142c0 54 -37 85 -131 85h-28v71z" />
    <glyph glyph-name="braceright" unicode="}" horiz-adv-x="392" 
d="M374 247h-28c-94 0 -131 -31 -131 -85c0 -48 15 -96 15 -142c0 -111 -80 -174 -239 -178v68c106 9 123 42 123 113c0 20 -4 69 -4 106c0 99 40 139 158 150v7c-118 11 -158 51 -158 150c0 37 4 86 4 106c0 71 -17 104 -123 113v68c159 -4 239 -67 239 -178
c0 -46 -15 -94 -15 -142c0 -54 37 -85 131 -85h28v-71z" />
    <glyph glyph-name="at" unicode="@" horiz-adv-x="904" 
d="M463 -149c-235 0 -413 145 -413 393c0 259 196 442 439 442c203 0 368 -133 368 -348c0 -182 -112 -280 -226 -280c-74 0 -127 37 -116 111l-4 1c-35 -71 -88 -105 -137 -105c-78 0 -131 58 -131 152c0 73 34 150 80 196c41 41 90 66 145 66c50 0 89 -33 95 -83l23 76h96
l-77 -246c-27 -86 -10 -112 45 -112c72 0 148 93 148 221c0 182 -133 303 -314 303c-215 0 -376 -171 -376 -393c0 -210 142 -346 359 -346c102 0 183 32 255 83l26 -40c-79 -58 -174 -91 -285 -91zM404 132c84 0 132 140 132 213c0 47 -15 78 -56 78
c-87 0 -131 -145 -131 -218c0 -44 16 -73 55 -73z" />
    <glyph glyph-name="copyright" unicode="&#xa9;" horiz-adv-x="787" 
d="M393 -33c-206 0 -363 155 -363 362c0 206 157 362 363 362s364 -156 364 -362c0 -207 -158 -362 -364 -362zM393 10c181 0 314 137 314 319c0 181 -133 319 -314 319c-180 0 -313 -138 -313 -319c0 -182 133 -319 313 -319zM399 141c-109 0 -185 82 -185 192
c0 108 86 190 181 190c45 0 77 -17 100 -43l10 42h46v-142h-46c-24 65 -55 99 -104 99c-56 0 -98 -39 -98 -142c0 -100 36 -147 106 -147c62 0 93 44 102 107h49c-10 -97 -69 -156 -161 -156z" />
    <glyph glyph-name="published" unicode="&#x2117;" horiz-adv-x="787" 
d="M393 -33c-206 0 -363 155 -363 362c0 206 157 362 363 362s364 -156 364 -362c0 -207 -158 -362 -364 -362zM393 10c181 0 314 137 314 319c0 181 -133 319 -314 319c-180 0 -313 -138 -313 -319c0 -182 133 -319 313 -319zM243 147v44h54v278h-54v45h173
c115 0 158 -49 158 -111c0 -60 -40 -115 -155 -115h-44v-97h59v-44h-191zM375 331h38c61 0 76 26 76 71c0 41 -17 69 -76 69h-38v-140z" />
    <glyph glyph-name="registered.alt" horiz-adv-x="787" 
d="M393 -33c-206 0 -363 155 -363 362c0 206 157 362 363 362s364 -156 364 -362c0 -207 -158 -362 -364 -362zM393 10c181 0 314 137 314 319c0 181 -133 319 -314 319c-180 0 -313 -138 -313 -319c0 -182 133 -319 313 -319zM350 308v-115h55v-44h-187v44h55v278h-55v44
h192c111 0 146 -47 146 -95c0 -41 -25 -80 -105 -90v-5c65 -8 84 -36 87 -79l3 -29c1 -21 7 -27 17 -27c8 0 15 8 23 29l29 -11c-11 -38 -32 -67 -75 -67c-47 0 -76 25 -76 81v29c0 38 -10 57 -56 57h-53zM350 348h52c50 0 69 21 69 65c0 39 -15 59 -65 59h-56v-124z" />
    <glyph glyph-name="registered" unicode="&#xae;" horiz-adv-x="512" 
d="M256 248c-127 0 -223 94 -223 221c0 128 96 221 223 221c126 0 222 -93 222 -221c0 -127 -96 -221 -222 -221zM256 280c112 0 184 77 184 189s-72 188 -184 188c-111 0 -184 -76 -184 -188s73 -189 184 -189zM231 456v-70h33v-27h-116v27h33v171h-33v28h121
c68 0 89 -30 89 -59c0 -26 -17 -50 -66 -56v-2c40 -5 51 -23 55 -49l1 -17c2 -13 4 -17 10 -17c5 0 10 5 15 19l18 -7c-6 -25 -20 -43 -46 -43c-32 0 -49 16 -49 52v16c0 23 -6 34 -34 34h-31zM231 482h32c29 0 41 13 41 40c0 24 -9 35 -39 35h-34v-75z" />
    <glyph glyph-name="servicemark" unicode="&#x2120;" horiz-adv-x="808" 
d="M46 351v110h39c26 -52 52 -74 96 -74c33 0 49 14 49 42c0 30 -31 39 -75 50c-50 13 -103 31 -103 96c0 50 42 92 102 92c30 0 59 -12 76 -33l10 31h38v-104h-38c-23 48 -48 68 -82 68c-29 0 -45 -13 -45 -37c0 -33 34 -42 78 -53c49 -11 101 -29 101 -92
c0 -56 -45 -98 -108 -98c-37 0 -70 14 -88 35l-11 -33h-39zM332 355v41h41v221h-41v41h156l62 -196h7l59 196h154v-41h-44v-221h44v-41h-153v41h36v208h-12l-81 -249h-45l-84 249h-13v-208h36v-41h-122z" />
    <glyph glyph-name="trademark" unicode="&#x2122;" horiz-adv-x="853" 
d="M376 355v41h42v221h-42v41h157l61 -196h7l60 196h154v-41h-45v-221h45v-41h-153v41h35v208h-12l-80 -249h-45l-84 249h-14v-208h37v-41h-123zM97 355v41h55v225h-12c-37 0 -46 -13 -69 -85h-33v122h302v-122h-34c-20 70 -31 85 -68 85h-12v-225h54v-41h-183z" />
    <glyph glyph-name="asterisk" unicode="*" horiz-adv-x="434" 
d="M219 359c-8 24 -5 79 -4 122l-13 4c-24 -35 -55 -82 -75 -96c-27 -20 -49 -16 -66 7c-18 23 -14 45 13 64c20 14 74 30 116 42v14c-42 12 -96 28 -116 42c-27 19 -30 42 -13 65c16 23 39 27 66 7c20 -15 51 -61 75 -97l12 4c0 44 -3 99 5 122c11 32 30 43 58 34
c26 -9 37 -29 26 -61c-7 -23 -41 -66 -68 -100l9 -11c41 15 93 33 116 33c34 0 50 -16 50 -45c0 -28 -16 -44 -50 -44c-23 0 -75 19 -116 34l-8 -11c26 -34 59 -78 67 -101c11 -32 0 -52 -26 -61c-28 -9 -47 2 -58 33z" />
    <glyph glyph-name="dagger" unicode="&#x2020;" horiz-adv-x="527" 
d="M243 418c-49 17 -90 27 -105 27c-5 0 -10 0 -13 -1c4 -7 7 -18 7 -29c0 -30 -21 -54 -54 -54c-28 0 -56 20 -56 55c0 40 32 79 96 79c34 0 69 -9 124 -30l-38 174l8 21c9 23 26 43 52 43s42 -20 51 -43l9 -21l-42 -189c49 -17 92 -27 108 -27c4 0 9 0 12 1
c-3 6 -7 17 -7 29c0 29 21 54 54 54c28 0 56 -20 56 -56c0 -40 -32 -78 -96 -78c-33 0 -68 9 -122 29l27 -271v-149c0 -46 -38 -89 -50 -89c-13 0 -52 43 -52 89v149z" />
    <glyph glyph-name="daggerdbl" unicode="&#x2021;" horiz-adv-x="527" 
d="M241 468l-37 172l8 21c9 22 26 42 52 42s42 -20 51 -42l9 -21l-42 -188c49 -16 92 -27 108 -27c4 0 9 0 12 1c-3 7 -7 17 -7 29c0 29 21 54 54 54c28 0 56 -20 56 -56c0 -40 -32 -78 -96 -78c-33 0 -67 8 -120 28l23 -117l-25 -112c46 -16 87 -25 103 -25c4 0 9 0 12 1
c-3 6 -7 17 -7 29c0 29 21 54 54 54c28 0 56 -20 56 -56c0 -40 -32 -79 -96 -79c-34 0 -69 9 -123 30l38 -172l-9 -21c-9 -22 -25 -42 -51 -42s-43 20 -52 42l-8 21l41 187c-49 17 -92 28 -107 28c-5 0 -10 0 -13 -1c4 -7 7 -18 7 -29c0 -30 -21 -54 -54 -54
c-28 0 -56 20 -56 55c0 40 32 79 96 79c33 0 67 -8 120 -28l-24 116l26 112c-47 16 -87 26 -102 26c-5 0 -10 0 -13 -1c4 -7 7 -18 7 -29c0 -29 -21 -54 -54 -54c-28 0 -56 20 -56 56c0 40 32 78 96 78c34 0 69 -9 123 -29z" />
    <glyph glyph-name="asciicircum" unicode="^" horiz-adv-x="350" 
d="M19 506l128 211h61l121 -211h-66l-89 107l-89 -107h-66z" />
    <glyph glyph-name="asciitilde" unicode="~" horiz-adv-x="389" 
d="M34 245c10 98 37 140 104 140c55 0 99 -48 130 -48c19 0 27 16 34 55h56c-10 -98 -37 -140 -104 -140c-55 0 -99 48 -130 48c-19 0 -27 -16 -34 -55h-56z" />
    <glyph glyph-name="dollar" unicode="$" horiz-adv-x="561" 
d="M320 -82h-66v83c-137 8 -214 71 -214 138c0 38 29 73 70 73c39 0 67 -31 67 -65c0 -24 -13 -43 -30 -55c16 -15 57 -31 108 -36v216c-112 33 -196 68 -196 174c0 97 72 173 195 187v74h66v-72c133 -7 194 -74 194 -130c0 -43 -24 -72 -61 -72c-44 0 -69 26 -69 63
c0 21 12 42 27 52c-15 15 -48 28 -91 32v-206c123 -37 197 -76 197 -181c0 -87 -54 -179 -197 -192v-83zM418 152c0 47 -30 75 -99 100v-196c69 9 99 48 99 96zM163 487c0 -48 23 -69 93 -93v184c-64 -10 -93 -49 -93 -91z" />
    <glyph glyph-name="sterling" unicode="&#xa3;" horiz-adv-x="620" 
d="M485 277h-160c1 -4 1 -9 1 -13c0 -33 -10 -66 -35 -104c79 -21 117 -63 169 -63c42 0 63 19 78 98l55 -3c-5 -142 -43 -207 -141 -207c-73 0 -133 57 -201 96c-29 -70 -80 -97 -133 -97c-55 0 -91 32 -91 80c0 58 53 113 168 113c9 0 19 -1 31 -3c1 9 2 17 2 24
c0 29 -10 54 -22 79h-150v70h113c-12 26 -21 54 -21 89c0 128 102 214 234 214c109 0 184 -62 184 -133c0 -52 -37 -84 -78 -84c-44 0 -73 30 -73 70c0 28 16 48 31 60c-11 14 -39 25 -72 25c-67 0 -105 -38 -105 -99c0 -50 23 -95 40 -142h176v-70zM128 41
c26 0 53 20 69 63c-15 5 -30 8 -44 8c-37 0 -56 -20 -56 -42c0 -16 10 -29 31 -29z" />
    <glyph glyph-name="Euro" unicode="&#x20ac;" horiz-adv-x="657" 
d="M30 348v65h94c36 138 143 237 287 237c115 0 209 -67 209 -147c0 -42 -26 -82 -76 -82c-46 0 -74 30 -74 71c0 25 13 46 28 59c-15 18 -51 31 -86 31c-73 0 -140 -39 -162 -169h172v-65h-178c-1 -12 -1 -24 -1 -37s0 -25 1 -37h178v-64h-169c22 -96 78 -143 157 -143
c83 0 132 55 144 145h73c-9 -128 -91 -228 -237 -228c-153 0 -241 94 -269 226h-91v64h82c-1 11 -1 22 -1 34c0 13 1 27 2 40h-83z" />
    <glyph glyph-name="yen" unicode="&#xa5;" horiz-adv-x="653" 
d="M86 329h147l-137 231h-75v74h295v-74h-83l123 -224l125 224h-76v74h231v-74h-73l-142 -231h149v-64h-183v-64h183v-64h-183v-64h108v-73h-335v73h110v64h-184v64h184v64h-184v64z" />
    <glyph glyph-name="cent" unicode="&#xa2;" horiz-adv-x="535" 
d="M299 -102l-66 4l7 92c-126 19 -193 109 -193 230c0 135 93 235 232 246l8 83l66 -4l-7 -81c95 -14 162 -75 162 -138c0 -47 -26 -77 -70 -77c-43 0 -67 29 -67 64c0 29 20 54 39 63c-11 16 -36 28 -71 33l-30 -353h8c56 0 105 32 127 96h61c-22 -97 -92 -160 -198 -165z
M170 235c0 -85 25 -142 79 -165l28 342c-65 -12 -107 -72 -107 -177z" />
    <glyph glyph-name="numbersign" unicode="#" horiz-adv-x="669" 
d="M200 409h-132v68h144l36 186h78l-36 -186h151l37 186h78l-36 -186h121v-68h-134l-36 -188h131v-68h-144l-37 -193h-78l37 193h-151l-37 -193h-79l37 193h-121v68h134zM430 410h-153l-36 -190h152z" />
    <glyph glyph-name="paragraph" unicode="&#xb6;" horiz-adv-x="652" 
d="M314 -107v273c-156 1 -271 81 -271 225c0 135 101 225 292 225h287v-74h-87v-649h-76v650h-70v-650h-75z" />
    <glyph glyph-name="section" unicode="&#xa7;" horiz-adv-x="531" 
d="M258 -121c-109 0 -199 53 -199 124c0 39 25 73 67 73c41 0 67 -28 67 -63c0 -19 -10 -39 -26 -50c17 -13 51 -26 98 -26c71 0 98 30 98 64c0 38 -23 64 -133 101c-114 38 -171 72 -171 151c0 60 46 104 117 126v7c-58 25 -95 60 -95 115c0 92 91 153 205 153
c109 0 176 -57 176 -115c0 -39 -25 -66 -63 -66c-40 0 -65 27 -65 59c0 17 7 33 20 44c-15 10 -41 20 -73 20c-68 0 -98 -30 -98 -62c0 -37 27 -59 140 -98c99 -35 159 -69 159 -151c0 -52 -37 -101 -107 -126v-6c51 -21 89 -58 89 -113c0 -85 -66 -161 -206 -161zM312 183
c54 15 71 43 71 70c0 37 -31 65 -117 95l-31 10c-57 -16 -73 -47 -73 -76c0 -39 37 -62 126 -92z" />
    <glyph glyph-name="ordfeminine" unicode="&#xaa;" horiz-adv-x="420" 
d="M142 316c-60 0 -100 34 -100 85c0 26 11 50 36 68c24 19 58 30 126 39c28 4 37 7 38 15v30c0 44 -20 56 -62 56c-19 0 -34 -2 -49 -9c11 -7 19 -20 19 -36c0 -23 -19 -41 -46 -41c-32 0 -49 21 -49 44c0 56 68 88 146 88c85 0 128 -38 128 -107v-154c0 -17 6 -23 20 -23
c9 0 19 9 25 29l33 -14c-15 -50 -44 -70 -84 -70c-35 0 -68 19 -70 62h-4c-19 -41 -62 -62 -107 -62zM180 370c31 0 62 28 62 69v41c-6 -3 -13 -3 -31 -6c-62 -10 -77 -20 -77 -58c0 -28 13 -46 46 -46z" />
    <glyph glyph-name="ordmasculine" unicode="&#xba;" horiz-adv-x="417" 
d="M209 313c-105 0 -173 69 -173 170s73 172 173 172c104 0 173 -68 173 -169s-73 -173 -173 -173zM212 360c49 0 75 39 75 125s-30 124 -81 124c-50 0 -76 -39 -76 -124c0 -87 30 -125 82 -125z" />
    <glyph glyph-name="degree" unicode="&#xb0;" horiz-adv-x="403" 
d="M203 350c-107 0 -171 70 -171 160c0 91 69 164 171 164c104 0 168 -70 168 -161c0 -90 -68 -163 -168 -163zM205 412c48 0 81 34 81 100s-37 100 -87 100c-48 0 -81 -34 -81 -100s37 -100 87 -100z" />
    <glyph glyph-name="percent" unicode="%" horiz-adv-x="803" 
d="M164 265c-82 0 -133 55 -133 138c0 112 93 227 202 227c43 0 77 -16 98 -44c28 -12 59 -16 91 -16c57 0 114 20 163 75h73l-440 -671h-86l391 575l-3 3c-31 -24 -70 -39 -120 -39c-14 0 -29 1 -46 3c0 -3 1 -7 1 -11c0 -93 -70 -240 -191 -240zM579 -14
c-82 0 -133 56 -133 138c0 112 93 227 202 227c75 0 122 -45 122 -125c0 -93 -69 -240 -191 -240zM593 38c68 0 119 114 119 189c0 44 -17 67 -50 67c-66 0 -120 -115 -120 -188c0 -46 21 -68 51 -68zM177 317c69 0 120 113 120 189c0 9 -1 17 -2 24c-21 9 -41 23 -61 41
c-60 -13 -107 -118 -107 -186c0 -46 20 -68 50 -68z" />
    <glyph glyph-name="quotedbl" unicode="&#x22;" horiz-adv-x="412" 
d="M269 400l-40 19l19 97c13 63 20 93 29 113c11 24 29 36 48 36c31 0 61 -20 61 -51c0 -12 -1 -23 -6 -32c-12 -25 -24 -50 -57 -100zM94 400l-40 19l17 96c12 62 18 93 27 113c11 24 29 37 49 37c31 0 61 -20 61 -51c0 -12 -2 -21 -6 -31c-11 -26 -23 -50 -55 -101z" />
    <glyph glyph-name="quotesingle" unicode="'" horiz-adv-x="234" 
d="M93 400l-41 19l19 97c12 62 19 93 28 113c10 24 28 36 49 36c31 0 61 -20 61 -52c0 -12 -2 -21 -6 -31c-11 -25 -24 -50 -56 -100z" />
    <glyph glyph-name="plus" unicode="+" horiz-adv-x="525" 
d="M225 68v180h-176v70h176v179h76v-179h175v-70h-175v-180h-76z" />
    <glyph glyph-name="minus" unicode="&#x2212;" horiz-adv-x="520" 
d="M450 245h-381v76h381v-76z" />
    <glyph glyph-name="divide" unicode="&#xf7;" horiz-adv-x="520" 
d="M260 507c38 0 68 -30 68 -67s-31 -67 -68 -67c-38 0 -68 30 -68 67c0 36 31 67 68 67zM477 248h-434v69h434v-69zM260 192c38 0 68 -30 68 -67c0 -36 -31 -67 -68 -67c-38 0 -68 30 -68 67s31 67 68 67z" />
    <glyph glyph-name="equal" unicode="=" horiz-adv-x="525" 
d="M54 343v72h417v-72h-417zM54 150v72h417v-72h-417z" />
    <glyph glyph-name="multiply" unicode="&#xd7;" horiz-adv-x="520" 
d="M309 283l139 -143l-52 -51l-136 142l-136 -142l-52 51l139 143l-139 142l52 51l136 -142l136 142l52 -51z" />
    <glyph glyph-name="less" unicode="&#x3c;" horiz-adv-x="524" 
d="M449 60l-374 187v72l374 186v-81l-299 -142l299 -141v-81z" />
    <glyph glyph-name="greater" unicode="&#x3e;" horiz-adv-x="524" 
d="M75 505l374 -187v-72l-374 -186v81l299 142l-299 141v81z" />
    <glyph glyph-name="plusminus" unicode="&#xb1;" horiz-adv-x="538" 
d="M235 161v160h-155v63h155v157h69v-157h155v-63h-155v-160h-69zM459 28h-379v64h379v-64z" />
    <glyph glyph-name="zero.osf" horiz-adv-x="592" 
d="M296 -16c-156 0 -257 125 -257 292s105 295 257 295c156 0 257 -125 257 -292c0 -168 -105 -295 -257 -295zM300 52c82 0 117 74 117 225c0 152 -42 226 -125 226c-82 0 -117 -74 -117 -225c0 -152 42 -226 125 -226z" />
    <glyph glyph-name="one.osf" horiz-adv-x="471" 
d="M57 0v74h135v348c-16 -8 -38 -12 -65 -12c-26 0 -56 4 -75 11v61c80 -4 152 26 183 79h81v-487h133v-74h-392z" />
    <glyph glyph-name="two.osf" horiz-adv-x="558" 
d="M492 406c0 -93 -72 -137 -184 -175c-83 -27 -153 -67 -179 -119l2 -4c27 19 63 29 97 29c68 0 117 -39 162 -39c41 0 55 20 75 95l54 -4c-11 -151 -73 -205 -145 -205c-97 0 -135 89 -197 89c-5 0 -14 -2 -17 -2c7 -8 12 -19 12 -33c0 -29 -22 -54 -59 -54
c-42 0 -71 31 -71 76c0 79 71 152 177 203c105 50 138 80 138 152c0 55 -37 91 -102 91c-50 0 -83 -19 -101 -41c30 -11 49 -34 49 -65c0 -40 -27 -70 -72 -70c-44 0 -75 35 -75 79c0 86 89 162 217 162c143 0 219 -75 219 -165z" />
    <glyph glyph-name="three.osf" horiz-adv-x="538" 
d="M256 -88c-134 0 -225 62 -225 148c0 45 32 79 78 79c47 0 72 -34 72 -71c0 -25 -15 -49 -34 -62c18 -16 46 -30 104 -30c72 0 112 45 112 117c0 75 -31 122 -159 122h-21v67h17c122 0 150 50 150 122c0 67 -36 103 -103 103c-45 0 -74 -15 -95 -33c25 -11 43 -38 43 -64
c0 -36 -23 -70 -70 -70c-44 0 -78 31 -78 79c0 84 87 152 218 152c145 0 219 -74 219 -159c0 -72 -49 -136 -178 -157v-4c129 -10 191 -71 191 -153c0 -103 -89 -186 -241 -186z" />
    <glyph glyph-name="four.osf" horiz-adv-x="577" 
d="M318 185v271h-4l-202 -271h206zM435 -7h85v-71h-287v71h84v118h-292v72l291 383h119v-381h126v-74h-126v-118z" />
    <glyph glyph-name="five.osf" horiz-adv-x="536" 
d="M165 449l-12 -165c33 26 84 45 140 45c146 0 207 -92 207 -195c0 -112 -77 -222 -245 -222c-114 0 -213 60 -213 145c0 47 30 85 77 85c46 0 67 -33 67 -66c0 -28 -14 -53 -35 -66c18 -18 52 -34 95 -34c80 0 122 51 122 145s-40 138 -116 138c-49 0 -86 -20 -119 -49
l-54 15l22 326l19 17c62 -24 133 -35 192 -35c64 0 111 13 154 36l19 -43c-40 -67 -103 -103 -184 -103c-55 0 -102 13 -136 26z" />
    <glyph glyph-name="six.osf" horiz-adv-x="562" 
d="M176 310c35 51 85 84 156 84c122 0 193 -79 193 -191c0 -111 -76 -219 -232 -219c-157 0 -246 132 -246 302c0 202 121 354 293 354c115 0 173 -59 173 -121c0 -47 -28 -83 -73 -83c-49 0 -70 30 -70 65c0 25 14 47 36 57c-18 13 -35 19 -70 19c-89 0 -160 -90 -160 -267
zM181 190c0 -83 50 -142 115 -142c69 0 101 54 101 144c0 84 -34 136 -104 136c-67 0 -112 -52 -112 -138z" />
    <glyph glyph-name="seven.osf" horiz-adv-x="516" 
d="M148 -23c0 89 78 249 219 400l56 60l-6 6c-34 -21 -64 -32 -99 -32c-64 0 -100 38 -138 38c-35 0 -50 -25 -66 -125h-70v238h76l6 -77h6c20 61 49 83 87 83c78 0 107 -94 164 -94c5 0 13 2 15 2c-7 10 -12 24 -12 40c0 32 23 59 60 59c41 0 65 -31 65 -68
c0 -36 -25 -72 -57 -106c-88 -93 -138 -202 -164 -409c-6 -51 -25 -81 -70 -81c-43 0 -72 25 -72 66z" />
    <glyph glyph-name="eight.osf" horiz-adv-x="549" 
d="M62 452c0 101 85 188 220 188c133 0 207 -74 207 -156c0 -63 -37 -112 -111 -138c85 -32 132 -85 132 -161c0 -113 -97 -201 -238 -201c-146 0 -226 78 -226 167c0 59 37 113 120 144c-70 31 -104 79 -104 157zM220 276h-1c-45 -23 -68 -61 -68 -112
c0 -66 44 -116 130 -116c76 0 119 47 119 99c0 68 -58 94 -181 126zM172 486c0 -70 53 -97 156 -122c48 29 62 73 62 113c0 52 -37 100 -113 100c-70 0 -105 -41 -105 -91z" />
    <glyph glyph-name="nine.osf" horiz-adv-x="562" 
d="M385 240c-29 -53 -86 -84 -154 -84c-120 0 -195 78 -195 193c0 114 82 222 236 222c162 0 243 -132 243 -303c0 -199 -115 -356 -290 -356c-122 0 -180 57 -180 126c0 47 30 83 75 83c46 0 68 -30 68 -66c0 -24 -12 -46 -33 -58c18 -13 39 -22 74 -22
c104 0 153 100 156 265zM380 362c0 86 -44 145 -108 145c-67 0 -107 -54 -107 -146c0 -88 34 -139 105 -139c67 0 110 45 110 140z" />
    <glyph glyph-name="dollar.osf" horiz-adv-x="548" 
d="M313 -96h-66v81c-129 9 -208 68 -208 135c0 38 29 73 69 73c41 0 68 -31 68 -65c0 -22 -12 -43 -29 -54c16 -14 53 -29 101 -34v185c-106 30 -189 61 -189 162c0 91 69 161 188 175v73h66v-71c129 -7 189 -73 189 -129c0 -41 -28 -69 -65 -69c-39 0 -66 25 -66 60
c0 22 12 42 26 52c-14 14 -44 26 -84 30v-176c117 -34 191 -72 191 -167c0 -79 -53 -166 -191 -179v-82zM406 124c0 38 -30 61 -94 82v-165c65 8 94 43 94 83zM163 428c0 -41 21 -59 86 -79v158c-60 -8 -86 -40 -86 -79z" />
    <glyph glyph-name="sterling.osf" horiz-adv-x="612" 
d="M464 241h-153c-1 -30 -11 -56 -30 -88c73 -21 118 -62 167 -62c41 0 60 15 76 97l55 -4c-5 -139 -42 -199 -138 -199c-71 0 -135 53 -200 91c-32 -68 -79 -92 -128 -92c-57 0 -93 30 -93 77c0 54 49 108 160 108c11 0 24 -1 37 -2c1 4 1 9 1 16c0 20 -9 39 -21 58h-144
v69h101c-9 20 -16 43 -16 70c0 105 92 191 236 191c117 0 187 -58 187 -125c0 -41 -29 -76 -74 -76c-42 0 -72 27 -72 66c0 23 12 43 25 54c-10 8 -32 19 -70 19c-74 0 -109 -42 -109 -86s21 -76 36 -113h167v-69zM121 41c28 0 53 18 69 58c-17 6 -33 9 -47 9
c-41 0 -54 -20 -54 -37c0 -18 11 -30 32 -30z" />
    <glyph glyph-name="Euro.osf" horiz-adv-x="649" 
d="M27 304v64h97c38 119 144 203 282 203c121 0 215 -66 215 -145c0 -41 -26 -79 -77 -79c-46 0 -74 29 -74 69c0 25 14 45 28 57c-14 18 -49 31 -88 31c-75 0 -140 -34 -163 -137h176v-63h-185v-26c0 -14 0 -26 1 -38h184v-63h-172c24 -75 76 -111 153 -111
c87 0 137 54 150 141h73c-9 -121 -91 -223 -242 -223c-148 0 -237 79 -267 192h-91v64h81v24c0 13 0 27 2 40h-83z" />
    <glyph glyph-name="yen.osf" horiz-adv-x="653" 
d="M81 328h116l-99 154h-77v73h294v-72h-81l121 -199l124 199h-75v72h230v-73h-74l-102 -154h115v-63h-157l-30 -46v-16h187v-63h-187v-68h106v-72h-329v72h107v68h-189v63h189v12l-33 50h-156v63z" />
    <glyph glyph-name="space" unicode=" " horiz-adv-x="180" 
 />
    <glyph glyph-name="uni00A0" unicode="&#xa0;" horiz-adv-x="180" 
 />
    <glyph glyph-name="emspace" unicode="&#x2003;" horiz-adv-x="1000" 
 />
    <glyph glyph-name="enspace" unicode="&#x2002;" horiz-adv-x="500" 
 />
    <glyph glyph-name="threeperemspace" unicode="&#x2004;" horiz-adv-x="333" 
 />
    <glyph glyph-name="fourperemspace" unicode="&#x2005;" horiz-adv-x="250" 
 />
    <glyph glyph-name="thinspace" unicode="&#x2009;" horiz-adv-x="133" 
 />
    <glyph glyph-name="hairspace" unicode="&#x200a;" horiz-adv-x="75" 
 />
    <glyph glyph-name="hfjslug" horiz-adv-x="694" 
d="M644 -200h-208l-8 14h-163l-8 -14h-207v303c18 0 32 14 32 32c0 17 -14 32 -32 32v554h100l30 79h334l29 -79h101v-921zM400 563v-172h15v78h38v14h-38v66h43v14h-58zM184 563v-172h15v79h47v-79h15v172h-15v-79h-47v79h-15zM460 394c5 -2 14 -4 21 -4c20 0 31 11 31 36
v137h-16v-137c0 -16 -5 -22 -16 -22c-6 0 -15 3 -20 5v-15zM371 465l-13 3c-2 -9 -5 -21 -8 -30h-1l-16 31c13 12 23 26 23 42c0 17 -9 31 -27 31c-17 0 -28 -14 -28 -31c0 -15 6 -24 14 -39c-15 -12 -23 -28 -23 -47c0 -22 12 -37 29 -37c13 0 23 9 29 24h1l12 -24l12 6
l-17 32c5 12 9 25 13 39zM523 323v-46h8v12l8 8l15 -20h10l-20 26l18 20h-10l-20 -24h-1v24h-8zM488 292l10 -15h9l-12 17c5 2 10 6 10 14c0 9 -7 15 -17 15h-20v-46h8v15h12zM426 276c14 0 24 11 24 24c0 12 -10 24 -24 24s-24 -12 -24 -24c0 -13 10 -24 24 -24zM370 301
l-13 22h-9l18 -29v-17h8v17l18 29h-9zM193 323v-46h34v7h-26v13h23v7h-23v12h26v7h-34zM132 323v-46h8v32l25 -32h7v46h-8v-32l-25 32h-7zM241 323l14 -47h8l11 34h1l11 -34h8l14 47h-8l-10 -35h-1l-11 35h-7l-11 -35h-1l-10 35h-8zM327 479c-7 13 -12 22 -12 32
c0 11 6 19 14 19s13 -8 13 -19c0 -12 -5 -21 -15 -32zM342 423c-5 -13 -12 -21 -20 -21c-9 0 -16 10 -16 25c0 13 7 26 16 35zM487 299h-11v17h11c6 0 10 -3 10 -8s-4 -9 -10 -9zM426 283c-10 0 -16 8 -16 17c0 8 6 17 16 17s16 -9 16 -17c0 -9 -6 -17 -16 -17z" />
    <glyph glyph-name="i.dot" horiz-adv-x="328" 
d="M168 546c-45 0 -76 30 -76 73c0 44 31 76 76 76s75 -29 75 -73s-30 -76 -75 -76zM36 0v74h80v315h-80v74h197v-389h80v-74h-277z" />
    <glyph glyph-name="acute" unicode="&#xb4;" horiz-adv-x="251" 
d="M44 534l47 121c20 54 39 84 76 84c29 0 51 -23 51 -49s-14 -46 -48 -81l-69 -75h-57z" />
    <glyph glyph-name="hungarumlaut" unicode="&#x2dd;" horiz-adv-x="308" 
d="M145 534l50 121c22 53 43 84 79 84c27 0 48 -21 48 -47s-16 -48 -49 -83l-71 -75h-57zM-16 534l48 121c21 53 40 84 77 84c28 0 49 -22 49 -47c0 -26 -14 -48 -47 -83l-70 -75h-57z" />
    <glyph glyph-name="caron.alt" horiz-adv-x="238" 
d="M119 525h-46c-3 42 -6 146 -6 152c-1 60 21 87 56 87c29 0 50 -22 50 -55c0 -19 -6 -39 -18 -75z" />
    <glyph glyph-name="grave" unicode="`" horiz-adv-x="251" 
d="M198 534h-57l-70 75c-33 35 -47 55 -47 81s22 49 51 49c37 0 56 -31 76 -84z" />
    <glyph glyph-name="circumflex" unicode="&#x2c6;" horiz-adv-x="321" 
d="M15 535l117 189h58l116 -189h-65l-81 90l-80 -90h-65z" />
    <glyph glyph-name="caron" unicode="&#x2c7;" horiz-adv-x="321" 
d="M132 541l-116 189h65l81 -90l80 90h65l-117 -189h-58z" />
    <glyph glyph-name="breve" unicode="&#x2d8;" horiz-adv-x="346" 
d="M173 537c-88 0 -143 59 -146 168h53c14 -54 42 -86 94 -86c51 0 78 32 92 86h53c-1 -109 -58 -168 -146 -168z" />
    <glyph glyph-name="tilde" unicode="&#x2dc;" horiz-adv-x="361" 
d="M16 535c10 98 37 140 104 140c55 0 105 -48 136 -48c18 0 27 16 34 55h56c-11 -98 -37 -140 -104 -140c-55 0 -105 48 -136 48c-19 0 -27 -16 -34 -55h-56z" />
    <glyph glyph-name="macron" unicode="&#xaf;" horiz-adv-x="339" 
d="M34 546v84h271v-84h-271z" />
    <glyph glyph-name="dieresis" unicode="&#xa8;" horiz-adv-x="349" 
d="M270 548c-39 0 -67 30 -67 67c0 39 28 70 67 70s67 -30 67 -68c0 -39 -28 -69 -67 -69zM80 548c-39 0 -67 30 -67 67c0 39 28 70 67 70s66 -30 66 -68c0 -39 -28 -69 -66 -69z" />
    <glyph glyph-name="dotaccent" unicode="&#x2d9;" horiz-adv-x="201" 
d="M101 535c-44 0 -72 29 -72 70c0 39 30 72 72 72c43 0 71 -30 71 -71c0 -39 -30 -71 -71 -71z" />
    <glyph glyph-name="ring" unicode="&#x2da;" horiz-adv-x="274" 
d="M137 528c-76 0 -116 50 -116 108s41 108 116 108s116 -49 116 -108c0 -58 -42 -108 -116 -108zM137 570c34 0 54 26 54 66s-21 67 -54 67s-54 -27 -54 -67s22 -66 54 -66z" />
    <glyph glyph-name="commaaccent" unicode="&#x326;" horiz-adv-x="240" 
d="M52 -337l-20 39c64 29 94 64 100 105l-6 3c-6 -6 -17 -11 -31 -11c-28 0 -53 24 -53 59c0 38 29 71 70 71c49 0 80 -36 80 -92c0 -75 -40 -133 -140 -174z" />
    <glyph glyph-name="cedilla" unicode="&#xb8;" horiz-adv-x="306" 
d="M123 -246c-39 0 -82 10 -118 33l26 41c25 -14 51 -20 77 -20c35 0 51 11 51 33c0 23 -27 39 -72 39c-11 0 -20 0 -31 -3l-19 30l103 99h63l-68 -68l2 -4c71 -7 106 -42 106 -85c0 -59 -47 -95 -120 -95z" />
    <glyph glyph-name="ogonek" unicode="&#x2db;" horiz-adv-x="283" 
d="M122 -246c-73 0 -113 39 -113 95c0 51 32 89 96 141l31 25h70l-28 -27c-62 -60 -76 -92 -76 -121c0 -33 22 -50 52 -50c23 0 42 10 58 20l22 -42c-31 -23 -70 -41 -112 -41z" />
    </font>
</defs>
</svg>
