<?xml version="1.0" standalone="no"?>
<!DOCTYPE svg PUBLIC "-//W3C//DTD SVG 1.1//EN" "http://www.w3.org/Graphics/SVG/1.1/DTD/svg11.dtd" >
<svg xmlns="http://www.w3.org/2000/svg" xmlns:xlink="http://www.w3.org/1999/xlink" version="1.1">
<metadata>
Created by FontForge 20170812 at Wed Dec  3 17:31:21 2008
 By www-data
Copyright (C) 2004, 2009 Hoefler &#38; Frere-Jones. http://www.typography.com
</metadata>
<defs>
<font id="Sentinel-Medium" horiz-adv-x="720" >
  <font-face 
    font-family="Sentinel Medium"
    font-weight="350"
    font-stretch="normal"
    units-per-em="1000"
    panose-1="0 0 0 0 0 0 0 0 0 0"
    ascent="800"
    descent="-200"
    x-height="458"
    cap-height="658"
    bbox="-61 -316 1144 1095"
    underline-thickness="50"
    underline-position="-100"
    stemh="66"
    stemv="94"
    unicode-range="U+0020-FB04"
  />
<missing-glyph horiz-adv-x="500" 
d="M0 -200v1000h500v-1000h-500zM71 750l179 -390l179 390h-358zM50 -76l172 376l-172 376v-752zM450 676l-172 -376l172 -376v752zM250 240l-179 -390h358z" />
    <glyph glyph-name="f_b" unicode="fb" horiz-adv-x="858" 
d="M33 0v66h73v326h-90v61h90v21c0 158 102 219 194 219c33 0 61 -7 82 -18l101 17v-327c33 63 92 101 153 101c55 0 91 -17 119 -45c43 -43 62 -106 62 -191c0 -74 -24 -144 -67 -187c-32 -32 -79 -52 -123 -52c-72 0 -119 40 -152 94l-33 -91h-53v398h-189v-326h71v-66
h-238zM608 54c63 0 105 62 105 176c0 110 -39 173 -105 173c-72 0 -127 -78 -127 -185c0 -106 61 -164 127 -164zM200 479v-26h189v90c-5 -1 -10 -2 -15 -2c-36 0 -61 20 -61 62c0 8 3 23 8 33c-8 5 -18 8 -35 8c-51 0 -86 -35 -86 -165z" />
    <glyph glyph-name="f_f" unicode="ff" horiz-adv-x="623" 
d="M302 693c67 0 115 -30 131 -69c38 48 95 69 149 69c82 0 129 -40 129 -90c0 -32 -23 -62 -55 -62c-36 0 -61 20 -61 62c0 8 3 23 8 33c-8 5 -18 8 -35 8c-51 0 -86 -35 -86 -165v-26h132v-61h-132v-326h104v-66h-264v66h66v326h-188v-326h66v-66h-230v66h70v326h-90v61
h90v17c0 160 105 223 196 223zM388 453v21c0 21 1 40 5 58c-3 -1 -6 -1 -9 -1c-36 0 -61 21 -61 60c0 12 6 28 12 37c-9 8 -18 15 -43 15c-53 0 -92 -39 -92 -157v-33h188z" />
    <glyph glyph-name="f_h" unicode="fh" horiz-adv-x="877" 
d="M332 0v66h71v326h-203v-326h71v-66h-238v66h73v326h-90v61h90v21c0 158 102 219 194 219c33 0 61 -7 82 -19l115 18v-348c52 86 104 120 170 120c73 0 122 -53 122 -143v-255h73v-66h-234v66h67v221c0 34 -8 63 -25 80c-13 13 -31 20 -54 20c-56 0 -119 -55 -119 -147
v-174h67v-66h-232zM200 479v-26h203v97c-8 -6 -18 -9 -29 -9c-36 0 -61 20 -61 62c0 8 3 23 8 33c-8 5 -18 8 -35 8c-51 0 -86 -35 -86 -165z" />
    <glyph glyph-name="fi" unicode="fi" horiz-adv-x="586" 
d="M393 392h-193v-326h66v-66h-233v66h73v326h-90v61h90v14c0 168 114 226 206 226c86 0 162 -52 162 -109c0 -37 -23 -63 -57 -63c-36 0 -60 23 -60 59c0 16 8 31 15 40c-11 11 -37 22 -71 22c-58 0 -101 -47 -101 -146v-43h287v-387h83v-66h-243v66h66v326z" />
    <glyph glyph-name="f_j" unicode="fj" horiz-adv-x="563" 
d="M487 453v-425c0 -118 -49 -195 -165 -195c-64 0 -111 31 -111 79c0 34 26 67 62 67c37 0 59 -28 59 -57c0 -11 -4 -25 -8 -33c5 -2 14 -3 17 -3c34 0 52 29 52 88v418h-193v-326h66v-66h-233v66h73v326h-90v61h90v14c0 168 114 226 206 226c86 0 162 -52 162 -109
c0 -37 -23 -63 -57 -63c-36 0 -60 23 -60 59c0 16 8 31 15 40c-11 11 -37 22 -71 22c-58 0 -101 -47 -101 -146v-43h287z" />
    <glyph glyph-name="f_k" unicode="fk" horiz-adv-x="848" 
d="M33 0v66h73v326h-90v61h90v21c0 158 102 219 194 219c33 0 61 -7 82 -19l115 18v-473l166 173h-75v66h224v-66h-69l-121 -121l158 -205h54v-66h-217v66h57l-112 150l-65 -65v-85h57v-66h-222v66h71v326h-203v-326h71v-66h-238zM200 479v-26h203v97c-8 -6 -18 -9 -29 -9
c-36 0 -61 20 -61 62c0 8 3 23 8 33c-8 5 -18 8 -35 8c-51 0 -86 -35 -86 -165z" />
    <glyph glyph-name="fl" unicode="fl" horiz-adv-x="599" 
d="M33 0v66h73v326h-90v61h90v21c0 158 102 219 194 219c33 0 61 -7 82 -19l115 18v-626h83v-66h-248v66h71v326h-203v-326h71v-66h-238zM200 479v-26h203v97c-8 -6 -18 -9 -29 -9c-36 0 -61 20 -61 62c0 8 3 23 8 33c-8 5 -18 8 -35 8c-51 0 -86 -35 -86 -165z" />
    <glyph glyph-name="f_f_b" unicode="ffb" horiz-adv-x="1140" 
d="M765 692v-327c33 63 92 101 153 101c55 0 91 -17 119 -45c43 -43 62 -106 62 -191c0 -74 -24 -144 -67 -187c-32 -32 -79 -52 -123 -52c-72 0 -119 40 -152 94l-33 -91h-53v398h-189v-326h71v-66h-231v66h66v326h-188v-326h66v-66h-230v66h70v326h-90v61h90v17
c0 160 105 223 196 223c67 0 115 -30 131 -69c38 48 95 69 149 69c33 0 61 -7 82 -18zM890 54c63 0 105 62 105 176c0 110 -39 173 -105 173c-72 0 -127 -78 -127 -185c0 -106 61 -164 127 -164zM388 453v21c0 21 1 40 5 58c-3 -1 -6 -1 -9 -1c-36 0 -61 21 -61 60
c0 12 6 28 12 37c-9 8 -18 15 -43 15c-53 0 -92 -39 -92 -157v-33h188zM482 479v-26h189v90c-5 -1 -10 -2 -15 -2c-36 0 -61 20 -61 62c0 8 3 23 8 33c-8 5 -18 8 -35 8c-51 0 -86 -35 -86 -165z" />
    <glyph glyph-name="f_f_h" unicode="ffh" horiz-adv-x="1159" 
d="M614 0v66h71v326h-203v-326h71v-66h-231v66h66v326h-188v-326h66v-66h-230v66h70v326h-90v61h90v17c0 160 105 223 196 223c67 0 115 -30 131 -69c38 48 95 69 149 69c33 0 61 -7 82 -19l115 18v-348c52 86 104 120 170 120c73 0 122 -53 122 -143v-255h73v-66h-234v66
h67v221c0 34 -8 63 -25 80c-13 13 -31 20 -54 20c-56 0 -119 -55 -119 -147v-174h67v-66h-232zM482 479v-26h203v97c-8 -6 -18 -9 -29 -9c-36 0 -61 20 -61 62c0 8 3 23 8 33c-8 5 -18 8 -35 8c-51 0 -86 -35 -86 -165zM388 474c0 21 1 40 5 58c-3 -1 -6 -1 -9 -1
c-36 0 -61 21 -61 60c0 12 6 28 12 37c-9 8 -18 15 -43 15c-53 0 -92 -39 -92 -157v-33h188v21z" />
    <glyph glyph-name="f_f_i" unicode="ffi" horiz-adv-x="868" 
d="M482 496v-43h287v-387h83v-66h-243v66h66v326h-193v-326h66v-66h-226v66h66v326h-188v-326h66v-66h-230v66h70v326h-90v61h90v17c0 160 105 223 196 223c69 0 118 -32 133 -73c41 52 104 73 159 73c86 0 162 -52 162 -109c0 -37 -23 -63 -57 -63c-36 0 -60 23 -60 59
c0 16 8 31 15 40c-11 11 -37 22 -71 22c-58 0 -101 -47 -101 -146zM388 467c0 24 2 45 6 65c-3 -1 -7 -1 -10 -1c-36 0 -61 21 -61 60c0 12 6 28 12 37c-9 8 -18 15 -43 15c-53 0 -92 -39 -92 -157v-33h188v14z" />
    <glyph glyph-name="f_f_j" unicode="ffj" horiz-adv-x="845" 
d="M769 453v-425c0 -118 -49 -195 -165 -195c-64 0 -111 31 -111 79c0 34 26 67 62 67c37 0 59 -28 59 -57c0 -11 -4 -25 -8 -33c5 -2 14 -3 17 -3c34 0 52 29 52 88v418h-193v-326h66v-66h-226v66h66v326h-188v-326h66v-66h-230v66h70v326h-90v61h90v17
c0 160 105 223 196 223c69 0 118 -32 133 -73c41 52 104 73 159 73c86 0 162 -52 162 -109c0 -37 -23 -63 -57 -63c-36 0 -60 23 -60 59c0 16 8 31 15 40c-11 11 -37 22 -71 22c-58 0 -101 -47 -101 -146v-43h287zM388 467c0 24 2 45 6 65c-3 -1 -7 -1 -10 -1
c-36 0 -61 21 -61 60c0 12 6 28 12 37c-9 8 -18 15 -43 15c-53 0 -92 -39 -92 -157v-33h188v14z" />
    <glyph glyph-name="f_f_k" unicode="ffk" horiz-adv-x="1130" 
d="M779 692v-473l166 173h-75v66h224v-66h-69l-121 -121l158 -205h54v-66h-217v66h57l-112 150l-65 -65v-85h57v-66h-222v66h71v326h-203v-326h71v-66h-231v66h66v326h-188v-326h66v-66h-230v66h70v326h-90v61h90v17c0 160 105 223 196 223c67 0 115 -30 131 -69
c38 48 95 69 149 69c33 0 61 -7 82 -19zM482 479v-26h203v97c-8 -6 -18 -9 -29 -9c-36 0 -61 20 -61 62c0 8 3 23 8 33c-8 5 -18 8 -35 8c-51 0 -86 -35 -86 -165zM388 474c0 21 1 40 5 58c-3 -1 -6 -1 -9 -1c-36 0 -61 21 -61 60c0 12 6 28 12 37c-9 8 -18 15 -43 15
c-53 0 -92 -39 -92 -157v-33h188v21z" />
    <glyph glyph-name="f_f_l" unicode="ffl" horiz-adv-x="881" 
d="M614 0v66h71v326h-203v-326h71v-66h-231v66h66v326h-188v-326h66v-66h-230v66h70v326h-90v61h90v17c0 160 105 223 196 223c67 0 115 -30 131 -69c38 48 95 69 149 69c33 0 61 -7 82 -19l115 18v-626h83v-66h-248zM482 479v-26h203v97c-8 -6 -18 -9 -29 -9
c-36 0 -61 20 -61 62c0 8 3 23 8 33c-8 5 -18 8 -35 8c-51 0 -86 -35 -86 -165zM388 453v21c0 21 1 40 5 58c-3 -1 -6 -1 -9 -1c-36 0 -61 21 -61 60c0 12 6 28 12 37c-9 8 -18 15 -43 15c-53 0 -92 -39 -92 -157v-33h188z" />
    <glyph glyph-name=".notdef" horiz-adv-x="500" 
d="M0 -200v1000h500v-1000h-500zM71 750l179 -390l179 390h-358zM50 -76l172 376l-172 376v-752zM450 676l-172 -376l172 -376v752zM250 240l-179 -390h358z" />
    <glyph glyph-name="A" unicode="A" horiz-adv-x="672" 
d="M490 66l-57 165h-238l-60 -165h83v-66h-231v66h71l229 596h101l215 -596h91v-66h-308v66h104zM316 558l-99 -269h196l-93 269h-4z" />
    <glyph glyph-name="B" unicode="B" horiz-adv-x="639" 
d="M30 0v66h111v526h-111v66h299c197 0 246 -75 246 -159c0 -53 -36 -127 -169 -150v-5c135 -10 201 -77 201 -156c0 -96 -57 -188 -277 -188h-300zM244 375h79c110 0 144 48 144 117c0 63 -28 100 -142 100h-81v-217zM244 66h78c130 0 175 38 175 131
c0 69 -48 120 -177 120h-76v-251z" />
    <glyph glyph-name="C" unicode="C" horiz-adv-x="676" 
d="M351 -16c-188 0 -313 154 -313 347c0 186 142 343 311 343c79 0 143 -31 183 -77l18 74h66v-258h-60c-45 119 -113 195 -201 195c-111 0 -197 -77 -197 -271c0 -179 75 -283 209 -283c119 0 188 95 203 209h71c-17 -177 -136 -279 -290 -279z" />
    <glyph glyph-name="D" unicode="D" horiz-adv-x="722" 
d="M30 0v66h111v526h-111v66h282c246 0 372 -130 372 -319c0 -182 -111 -339 -363 -339h-291zM244 66h78c168 0 242 73 242 273c0 175 -75 253 -252 253h-68v-526z" />
    <glyph glyph-name="E" unicode="E" horiz-adv-x="678" 
d="M30 0v66h111v526h-111v66h582v-214h-48c-36 118 -46 148 -123 148h-197v-226h69c74 0 83 10 102 101h53v-262h-53c-17 95 -28 105 -102 105h-69v-244h193c88 0 99 31 136 168h48v-234h-591z" />
    <glyph glyph-name="F" unicode="F" horiz-adv-x="642" 
d="M30 0v66h111v526h-111v66h569v-219h-48c-42 128 -59 153 -136 153h-171v-237h57c74 0 88 12 102 102h53v-266h-53c-12 94 -28 108 -102 108h-57v-233h122v-66h-336z" />
    <glyph glyph-name="G" unicode="G" horiz-adv-x="718" 
d="M533 82c-41 -60 -103 -98 -182 -98c-188 0 -313 154 -313 347c0 186 142 343 311 343c79 0 143 -31 183 -77l18 74h66v-258h-60c-45 119 -113 195 -201 195c-111 0 -197 -77 -197 -271c0 -179 75 -283 209 -283c73 0 112 39 134 79c14 26 21 77 21 107v25h-121v66h312
v-66h-88v-272h-64z" />
    <glyph glyph-name="H" unicode="H" horiz-adv-x="789" 
d="M30 0v66h111v526h-111v66h309v-66h-95v-222h301v222h-95v66h309v-66h-111v-526h111v-66h-309v66h95v246h-301v-246h95v-66h-309z" />
    <glyph glyph-name="I" unicode="I" horiz-adv-x="405" 
d="M40 0v66h111v526h-111v66h325v-66h-111v-526h111v-66h-325z" />
    <glyph glyph-name="J" unicode="J" horiz-adv-x="556" 
d="M230 -16c-120 0 -204 65 -204 159c0 52 35 89 77 89c36 0 71 -25 71 -75c0 -31 -19 -54 -43 -66c21 -30 59 -43 102 -43c66 0 103 40 103 119v425h-110v66h318v-66h-105v-410c0 -124 -77 -198 -209 -198z" />
    <glyph glyph-name="K" unicode="K" horiz-adv-x="724" 
d="M244 232v-166h95v-66h-309v66h111v526h-111v66h309v-66h-95v-279l267 279h-86v66h262v-66h-83l-207 -207l236 -319h83v-66h-292v66h84l-179 251z" />
    <glyph glyph-name="L" unicode="L" horiz-adv-x="610" 
d="M30 658h325v-66h-111v-526h138c81 0 96 17 146 179h48v-245h-546v66h111v526h-111v66z" />
    <glyph glyph-name="M" unicode="M" horiz-adv-x="949" 
d="M35 0v66h101v526h-101v66h272l167 -487h3l170 487h267v-66h-106v-526h106v-66h-297v66h88v518h-9l-211 -584h-52l-214 584h-9v-518h94v-66h-269z" />
    <glyph glyph-name="N" unicode="N" horiz-adv-x="792" 
d="M591 -16l-372 541h-9v-459h104v-66h-279v66h101v526h-101v66h218l331 -480h9v414h-104v66h279v-66h-101v-608h-76z" />
    <glyph glyph-name="O" unicode="O" 
d="M360 -16c-179 0 -322 144 -322 345c0 196 148 345 322 345c179 0 322 -143 322 -345c0 -197 -148 -345 -322 -345zM360 50c131 0 202 104 202 279s-71 279 -202 279s-202 -105 -202 -279s71 -279 202 -279z" />
    <glyph glyph-name="P" unicode="P" horiz-adv-x="621" 
d="M30 0v66h111v526h-111v66h288c205 0 277 -91 277 -189c0 -91 -59 -199 -268 -199h-83v-204h122v-66h-336zM244 330h76c131 0 157 59 157 137c0 65 -33 125 -158 125h-75v-262z" />
    <glyph glyph-name="Q" unicode="Q" 
d="M360 -16c-179 0 -322 144 -322 345c0 196 148 345 322 345c179 0 322 -143 322 -345c0 -117 -52 -217 -130 -278c35 -59 59 -73 87 -73c34 0 50 24 60 82h55c-7 -98 -47 -167 -129 -167c-71 0 -116 36 -152 112c-36 -13 -74 -21 -113 -21zM207 129c17 69 72 115 148 115
c70 0 115 -45 157 -118c33 47 50 116 50 203c0 175 -71 279 -202 279s-202 -105 -202 -279c0 -81 16 -149 49 -200zM360 50c32 0 62 6 87 19c-28 61 -64 110 -113 110c-46 0 -73 -32 -73 -73c0 -29 21 -56 99 -56z" />
    <glyph glyph-name="R" unicode="R" horiz-adv-x="685" 
d="M244 290v-224h108v-66h-322v66h111v526h-111v66h322c201 0 255 -88 255 -171c0 -68 -40 -139 -167 -160v-9c102 -22 132 -72 137 -141l6 -73c3 -33 12 -45 30 -45c16 0 28 13 44 42l44 -21c-21 -55 -58 -91 -112 -91c-59 0 -115 27 -117 118l-2 80
c-2 68 -17 103 -112 103h-114zM244 350h106c107 0 139 48 139 129c0 72 -32 113 -127 113h-118v-242z" />
    <glyph glyph-name="S" unicode="S" horiz-adv-x="585" 
d="M53 -13v238h60c73 -134 119 -179 212 -179c78 0 125 40 125 109c0 81 -85 103 -175 129c-103 29 -213 64 -213 199c0 98 82 191 207 191c56 0 125 -24 162 -70l21 67h66v-228h-60c-61 130 -119 169 -194 169c-64 0 -104 -40 -104 -100c0 -89 88 -109 180 -133
c101 -25 208 -56 208 -189c0 -115 -94 -206 -222 -206c-74 0 -143 26 -183 72l-24 -69h-66z" />
    <glyph glyph-name="T" unicode="T" horiz-adv-x="677" 
d="M171 0v66h116v536h-44c-88 0 -107 -29 -156 -178h-47v234h597v-234h-47c-49 149 -68 178 -156 178h-44v-536h116v-66h-335z" />
    <glyph glyph-name="U" unicode="U" horiz-adv-x="751" 
d="M374 -16c-168 0 -258 89 -258 215v393h-96v66h297v-66h-98v-360c0 -127 64 -176 186 -176c54 0 90 18 119 47c34 34 41 78 41 153v336h-103v66h271v-66h-94v-393c0 -113 -93 -215 -265 -215z" />
    <glyph glyph-name="V" unicode="V" horiz-adv-x="684" 
d="M300 -4l-222 596h-91v66h309v-66h-104l168 -481h9l179 481h-83v66h231v-66h-71l-232 -596h-93z" />
    <glyph glyph-name="W" unicode="W" horiz-adv-x="992" 
d="M687 592h-117l127 -474h9l145 474h-83v66h231v-66h-71l-198 -596h-101l-118 425l-146 -425h-100l-187 596h-91v66h310v-66h-106l141 -474h9l138 409l-18 65h-91v66h317v-66z" />
    <glyph glyph-name="X" unicode="X" horiz-adv-x="684" 
d="M410 592v66h254v-66h-83l-184 -248l191 -278h89v-66h-295v66h88l-144 217l-158 -217h93v-66h-254v66h83l196 264l-181 262h-90v66h295v-66h-85l133 -201l143 201h-91z" />
    <glyph glyph-name="Y" unicode="Y" horiz-adv-x="647" 
d="M349 334l149 258h-84v66h232v-66h-77l-193 -317v-209h101v-66h-303v66h99v208l-181 318h-82v66h289v-66h-90z" />
    <glyph glyph-name="Z" unicode="Z" horiz-adv-x="629" 
d="M42 0v51l413 541h-199c-81 0 -98 -10 -148 -172h-48v238h524v-51l-411 -541h220c81 0 96 17 146 179h48v-245h-545z" />
    <glyph glyph-name="a" unicode="a" horiz-adv-x="491" 
d="M177 -5c-84 0 -133 49 -133 118c0 32 10 60 34 84c37 37 87 49 170 61c59 9 70 10 70 28v47c0 59 -28 81 -91 81c-30 0 -53 -6 -77 -19c17 -8 29 -28 29 -49c0 -30 -21 -56 -58 -56c-39 0 -61 29 -61 58c0 73 85 117 188 117c104 0 164 -43 164 -139v-232
c0 -23 7 -33 31 -33c14 0 26 14 36 36l35 -21c-24 -56 -58 -79 -103 -79c-42 0 -82 24 -82 80h-5c-25 -49 -88 -82 -147 -82zM220 59c45 0 98 39 98 92v79c-9 -4 -20 -6 -45 -10c-97 -15 -127 -27 -127 -87c0 -44 23 -74 74 -74z" />
    <glyph glyph-name="b" unicode="b" horiz-adv-x="546" 
d="M296 54c63 0 105 62 105 176c0 110 -39 173 -105 173c-72 0 -127 -78 -127 -185c0 -106 61 -164 127 -164zM77 -6v621h-73v72h167v-322c33 63 92 101 153 101c55 0 91 -17 119 -45c43 -43 62 -106 62 -191c0 -74 -24 -144 -67 -187c-32 -32 -79 -52 -123 -52
c-72 0 -119 40 -152 94l-33 -91h-53z" />
    <glyph glyph-name="c" unicode="c" horiz-adv-x="481" 
d="M257 -9c-140 0 -221 99 -221 231c0 142 102 244 237 244c100 0 176 -69 176 -129c0 -47 -23 -81 -65 -81c-40 0 -62 28 -62 61c0 27 22 53 39 60c-14 22 -44 40 -92 40c-70 0 -129 -64 -129 -183c0 -114 49 -180 142 -180c56 0 102 33 125 98h48
c-24 -103 -97 -161 -198 -161z" />
    <glyph glyph-name="d" unicode="d" horiz-adv-x="551" 
d="M227 -9c-47 0 -91 19 -121 49c-44 44 -65 111 -65 182c0 74 26 150 69 193c33 33 75 51 125 51c67 0 111 -33 140 -80v229h-76v72h170v-621h67v-66h-159v94c-34 -69 -89 -103 -150 -103zM260 54c60 0 117 64 117 176c0 91 -36 173 -117 173c-73 0 -115 -64 -115 -173
c0 -113 53 -176 115 -176z" />
    <glyph glyph-name="e" unicode="e" horiz-adv-x="490" 
d="M456 223h-316c3 -113 52 -169 140 -169c56 0 98 24 126 85h48c-26 -98 -98 -148 -199 -148c-140 0 -219 101 -219 233c0 137 95 242 225 242c137 0 198 -122 195 -243zM254 413c-63 0 -105 -40 -113 -143h219c-7 85 -36 143 -106 143z" />
    <glyph glyph-name="f" unicode="f" horiz-adv-x="341" 
d="M33 0v66h73v326h-90v61h90v21c0 158 102 219 194 219c82 0 129 -40 129 -90c0 -32 -23 -62 -55 -62c-36 0 -61 20 -61 62c0 8 3 23 8 33c-8 5 -18 8 -35 8c-51 0 -86 -35 -86 -165v-26h132v-61h-132v-326h104v-66h-271z" />
    <glyph glyph-name="g" unicode="g" horiz-adv-x="477" 
d="M423 321c0 -97 -80 -150 -186 -150c-22 0 -41 3 -60 3c-32 0 -48 -21 -48 -40c0 -24 17 -40 67 -40h121c105 0 146 -47 146 -111c0 -81 -78 -150 -238 -150c-123 0 -202 43 -202 103c0 42 39 82 96 89v5c-54 18 -73 48 -73 81c0 34 38 72 86 82c-50 24 -82 62 -82 123
c0 96 81 150 187 150c25 0 50 -4 72 -11c30 51 74 89 128 89c39 0 65 -24 65 -57c0 -28 -20 -50 -46 -50c-27 0 -43 16 -43 41c0 3 0 7 1 11c-18 4 -48 -20 -65 -51c45 -26 74 -67 74 -117zM240 217c56 0 85 34 85 102c0 58 -33 101 -92 101c-57 0 -86 -31 -86 -102
s35 -101 93 -101zM231 -116c88 0 150 29 150 75c0 32 -18 54 -70 54h-112c-60 0 -88 -21 -88 -62c0 -34 23 -67 120 -67z" />
    <glyph glyph-name="h" unicode="h" horiz-adv-x="570" 
d="M23 0v66h73v549h-73v72h167v-343c52 86 104 120 170 120c73 0 122 -53 122 -143v-255h73v-66h-234v66h67v221c0 34 -8 63 -25 80c-13 13 -31 20 -54 20c-56 0 -119 -55 -119 -147v-174h67v-66h-234z" />
    <glyph glyph-name="i" unicode="i" horiz-adv-x="316" 
d="M164 554c-39 0 -65 25 -65 65s26 68 65 68s65 -26 65 -66s-26 -67 -65 -67zM40 0v66h83v326h-83v66h177v-392h83v-66h-260z" />
    <glyph glyph-name="j" unicode="j" horiz-adv-x="291" 
d="M162 554c-39 0 -65 25 -65 65s26 68 65 68s65 -26 65 -66s-26 -67 -65 -67zM50 -167c-64 0 -111 31 -111 79c0 34 26 67 62 67c37 0 59 -28 59 -57c0 -11 -4 -25 -8 -33c5 -2 14 -3 17 -3c34 0 52 29 52 88v418h-83v66h177v-430c0 -118 -49 -195 -165 -195z" />
    <glyph glyph-name="k" unicode="k" horiz-adv-x="541" 
d="M436 392l-121 -121l158 -205h54v-66h-217v66h57l-112 150l-65 -65v-85h57v-66h-224v66h73v549h-73v72h167v-468l166 173h-75v66h224v-66h-69z" />
    <glyph glyph-name="l" unicode="l" horiz-adv-x="298" 
d="M19 0v66h83v549h-83v72h177v-621h83v-66h-260z" />
    <glyph glyph-name="m" unicode="m" horiz-adv-x="856" 
d="M483 347c54 84 108 117 168 117c73 0 117 -53 117 -143v-255h73v-66h-229v66h62v221c0 36 -7 65 -24 82c-12 12 -28 18 -50 18c-50 0 -115 -55 -115 -147v-174h62v-66h-218v66h62v221c0 36 -7 65 -24 82c-12 12 -28 18 -50 18c-51 0 -115 -55 -115 -147v-174h62v-66h-229
v66h73v326h-73v66h165v-116c52 86 108 122 168 122c64 0 109 -35 115 -117z" />
    <glyph glyph-name="n" unicode="n" horiz-adv-x="582" 
d="M35 0v66h73v326h-73v66h165v-116c52 86 106 122 172 122c73 0 122 -53 122 -143v-255h73v-66h-234v66h67v221c0 34 -8 63 -25 80c-13 13 -31 20 -54 20c-56 0 -119 -55 -119 -147v-174h67v-66h-234z" />
    <glyph glyph-name="o" unicode="o" horiz-adv-x="529" 
d="M265 -9c-143 0 -229 96 -229 236c0 139 92 239 229 239c141 0 228 -96 228 -235c0 -140 -92 -240 -228 -240zM269 45c78 0 120 58 120 184s-49 183 -129 183c-79 0 -120 -57 -120 -183s49 -184 129 -184z" />
    <glyph glyph-name="p" unicode="p" horiz-adv-x="557" 
d="M301 63c71 0 111 62 111 178c0 111 -46 162 -108 162c-58 0 -120 -73 -120 -178c0 -91 40 -162 117 -162zM19 -154v66h73v480h-73v66h165v-105c33 80 93 113 154 113c48 0 87 -18 117 -48c42 -42 61 -107 61 -182s-25 -144 -67 -186c-31 -31 -73 -50 -116 -50
c-70 0 -119 37 -147 86v-174h96v-66h-263z" />
    <glyph glyph-name="q" unicode="q" horiz-adv-x="538" 
d="M260 403c-73 0 -115 -63 -115 -173c0 -118 48 -167 115 -167c60 0 116 65 116 170c0 100 -47 170 -116 170zM374 96c-29 -63 -84 -96 -145 -96c-52 0 -96 20 -127 51c-41 41 -61 109 -61 179c0 67 26 140 68 182c34 34 78 54 123 54c72 0 117 -40 150 -94l33 89h53v-549
h73v-66h-263v66h96v184z" />
    <glyph glyph-name="r" unicode="r" horiz-adv-x="422" 
d="M35 0v66h73v326h-73v66h165v-106c23 77 83 112 135 112c51 0 80 -35 80 -78c0 -35 -26 -65 -60 -65c-35 0 -63 21 -63 59c0 5 1 11 2 17c-45 2 -76 -49 -92 -109v-222h87v-66h-254z" />
    <glyph glyph-name="s" unicode="s" horiz-adv-x="442" 
d="M45 -9v173h61c25 -73 82 -124 146 -124c54 0 77 27 77 64c0 40 -31 59 -121 84c-110 31 -155 69 -155 142c0 74 64 136 158 136c47 0 89 -18 111 -53l10 53h59v-157h-60c-31 67 -60 108 -122 108c-35 0 -71 -20 -71 -58c0 -40 35 -61 117 -83c106 -29 156 -63 156 -141
c0 -69 -61 -144 -164 -144c-57 0 -104 24 -133 60l-11 -60h-58z" />
    <glyph glyph-name="t" unicode="t" horiz-adv-x="362" 
d="M96 567l94 10v-124h150v-61h-150v-270c0 -45 13 -67 55 -67c28 0 50 26 70 79l45 -19c-26 -88 -79 -124 -143 -124c-80 0 -121 47 -121 122v279h-90v61h90v114z" />
    <glyph glyph-name="u" unicode="u" horiz-adv-x="565" 
d="M211 -6c-73 0 -119 53 -119 143v255h-73v66h167v-287c0 -35 7 -64 24 -81c12 -12 29 -19 52 -19c56 0 119 55 119 147v174h-76v66h170v-392h73v-66h-165v116c-52 -86 -106 -122 -172 -122z" />
    <glyph glyph-name="v" unicode="v" horiz-adv-x="513" 
d="M213 -6l-149 398h-64v66h242v-66h-78l108 -307h4l109 307h-65v66h193v-66h-58l-154 -398h-88z" />
    <glyph glyph-name="w" unicode="w" horiz-adv-x="767" 
d="M519 392h-84l103 -310h4l97 310h-65v66h193v-66h-58l-138 -398h-92l-88 257l-104 -257h-88l-135 398h-64v66h235v-66h-75l98 -310h4l101 252l-20 58h-62v66h238v-66z" />
    <glyph glyph-name="x" unicode="x" horiz-adv-x="505" 
d="M241 394h-71l95 -122l105 122h-66v64h187v-66h-49l-140 -155l137 -171h52v-66h-222v64h70l-95 123l-108 -123h64v-64h-186v66h52l141 156l-140 170h-53v66h227v-64z" />
    <glyph glyph-name="y" unicode="y" horiz-adv-x="506" 
d="M74 -23c37 0 59 -29 59 -58c0 -11 -4 -25 -7 -31c38 9 64 29 96 114l-158 390h-64v66h242v-66h-78l107 -288l113 288h-64v66h193v-66h-59l-159 -381c-60 -142 -119 -178 -188 -178c-59 0 -96 31 -96 79c0 34 27 65 63 65z" />
    <glyph glyph-name="z" unicode="z" horiz-adv-x="465" 
d="M39 0v53l285 351h-114c-71 0 -82 -16 -112 -113h-46v167h382v-53l-286 -351h137c68 0 79 19 105 124h46v-178h-397z" />
    <glyph glyph-name="Aacute" unicode="&#xc1;" horiz-adv-x="672" 
d="M490 66l-57 165h-238l-60 -165h83v-66h-231v66h71l229 596h101l215 -596h91v-66h-308v66h104zM316 558l-99 -269h196l-93 269h-4zM309 741l48 124c19 50 37 74 66 74c23 0 42 -20 42 -43c0 -19 -10 -37 -40 -74l-66 -81h-50z" />
    <glyph glyph-name="aacute" unicode="&#xe1;" horiz-adv-x="491" 
d="M177 -5c-84 0 -133 49 -133 118c0 32 10 60 34 84c37 37 87 49 170 61c59 9 70 10 70 28v47c0 59 -28 81 -91 81c-30 0 -53 -6 -77 -19c17 -8 29 -28 29 -49c0 -30 -21 -56 -58 -56c-39 0 -61 29 -61 58c0 73 85 117 188 117c104 0 164 -43 164 -139v-232
c0 -23 7 -33 31 -33c14 0 26 14 36 36l35 -21c-24 -56 -58 -79 -103 -79c-42 0 -82 24 -82 80h-5c-25 -49 -88 -82 -147 -82zM220 59c45 0 98 39 98 92v79c-9 -4 -20 -6 -45 -10c-97 -15 -127 -27 -127 -87c0 -44 23 -74 74 -74zM219 533l48 124c19 50 37 74 66 74
c23 0 42 -20 42 -43c0 -19 -10 -37 -40 -74l-66 -81h-50z" />
    <glyph glyph-name="Abreve" unicode="&#x102;" horiz-adv-x="672" 
d="M490 66l-57 165h-238l-60 -165h83v-66h-231v66h71l229 596h101l215 -596h91v-66h-308v66h104zM316 558l-99 -269h196l-93 269h-4zM341 748c-80 0 -134 58 -139 157h41c16 -54 45 -87 98 -87s80 33 96 87h41c-3 -99 -57 -157 -137 -157z" />
    <glyph glyph-name="abreve" unicode="&#x103;" horiz-adv-x="491" 
d="M177 -5c-84 0 -133 49 -133 118c0 32 10 60 34 84c37 37 87 49 170 61c59 9 70 10 70 28v47c0 59 -28 81 -91 81c-30 0 -53 -6 -77 -19c17 -8 29 -28 29 -49c0 -30 -21 -56 -58 -56c-39 0 -61 29 -61 58c0 73 85 117 188 117c104 0 164 -43 164 -139v-232
c0 -23 7 -33 31 -33c14 0 26 14 36 36l35 -21c-24 -56 -58 -79 -103 -79c-42 0 -82 24 -82 80h-5c-25 -49 -88 -82 -147 -82zM220 59c45 0 98 39 98 92v79c-9 -4 -20 -6 -45 -10c-97 -15 -127 -27 -127 -87c0 -44 23 -74 74 -74zM251 540c-80 0 -134 58 -139 157h41
c16 -54 45 -87 98 -87s80 33 96 87h41c-3 -99 -57 -157 -137 -157z" />
    <glyph glyph-name="Acircumflex" unicode="&#xc2;" horiz-adv-x="672" 
d="M490 66l-57 165h-238l-60 -165h83v-66h-231v66h71l229 596h101l215 -596h91v-66h-308v66h104zM316 558l-99 -269h196l-93 269h-4zM208 742l111 183h41l111 -183h-49l-83 93l-82 -93h-49z" />
    <glyph glyph-name="acircumflex" unicode="&#xe2;" horiz-adv-x="491" 
d="M177 -5c-84 0 -133 49 -133 118c0 32 10 60 34 84c37 37 87 49 170 61c59 9 70 10 70 28v47c0 59 -28 81 -91 81c-30 0 -53 -6 -77 -19c17 -8 29 -28 29 -49c0 -30 -21 -56 -58 -56c-39 0 -61 29 -61 58c0 73 85 117 188 117c104 0 164 -43 164 -139v-232
c0 -23 7 -33 31 -33c14 0 26 14 36 36l35 -21c-24 -56 -58 -79 -103 -79c-42 0 -82 24 -82 80h-5c-25 -49 -88 -82 -147 -82zM220 59c45 0 98 39 98 92v79c-9 -4 -20 -6 -45 -10c-97 -15 -127 -27 -127 -87c0 -44 23 -74 74 -74zM118 534l111 183h41l111 -183h-49l-83 93
l-82 -93h-49z" />
    <glyph glyph-name="Adieresis" unicode="&#xc4;" horiz-adv-x="672" 
d="M490 66l-57 165h-238l-60 -165h83v-66h-231v66h71l229 596h101l215 -596h91v-66h-308v66h104zM316 558l-99 -269h196l-93 269h-4zM431 764c-34 0 -59 27 -59 61s25 62 59 62s59 -28 59 -62s-25 -61 -59 -61zM249 764c-34 0 -59 27 -59 61s25 62 59 62s59 -28 59 -62
s-25 -61 -59 -61z" />
    <glyph glyph-name="adieresis" unicode="&#xe4;" horiz-adv-x="491" 
d="M177 -5c-84 0 -133 49 -133 118c0 32 10 60 34 84c37 37 87 49 170 61c59 9 70 10 70 28v47c0 59 -28 81 -91 81c-30 0 -53 -6 -77 -19c17 -8 29 -28 29 -49c0 -30 -21 -56 -58 -56c-39 0 -61 29 -61 58c0 73 85 117 188 117c104 0 164 -43 164 -139v-232
c0 -23 7 -33 31 -33c14 0 26 14 36 36l35 -21c-24 -56 -58 -79 -103 -79c-42 0 -82 24 -82 80h-5c-25 -49 -88 -82 -147 -82zM220 59c45 0 98 39 98 92v79c-9 -4 -20 -6 -45 -10c-97 -15 -127 -27 -127 -87c0 -44 23 -74 74 -74zM341 556c-34 0 -59 27 -59 61s25 62 59 62
s59 -28 59 -62s-25 -61 -59 -61zM159 556c-34 0 -59 27 -59 61s25 62 59 62s59 -28 59 -62s-25 -61 -59 -61z" />
    <glyph glyph-name="AE" unicode="&#xc6;" horiz-adv-x="989" 
d="M452 299v294h-9l-176 -294h185zM232 241l-104 -175h89v-66h-250v66h81l318 526h-99v66h656v-214h-48c-36 118 -46 148 -123 148h-197v-226h69c74 0 83 10 102 101h53v-262h-53c-17 95 -28 105 -102 105h-69v-244h193c88 0 99 31 136 168h48v-234h-591v66h111v175h-220z
" />
    <glyph glyph-name="ae" unicode="&#xe6;" horiz-adv-x="756" 
d="M722 223h-310c2 -113 48 -169 136 -169c55 0 96 24 124 85h48c-26 -98 -96 -148 -197 -148c-90 0 -149 41 -178 106c-42 -74 -115 -102 -168 -102c-84 0 -133 49 -133 118c0 32 10 60 34 84c37 37 87 49 170 61c59 9 70 10 70 28v47c0 59 -28 81 -91 81
c-30 0 -53 -6 -77 -19c17 -8 29 -28 29 -49c0 -30 -21 -56 -58 -56c-39 0 -61 29 -61 58c0 73 85 117 188 117c70 0 115 -20 137 -64c33 41 81 65 144 65c135 0 196 -122 193 -243zM522 413c-62 0 -101 -40 -109 -143h213c-7 85 -35 143 -104 143zM220 59c45 0 98 39 98 92
v79c-9 -4 -20 -6 -45 -10c-97 -15 -127 -27 -127 -87c0 -44 23 -74 74 -74z" />
    <glyph glyph-name="AEacute" unicode="&#x1fc;" horiz-adv-x="989" 
d="M452 299v294h-9l-176 -294h185zM232 241l-104 -175h89v-66h-250v66h81l318 526h-99v66h656v-214h-48c-36 118 -46 148 -123 148h-197v-226h69c74 0 83 10 102 101h53v-262h-53c-17 95 -28 105 -102 105h-69v-244h193c88 0 99 31 136 168h48v-234h-591v66h111v175h-220z
M489 741l48 124c19 50 37 74 66 74c23 0 42 -20 42 -43c0 -19 -10 -37 -40 -74l-66 -81h-50z" />
    <glyph glyph-name="aeacute" unicode="&#x1fd;" horiz-adv-x="756" 
d="M722 223h-310c2 -113 48 -169 136 -169c55 0 96 24 124 85h48c-26 -98 -96 -148 -197 -148c-90 0 -149 41 -178 106c-42 -74 -115 -102 -168 -102c-84 0 -133 49 -133 118c0 32 10 60 34 84c37 37 87 49 170 61c59 9 70 10 70 28v47c0 59 -28 81 -91 81
c-30 0 -53 -6 -77 -19c17 -8 29 -28 29 -49c0 -30 -21 -56 -58 -56c-39 0 -61 29 -61 58c0 73 85 117 188 117c70 0 115 -20 137 -64c33 41 81 65 144 65c135 0 196 -122 193 -243zM522 413c-62 0 -101 -40 -109 -143h213c-7 85 -35 143 -104 143zM220 59c45 0 98 39 98 92
v79c-9 -4 -20 -6 -45 -10c-97 -15 -127 -27 -127 -87c0 -44 23 -74 74 -74zM369 533l48 124c19 50 37 74 66 74c23 0 42 -20 42 -43c0 -19 -10 -37 -40 -74l-66 -81h-50z" />
    <glyph glyph-name="Agrave" unicode="&#xc0;" horiz-adv-x="672" 
d="M490 66l-57 165h-238l-60 -165h83v-66h-231v66h71l229 596h101l215 -596h91v-66h-308v66h104zM316 558l-99 -269h196l-93 269h-4zM371 741h-50l-66 81c-30 37 -40 55 -40 74c0 23 19 43 42 43c29 0 47 -25 66 -74z" />
    <glyph glyph-name="agrave" unicode="&#xe0;" horiz-adv-x="491" 
d="M177 -5c-84 0 -133 49 -133 118c0 32 10 60 34 84c37 37 87 49 170 61c59 9 70 10 70 28v47c0 59 -28 81 -91 81c-30 0 -53 -6 -77 -19c17 -8 29 -28 29 -49c0 -30 -21 -56 -58 -56c-39 0 -61 29 -61 58c0 73 85 117 188 117c104 0 164 -43 164 -139v-232
c0 -23 7 -33 31 -33c14 0 26 14 36 36l35 -21c-24 -56 -58 -79 -103 -79c-42 0 -82 24 -82 80h-5c-25 -49 -88 -82 -147 -82zM220 59c45 0 98 39 98 92v79c-9 -4 -20 -6 -45 -10c-97 -15 -127 -27 -127 -87c0 -44 23 -74 74 -74zM281 533h-50l-66 81c-30 37 -40 55 -40 74
c0 23 19 43 42 43c29 0 47 -25 66 -74z" />
    <glyph glyph-name="Amacron" unicode="&#x100;" horiz-adv-x="672" 
d="M490 66l-57 165h-238l-60 -165h83v-66h-231v66h71l229 596h101l215 -596h91v-66h-308v66h104zM316 558l-99 -269h196l-93 269h-4zM215 758v75h251v-75h-251z" />
    <glyph glyph-name="amacron" unicode="&#x101;" horiz-adv-x="491" 
d="M177 -5c-84 0 -133 49 -133 118c0 32 10 60 34 84c37 37 87 49 170 61c59 9 70 10 70 28v47c0 59 -28 81 -91 81c-30 0 -53 -6 -77 -19c17 -8 29 -28 29 -49c0 -30 -21 -56 -58 -56c-39 0 -61 29 -61 58c0 73 85 117 188 117c104 0 164 -43 164 -139v-232
c0 -23 7 -33 31 -33c14 0 26 14 36 36l35 -21c-24 -56 -58 -79 -103 -79c-42 0 -82 24 -82 80h-5c-25 -49 -88 -82 -147 -82zM220 59c45 0 98 39 98 92v79c-9 -4 -20 -6 -45 -10c-97 -15 -127 -27 -127 -87c0 -44 23 -74 74 -74zM125 550v75h251v-75h-251z" />
    <glyph glyph-name="Aogonek" unicode="&#x104;" horiz-adv-x="672" 
d="M537 -243c-67 0 -106 35 -106 90c0 45 26 83 88 137l18 16h-151v66h104l-57 165h-238l-60 -165h83v-66h-231v66h71l229 596h101l215 -596h91v-66h-94l-12 -12c-67 -67 -78 -99 -78 -127c0 -37 25 -51 50 -51c23 0 42 11 56 21l22 -35c-29 -23 -65 -39 -101 -39zM316 558
l-99 -269h196l-93 269h-4z" />
    <glyph glyph-name="aogonek" unicode="&#x105;" horiz-adv-x="491" 
d="M395 -243c-67 0 -106 35 -106 90c0 45 24 84 105 151c-36 6 -65 32 -65 79h-5c-25 -49 -88 -82 -147 -82c-84 0 -133 49 -133 118c0 40 17 76 58 103c36 24 82 33 161 44c47 7 55 11 55 26v47c0 59 -28 81 -91 81c-30 0 -53 -6 -77 -19c17 -8 29 -28 29 -49
c0 -30 -21 -56 -58 -56c-39 0 -61 29 -61 58c0 73 85 117 188 117c104 0 164 -43 164 -139v-232c0 -23 7 -33 31 -33c14 0 26 14 36 36l35 -21c-9 -21 -19 -40 -49 -69c-87 -84 -97 -116 -97 -146c0 -37 25 -51 50 -51c23 0 42 11 56 21l22 -35c-29 -23 -65 -39 -101 -39z
M220 59c45 0 98 39 98 92v79c-9 -4 -20 -6 -45 -10c-97 -15 -127 -27 -127 -87c0 -44 23 -74 74 -74z" />
    <glyph glyph-name="Aring" unicode="&#xc5;" horiz-adv-x="672" 
d="M337 688c35 0 56 34 56 67c0 41 -20 67 -56 67c-35 0 -56 -26 -56 -67c0 -33 21 -67 56 -67zM413 289l-93 269h-4l-99 -269h196zM196 231l-61 -165h83v-66h-231v66h71l229 597c-37 16 -55 52 -55 92c0 55 35 102 105 102c69 0 105 -47 105 -102c0 -40 -18 -75 -55 -92
l216 -597h91v-66h-308v66h104l-57 165h-237z" />
    <glyph glyph-name="aring" unicode="&#xe5;" horiz-adv-x="491" 
d="M177 -5c-84 0 -133 49 -133 118c0 32 10 60 34 84c37 37 87 49 170 61c59 9 70 10 70 28v47c0 59 -28 81 -91 81c-30 0 -53 -6 -77 -19c17 -8 29 -28 29 -49c0 -30 -21 -56 -58 -56c-39 0 -61 29 -61 58c0 73 85 117 188 117c104 0 164 -43 164 -139v-232
c0 -23 7 -33 31 -33c14 0 26 14 36 36l35 -21c-24 -56 -58 -79 -103 -79c-42 0 -82 24 -82 80h-5c-25 -49 -88 -82 -147 -82zM220 59c45 0 98 39 98 92v79c-9 -4 -20 -6 -45 -10c-97 -15 -127 -27 -127 -87c0 -44 23 -74 74 -74zM250 527c-70 0 -105 47 -105 102
s35 102 105 102c69 0 105 -47 105 -102s-36 -102 -105 -102zM250 562c36 0 56 29 56 67s-20 67 -56 67c-35 0 -56 -29 -56 -67s21 -67 56 -67z" />
    <glyph glyph-name="Aringacute" unicode="&#x1fa;" horiz-adv-x="672" 
d="M337 688c35 0 56 34 56 67c0 41 -20 67 -56 67c-35 0 -56 -26 -56 -67c0 -33 21 -67 56 -67zM413 289l-93 269h-4l-99 -269h196zM196 231l-61 -165h83v-66h-231v66h71l229 597c-37 16 -55 52 -55 92c0 55 35 102 105 102c69 0 105 -47 105 -102c0 -40 -18 -75 -55 -92
l216 -597h91v-66h-308v66h104l-57 165h-237zM298 897l48 124c19 50 37 74 66 74c23 0 42 -20 42 -43c0 -19 -10 -37 -40 -74l-66 -81h-50z" />
    <glyph glyph-name="aringacute" unicode="&#x1fb;" horiz-adv-x="491" 
d="M177 -5c-84 0 -133 49 -133 118c0 32 10 60 34 84c37 37 87 49 170 61c59 9 70 10 70 28v47c0 59 -28 81 -91 81c-30 0 -53 -6 -77 -19c17 -8 29 -28 29 -49c0 -30 -21 -56 -58 -56c-39 0 -61 29 -61 58c0 73 85 117 188 117c104 0 164 -43 164 -139v-232
c0 -23 7 -33 31 -33c14 0 26 14 36 36l35 -21c-24 -56 -58 -79 -103 -79c-42 0 -82 24 -82 80h-5c-25 -49 -88 -82 -147 -82zM220 59c45 0 98 39 98 92v79c-9 -4 -20 -6 -45 -10c-97 -15 -127 -27 -127 -87c0 -44 23 -74 74 -74zM245 527c-70 0 -105 47 -105 102
s35 102 105 102c69 0 105 -47 105 -102s-36 -102 -105 -102zM245 562c36 0 56 29 56 67s-20 67 -56 67c-35 0 -56 -29 -56 -67s21 -67 56 -67zM212 771l48 124c19 50 37 74 66 74c23 0 42 -20 42 -43c0 -19 -10 -37 -40 -74l-66 -81h-50z" />
    <glyph glyph-name="Atilde" unicode="&#xc3;" horiz-adv-x="672" 
d="M490 66l-57 165h-238l-60 -165h83v-66h-231v66h71l229 596h101l215 -596h91v-66h-308v66h104zM316 558l-99 -269h196l-93 269h-4zM188 745c12 91 38 124 98 124c52 0 97 -48 124 -48c19 0 28 18 35 57h48c-12 -91 -38 -124 -98 -124c-52 0 -97 48 -124 48
c-19 0 -28 -18 -35 -57h-48z" />
    <glyph glyph-name="atilde" unicode="&#xe3;" horiz-adv-x="491" 
d="M177 -5c-84 0 -133 49 -133 118c0 32 10 60 34 84c37 37 87 49 170 61c59 9 70 10 70 28v47c0 59 -28 81 -91 81c-30 0 -53 -6 -77 -19c17 -8 29 -28 29 -49c0 -30 -21 -56 -58 -56c-39 0 -61 29 -61 58c0 73 85 117 188 117c104 0 164 -43 164 -139v-232
c0 -23 7 -33 31 -33c14 0 26 14 36 36l35 -21c-24 -56 -58 -79 -103 -79c-42 0 -82 24 -82 80h-5c-25 -49 -88 -82 -147 -82zM220 59c45 0 98 39 98 92v79c-9 -4 -20 -6 -45 -10c-97 -15 -127 -27 -127 -87c0 -44 23 -74 74 -74zM98 537c12 91 38 124 98 124
c52 0 97 -48 124 -48c19 0 28 18 35 57h48c-12 -91 -38 -124 -98 -124c-52 0 -97 48 -124 48c-19 0 -28 -18 -35 -57h-48z" />
    <glyph glyph-name="Cacute" unicode="&#x106;" horiz-adv-x="676" 
d="M351 -16c-188 0 -313 154 -313 347c0 186 142 343 311 343c79 0 143 -31 183 -77l18 74h66v-258h-60c-45 119 -113 195 -201 195c-111 0 -197 -77 -197 -271c0 -179 75 -283 209 -283c119 0 188 95 203 209h71c-17 -177 -136 -279 -290 -279zM319 741l48 124
c19 50 37 74 66 74c23 0 42 -20 42 -43c0 -19 -10 -37 -40 -74l-66 -81h-50z" />
    <glyph glyph-name="cacute" unicode="&#x107;" horiz-adv-x="481" 
d="M257 -9c-140 0 -221 99 -221 231c0 142 102 244 237 244c100 0 176 -69 176 -129c0 -47 -23 -81 -65 -81c-40 0 -62 28 -62 61c0 27 22 53 39 60c-14 22 -44 40 -92 40c-70 0 -129 -64 -129 -183c0 -114 49 -180 142 -180c56 0 102 33 125 98h48
c-24 -103 -97 -161 -198 -161zM234 533l48 124c19 50 37 74 66 74c23 0 42 -20 42 -43c0 -19 -10 -37 -40 -74l-66 -81h-50z" />
    <glyph glyph-name="Ccaron" unicode="&#x10c;" horiz-adv-x="676" 
d="M351 -16c-188 0 -313 154 -313 347c0 186 142 343 311 343c79 0 143 -31 183 -77l18 74h66v-258h-60c-45 119 -113 195 -201 195c-111 0 -197 -77 -197 -271c0 -179 75 -283 209 -283c119 0 188 95 203 209h71c-17 -177 -136 -279 -290 -279zM333 751l-111 183h49l83 -93
l82 93h49l-111 -183h-41z" />
    <glyph glyph-name="ccaron" unicode="&#x10d;" horiz-adv-x="481" 
d="M257 -9c-140 0 -221 99 -221 231c0 142 102 244 237 244c100 0 176 -69 176 -129c0 -47 -23 -81 -65 -81c-40 0 -62 28 -62 61c0 27 22 53 39 60c-14 22 -44 40 -92 40c-70 0 -129 -64 -129 -183c0 -114 49 -180 142 -180c56 0 102 33 125 98h48
c-24 -103 -97 -161 -198 -161zM248 543l-111 183h49l83 -93l82 93h49l-111 -183h-41z" />
    <glyph glyph-name="Ccedilla" unicode="&#xc7;" horiz-adv-x="676" 
d="M340 -243c-33 0 -73 10 -105 32l22 36c25 -16 47 -21 70 -21c37 0 55 13 55 37c0 25 -28 43 -70 43c-12 0 -22 -1 -34 -4l-16 22l78 83c-182 5 -302 156 -302 346c0 186 142 343 311 343c79 0 143 -31 183 -77l18 74h66v-258h-60c-45 119 -113 195 -201 195
c-111 0 -197 -77 -197 -271c0 -179 75 -283 209 -283c119 0 188 95 203 209h71c-15 -158 -112 -256 -241 -275l-52 -53l1 -4c65 -5 101 -39 101 -81c0 -58 -46 -93 -110 -93z" />
    <glyph glyph-name="ccedilla" unicode="&#xe7;" horiz-adv-x="481" 
d="M242 -243c-33 0 -73 10 -105 32l22 36c25 -16 47 -21 70 -21c37 0 55 13 55 37c0 25 -28 43 -70 43c-12 0 -22 -1 -34 -4l-16 22l84 89c-135 4 -212 101 -212 231c0 142 102 244 237 244c100 0 176 -69 176 -129c0 -47 -23 -81 -65 -81c-40 0 -62 28 -62 61
c0 27 22 53 39 60c-14 22 -44 40 -92 40c-70 0 -129 -64 -129 -183c0 -114 49 -180 142 -180c56 0 102 33 125 98h48c-20 -84 -71 -137 -144 -154l-61 -63l1 -4c65 -5 101 -39 101 -81c0 -58 -46 -93 -110 -93z" />
    <glyph glyph-name="Cdotaccent" unicode="&#x10a;" horiz-adv-x="676" 
d="M351 -16c-188 0 -313 154 -313 347c0 186 142 343 311 343c79 0 143 -31 183 -77l18 74h66v-258h-60c-45 119 -113 195 -201 195c-111 0 -197 -77 -197 -271c0 -179 75 -283 209 -283c119 0 188 95 203 209h71c-17 -177 -136 -279 -290 -279zM350 745
c-37 0 -62 26 -62 63c0 35 27 64 62 64c37 0 62 -27 62 -64c0 -35 -27 -63 -62 -63z" />
    <glyph glyph-name="cdotaccent" unicode="&#x10b;" horiz-adv-x="481" 
d="M257 -9c-140 0 -221 99 -221 231c0 142 102 244 237 244c100 0 176 -69 176 -129c0 -47 -23 -81 -65 -81c-40 0 -62 28 -62 61c0 27 22 53 39 60c-14 22 -44 40 -92 40c-70 0 -129 -64 -129 -183c0 -114 49 -180 142 -180c56 0 102 33 125 98h48
c-24 -103 -97 -161 -198 -161zM265 537c-37 0 -62 26 -62 63c0 35 27 64 62 64c37 0 62 -27 62 -64c0 -35 -27 -63 -62 -63z" />
    <glyph glyph-name="Dcaron" unicode="&#x10e;" horiz-adv-x="722" 
d="M30 0v66h111v526h-111v66h282c246 0 372 -130 372 -319c0 -182 -111 -339 -363 -339h-291zM244 66h78c168 0 242 73 242 273c0 175 -75 253 -252 253h-68v-526zM353 751l-111 183h49l83 -93l82 93h49l-111 -183h-41z" />
    <glyph glyph-name="dcaron" unicode="&#x10f;" horiz-adv-x="551" 
d="M227 -9c-47 0 -91 19 -121 49c-44 44 -65 111 -65 182c0 74 26 150 69 193c33 33 75 51 125 51c67 0 111 -33 140 -80v229h-76v72h170v-621h67v-66h-159v94c-34 -69 -89 -103 -150 -103zM260 54c60 0 117 64 117 176c0 91 -36 173 -117 173c-73 0 -115 -64 -115 -173
c0 -113 53 -176 115 -176zM584 523h-41l-4 144c-2 57 16 84 49 84c26 0 42 -20 42 -49c0 -15 -4 -32 -12 -61z" />
    <glyph glyph-name="Dcroat" unicode="&#x110;" horiz-adv-x="722" 
d="M30 0v66h111v244h-111v66h111v216h-111v66h282c246 0 372 -130 372 -319c0 -182 -111 -339 -363 -339h-291zM244 66h78c168 0 242 73 242 273c0 175 -75 253 -252 253h-68v-216h136v-66h-136v-244z" />
    <glyph glyph-name="dcroat" unicode="&#x111;" horiz-adv-x="551" 
d="M227 -9c-47 0 -91 19 -121 49c-44 44 -65 111 -65 182c0 74 26 150 69 193c33 33 75 51 125 51c67 0 111 -33 140 -80v118h-129v56h129v55h-76v72h170v-127h67v-56h-67v-438h67v-66h-159v94c-34 -69 -89 -103 -150 -103zM260 54c60 0 117 64 117 176
c0 91 -36 173 -117 173c-73 0 -115 -64 -115 -173c0 -113 53 -176 115 -176z" />
    <glyph glyph-name="Eacute" unicode="&#xc9;" horiz-adv-x="678" 
d="M30 0v66h111v526h-111v66h582v-214h-48c-36 118 -46 148 -123 148h-197v-226h69c74 0 83 10 102 101h53v-262h-53c-17 95 -28 105 -102 105h-69v-244h193c88 0 99 31 136 168h48v-234h-591zM334 741l48 124c19 50 37 74 66 74c23 0 42 -20 42 -43c0 -19 -10 -37 -40 -74
l-66 -81h-50z" />
    <glyph glyph-name="eacute" unicode="&#xe9;" horiz-adv-x="490" 
d="M456 223h-316c3 -113 52 -169 140 -169c56 0 98 24 126 85h48c-26 -98 -98 -148 -199 -148c-140 0 -219 101 -219 233c0 137 95 242 225 242c137 0 198 -122 195 -243zM254 413c-63 0 -105 -40 -113 -143h219c-7 85 -36 143 -106 143zM224 533l48 124c19 50 37 74 66 74
c23 0 42 -20 42 -43c0 -19 -10 -37 -40 -74l-66 -81h-50z" />
    <glyph glyph-name="Ebreve" unicode="&#x114;" horiz-adv-x="678" 
d="M30 0v66h111v526h-111v66h582v-214h-48c-36 118 -46 148 -123 148h-197v-226h69c74 0 83 10 102 101h53v-262h-53c-17 95 -28 105 -102 105h-69v-244h193c88 0 99 31 136 168h48v-234h-591zM366 748c-80 0 -134 58 -139 157h41c16 -54 45 -87 98 -87s80 33 96 87h41
c-3 -99 -57 -157 -137 -157z" />
    <glyph glyph-name="ebreve" unicode="&#x115;" horiz-adv-x="490" 
d="M456 223h-316c3 -113 52 -169 140 -169c56 0 98 24 126 85h48c-26 -98 -98 -148 -199 -148c-140 0 -219 101 -219 233c0 137 95 242 225 242c137 0 198 -122 195 -243zM254 413c-63 0 -105 -40 -113 -143h219c-7 85 -36 143 -106 143zM256 540c-80 0 -134 58 -139 157h41
c16 -54 45 -87 98 -87s80 33 96 87h41c-3 -99 -57 -157 -137 -157z" />
    <glyph glyph-name="Ecaron" unicode="&#x11a;" horiz-adv-x="678" 
d="M30 0v66h111v526h-111v66h582v-214h-48c-36 118 -46 148 -123 148h-197v-226h69c74 0 83 10 102 101h53v-262h-53c-17 95 -28 105 -102 105h-69v-244h193c88 0 99 31 136 168h48v-234h-591zM348 751l-111 183h49l83 -93l82 93h49l-111 -183h-41z" />
    <glyph glyph-name="ecaron" unicode="&#x11b;" horiz-adv-x="490" 
d="M456 223h-316c3 -113 52 -169 140 -169c56 0 98 24 126 85h48c-26 -98 -98 -148 -199 -148c-140 0 -219 101 -219 233c0 137 95 242 225 242c137 0 198 -122 195 -243zM254 413c-63 0 -105 -40 -113 -143h219c-7 85 -36 143 -106 143zM238 543l-111 183h49l83 -93l82 93
h49l-111 -183h-41z" />
    <glyph glyph-name="Ecircumflex" unicode="&#xca;" horiz-adv-x="678" 
d="M30 0v66h111v526h-111v66h582v-214h-48c-36 118 -46 148 -123 148h-197v-226h69c74 0 83 10 102 101h53v-262h-53c-17 95 -28 105 -102 105h-69v-244h193c88 0 99 31 136 168h48v-234h-591zM233 742l111 183h41l111 -183h-49l-83 93l-82 -93h-49z" />
    <glyph glyph-name="ecircumflex" unicode="&#xea;" horiz-adv-x="490" 
d="M456 223h-316c3 -113 52 -169 140 -169c56 0 98 24 126 85h48c-26 -98 -98 -148 -199 -148c-140 0 -219 101 -219 233c0 137 95 242 225 242c137 0 198 -122 195 -243zM254 413c-63 0 -105 -40 -113 -143h219c-7 85 -36 143 -106 143zM123 534l111 183h41l111 -183h-49
l-83 93l-82 -93h-49z" />
    <glyph glyph-name="Edieresis" unicode="&#xcb;" horiz-adv-x="678" 
d="M30 0v66h111v526h-111v66h582v-214h-48c-36 118 -46 148 -123 148h-197v-226h69c74 0 83 10 102 101h53v-262h-53c-17 95 -28 105 -102 105h-69v-244h193c88 0 99 31 136 168h48v-234h-591zM456 764c-34 0 -59 27 -59 61s25 62 59 62s59 -28 59 -62s-25 -61 -59 -61z
M274 764c-34 0 -59 27 -59 61s25 62 59 62s59 -28 59 -62s-25 -61 -59 -61z" />
    <glyph glyph-name="edieresis" unicode="&#xeb;" horiz-adv-x="490" 
d="M456 223h-316c3 -113 52 -169 140 -169c56 0 98 24 126 85h48c-26 -98 -98 -148 -199 -148c-140 0 -219 101 -219 233c0 137 95 242 225 242c137 0 198 -122 195 -243zM254 413c-63 0 -105 -40 -113 -143h219c-7 85 -36 143 -106 143zM346 556c-34 0 -59 27 -59 61
s25 62 59 62s59 -28 59 -62s-25 -61 -59 -61zM164 556c-34 0 -59 27 -59 61s25 62 59 62s59 -28 59 -62s-25 -61 -59 -61z" />
    <glyph glyph-name="Edotaccent" unicode="&#x116;" horiz-adv-x="678" 
d="M30 0v66h111v526h-111v66h582v-214h-48c-36 118 -46 148 -123 148h-197v-226h69c74 0 83 10 102 101h53v-262h-53c-17 95 -28 105 -102 105h-69v-244h193c88 0 99 31 136 168h48v-234h-591zM365 745c-37 0 -62 26 -62 63c0 35 27 64 62 64c37 0 62 -27 62 -64
c0 -35 -27 -63 -62 -63z" />
    <glyph glyph-name="edotaccent" unicode="&#x117;" horiz-adv-x="490" 
d="M456 223h-316c3 -113 52 -169 140 -169c56 0 98 24 126 85h48c-26 -98 -98 -148 -199 -148c-140 0 -219 101 -219 233c0 137 95 242 225 242c137 0 198 -122 195 -243zM254 413c-63 0 -105 -40 -113 -143h219c-7 85 -36 143 -106 143zM255 537c-37 0 -62 26 -62 63
c0 35 27 64 62 64c37 0 62 -27 62 -64c0 -35 -27 -63 -62 -63z" />
    <glyph glyph-name="Egrave" unicode="&#xc8;" horiz-adv-x="678" 
d="M30 0v66h111v526h-111v66h582v-214h-48c-36 118 -46 148 -123 148h-197v-226h69c74 0 83 10 102 101h53v-262h-53c-17 95 -28 105 -102 105h-69v-244h193c88 0 99 31 136 168h48v-234h-591zM396 741h-50l-66 81c-30 37 -40 55 -40 74c0 23 19 43 42 43
c29 0 47 -25 66 -74z" />
    <glyph glyph-name="egrave" unicode="&#xe8;" horiz-adv-x="490" 
d="M456 223h-316c3 -113 52 -169 140 -169c56 0 98 24 126 85h48c-26 -98 -98 -148 -199 -148c-140 0 -219 101 -219 233c0 137 95 242 225 242c137 0 198 -122 195 -243zM254 413c-63 0 -105 -40 -113 -143h219c-7 85 -36 143 -106 143zM286 533h-50l-66 81
c-30 37 -40 55 -40 74c0 23 19 43 42 43c29 0 47 -25 66 -74z" />
    <glyph glyph-name="Emacron" unicode="&#x112;" horiz-adv-x="678" 
d="M30 0v66h111v526h-111v66h582v-214h-48c-36 118 -46 148 -123 148h-197v-226h69c74 0 83 10 102 101h53v-262h-53c-17 95 -28 105 -102 105h-69v-244h193c88 0 99 31 136 168h48v-234h-591zM240 758v75h251v-75h-251z" />
    <glyph glyph-name="emacron" unicode="&#x113;" horiz-adv-x="490" 
d="M456 223h-316c3 -113 52 -169 140 -169c56 0 98 24 126 85h48c-26 -98 -98 -148 -199 -148c-140 0 -219 101 -219 233c0 137 95 242 225 242c137 0 198 -122 195 -243zM254 413c-63 0 -105 -40 -113 -143h219c-7 85 -36 143 -106 143zM130 550v75h251v-75h-251z" />
    <glyph glyph-name="Eogonek" unicode="&#x118;" horiz-adv-x="678" 
d="M30 0v66h111v526h-111v66h582v-214h-48c-36 118 -46 148 -123 148h-197v-226h69c74 0 83 10 102 101h53v-262h-53c-17 95 -28 105 -102 105h-69v-244h193c88 0 99 31 136 168h48v-234h-45l-12 -12c-67 -67 -78 -99 -78 -127c0 -37 25 -51 50 -51c23 0 42 11 56 21l22 -35
c-29 -23 -65 -39 -101 -39c-67 0 -106 35 -106 90c0 45 26 83 88 137l18 16h-483z" />
    <glyph glyph-name="eogonek" unicode="&#x119;" horiz-adv-x="490" 
d="M456 223h-316c3 -113 52 -169 140 -169c56 0 98 24 126 85h48c-16 -59 -47 -93 -75 -125l-37 -43c-53 -61 -60 -85 -60 -110c0 -37 25 -51 50 -51c23 0 42 11 56 21l22 -35c-29 -23 -65 -39 -101 -39c-67 0 -106 35 -106 90c0 46 26 81 85 135l13 13
c-15 -3 -33 -4 -46 -4c-140 0 -219 101 -219 233c0 137 95 242 225 242c137 0 198 -122 195 -243zM254 413c-63 0 -105 -40 -113 -143h219c-7 85 -36 143 -106 143z" />
    <glyph glyph-name="Eth" unicode="&#xd0;" horiz-adv-x="722" 
d="M30 0v66h111v244h-111v66h111v216h-111v66h282c246 0 372 -130 372 -319c0 -182 -111 -339 -363 -339h-291zM244 66h78c168 0 242 73 242 273c0 175 -75 253 -252 253h-68v-216h136v-66h-136v-244z" />
    <glyph glyph-name="eth" unicode="&#xf0;" horiz-adv-x="535" 
d="M454 630l-85 -37c70 -84 124 -181 124 -298c0 -183 -87 -304 -241 -304c-131 0 -216 101 -216 230c0 139 92 245 219 245c60 0 107 -31 131 -82c-9 57 -43 118 -87 178l-111 -49l-21 49l98 43l-67 74l81 10c18 -18 36 -36 53 -55l101 45zM269 45c74 0 120 64 120 184
c0 126 -49 183 -129 183c-79 0 -120 -57 -120 -183s49 -184 129 -184z" />
    <glyph glyph-name="Gbreve" unicode="&#x11e;" horiz-adv-x="718" 
d="M533 82c-41 -60 -103 -98 -182 -98c-188 0 -313 154 -313 347c0 186 142 343 311 343c79 0 143 -31 183 -77l18 74h66v-258h-60c-45 119 -113 195 -201 195c-111 0 -197 -77 -197 -271c0 -179 75 -283 209 -283c73 0 112 39 134 79c14 26 21 77 21 107v25h-121v66h312
v-66h-88v-272h-64zM356 748c-80 0 -134 58 -139 157h41c16 -54 45 -87 98 -87s80 33 96 87h41c-3 -99 -57 -157 -137 -157z" />
    <glyph glyph-name="gbreve" unicode="&#x11f;" horiz-adv-x="477" 
d="M423 321c0 -97 -80 -150 -186 -150c-22 0 -41 3 -60 3c-32 0 -48 -21 -48 -40c0 -24 17 -40 67 -40h121c105 0 146 -47 146 -111c0 -81 -78 -150 -238 -150c-123 0 -202 43 -202 103c0 42 39 82 96 89v5c-54 18 -73 48 -73 81c0 34 38 72 86 82c-50 24 -82 62 -82 123
c0 96 81 150 187 150c25 0 50 -4 72 -11c30 51 74 89 128 89c39 0 65 -24 65 -57c0 -28 -20 -50 -46 -50c-27 0 -43 16 -43 41c0 3 0 7 1 11c-18 4 -48 -20 -65 -51c45 -26 74 -67 74 -117zM240 217c56 0 85 34 85 102c0 58 -33 101 -92 101c-57 0 -86 -31 -86 -102
s35 -101 93 -101zM231 -116c88 0 150 29 150 75c0 32 -18 54 -70 54h-112c-60 0 -88 -21 -88 -62c0 -34 23 -67 120 -67zM236 540c-80 0 -134 58 -139 157h41c16 -54 45 -87 98 -87s80 33 96 87h41c-3 -99 -57 -157 -137 -157z" />
    <glyph glyph-name="Gcommaaccent" unicode="&#x122;" horiz-adv-x="718" 
d="M533 82c-41 -60 -103 -98 -182 -98c-188 0 -313 154 -313 347c0 186 142 343 311 343c79 0 143 -31 183 -77l18 74h66v-258h-60c-45 119 -113 195 -201 195c-111 0 -197 -77 -197 -271c0 -179 75 -283 209 -283c73 0 112 39 134 79c14 26 21 77 21 107v25h-121v66h312
v-66h-88v-272h-64zM290 -316l-17 32c58 28 85 63 89 98l-5 3c-6 -5 -15 -8 -26 -8c-24 0 -47 22 -47 52c0 33 26 62 60 62c43 0 70 -32 70 -78c0 -66 -30 -119 -124 -161z" />
    <glyph glyph-name="gcommaaccent" unicode="&#x123;" horiz-adv-x="477" 
d="M423 321c0 -97 -80 -150 -186 -150c-22 0 -41 3 -60 3c-32 0 -48 -21 -48 -40c0 -24 17 -40 67 -40h121c105 0 146 -47 146 -111c0 -81 -78 -150 -238 -150c-123 0 -202 43 -202 103c0 42 39 82 96 89v5c-54 18 -73 48 -73 81c0 34 38 72 86 82c-50 24 -82 62 -82 123
c0 96 81 150 187 150c25 0 50 -4 72 -11c30 51 74 89 128 89c39 0 65 -24 65 -57c0 -28 -20 -50 -46 -50c-27 0 -43 16 -43 41c0 3 0 7 1 11c-18 4 -48 -20 -65 -51c45 -26 74 -67 74 -117zM240 217c56 0 85 34 85 102c0 58 -33 101 -92 101c-57 0 -86 -31 -86 -102
s35 -101 93 -101zM231 -116c88 0 150 29 150 75c0 32 -18 54 -70 54h-112c-60 0 -88 -21 -88 -62c0 -34 23 -67 120 -67zM295 776l17 -32c-58 -28 -85 -63 -89 -98l5 -3c6 5 15 8 26 8c24 0 47 -22 47 -52c0 -33 -26 -62 -60 -62c-43 0 -70 32 -70 78c0 66 30 119 124 161z
" />
    <glyph glyph-name="Gdotaccent" unicode="&#x120;" horiz-adv-x="718" 
d="M533 82c-41 -60 -103 -98 -182 -98c-188 0 -313 154 -313 347c0 186 142 343 311 343c79 0 143 -31 183 -77l18 74h66v-258h-60c-45 119 -113 195 -201 195c-111 0 -197 -77 -197 -271c0 -179 75 -283 209 -283c73 0 112 39 134 79c14 26 21 77 21 107v25h-121v66h312
v-66h-88v-272h-64zM355 745c-37 0 -62 26 -62 63c0 35 27 64 62 64c37 0 62 -27 62 -64c0 -35 -27 -63 -62 -63z" />
    <glyph glyph-name="gdotaccent" unicode="&#x121;" horiz-adv-x="477" 
d="M423 321c0 -97 -80 -150 -186 -150c-22 0 -41 3 -60 3c-32 0 -48 -21 -48 -40c0 -24 17 -40 67 -40h121c105 0 146 -47 146 -111c0 -81 -78 -150 -238 -150c-123 0 -202 43 -202 103c0 42 39 82 96 89v5c-54 18 -73 48 -73 81c0 34 38 72 86 82c-50 24 -82 62 -82 123
c0 96 81 150 187 150c25 0 50 -4 72 -11c30 51 74 89 128 89c39 0 65 -24 65 -57c0 -28 -20 -50 -46 -50c-27 0 -43 16 -43 41c0 3 0 7 1 11c-18 4 -48 -20 -65 -51c45 -26 74 -67 74 -117zM240 217c56 0 85 34 85 102c0 58 -33 101 -92 101c-57 0 -86 -31 -86 -102
s35 -101 93 -101zM231 -116c88 0 150 29 150 75c0 32 -18 54 -70 54h-112c-60 0 -88 -21 -88 -62c0 -34 23 -67 120 -67zM235 537c-37 0 -62 26 -62 63c0 35 27 64 62 64c37 0 62 -27 62 -64c0 -35 -27 -63 -62 -63z" />
    <glyph glyph-name="Hbar" unicode="&#x126;" horiz-adv-x="789" 
d="M30 447v58h111v87h-111v66h309v-66h-95v-87h301v87h-95v66h309v-66h-111v-87h111v-58h-111v-381h111v-66h-309v66h95v236h-301v-236h95v-66h-309v66h111v381h-111zM244 360h301v87h-301v-87z" />
    <glyph glyph-name="hbar" unicode="&#x127;" horiz-adv-x="570" 
d="M23 0v66h73v438h-73v56h73v55h-73v72h167v-127h123v-56h-123v-160c52 86 104 120 170 120c73 0 122 -53 122 -143v-255h73v-66h-234v66h67v221c0 34 -8 63 -25 80c-13 13 -31 20 -54 20c-56 0 -119 -55 -119 -147v-174h67v-66h-234z" />
    <glyph glyph-name="Iacute" unicode="&#xcd;" horiz-adv-x="405" 
d="M40 0v66h111v526h-111v66h325v-66h-111v-526h111v-66h-325zM171 741l48 124c19 50 37 74 66 74c23 0 42 -20 42 -43c0 -19 -10 -37 -40 -74l-66 -81h-50z" />
    <glyph glyph-name="iacute" unicode="&#xed;" horiz-adv-x="316" 
d="M40 0v66h83v326h-83v66h177v-392h83v-66h-260zM124 533l48 124c19 50 37 74 66 74c23 0 42 -20 42 -43c0 -19 -10 -37 -40 -74l-66 -81h-50z" />
    <glyph glyph-name="Ibreve" unicode="&#x12c;" horiz-adv-x="405" 
d="M40 0v66h111v526h-111v66h325v-66h-111v-526h111v-66h-325zM203 748c-80 0 -134 58 -139 157h41c16 -54 45 -87 98 -87s80 33 96 87h41c-3 -99 -57 -157 -137 -157z" />
    <glyph glyph-name="ibreve" unicode="&#x12d;" horiz-adv-x="316" 
d="M40 0v66h83v326h-83v66h177v-392h83v-66h-260zM156 540c-80 0 -134 58 -139 157h41c16 -54 45 -87 98 -87s80 33 96 87h41c-3 -99 -57 -157 -137 -157z" />
    <glyph glyph-name="Icircumflex" unicode="&#xce;" horiz-adv-x="405" 
d="M40 0v66h111v526h-111v66h325v-66h-111v-526h111v-66h-325zM70 742l111 183h41l111 -183h-49l-83 93l-82 -93h-49z" />
    <glyph glyph-name="icircumflex" unicode="&#xee;" horiz-adv-x="316" 
d="M40 0v66h83v326h-83v66h177v-392h83v-66h-260zM23 534l111 183h41l111 -183h-49l-83 93l-82 -93h-49z" />
    <glyph glyph-name="Idieresis" unicode="&#xcf;" horiz-adv-x="405" 
d="M40 0v66h111v526h-111v66h325v-66h-111v-526h111v-66h-325zM293 764c-34 0 -59 27 -59 61s25 62 59 62s59 -28 59 -62s-25 -61 -59 -61zM111 764c-34 0 -59 27 -59 61s25 62 59 62s59 -28 59 -62s-25 -61 -59 -61z" />
    <glyph glyph-name="idieresis" unicode="&#xef;" horiz-adv-x="316" 
d="M40 0v66h83v326h-83v66h177v-392h83v-66h-260zM246 556c-34 0 -59 27 -59 61s25 62 59 62s59 -28 59 -62s-25 -61 -59 -61zM64 556c-34 0 -59 27 -59 61s25 62 59 62s59 -28 59 -62s-25 -61 -59 -61z" />
    <glyph glyph-name="Idotaccent" unicode="&#x130;" horiz-adv-x="405" 
d="M40 0v66h111v526h-111v66h325v-66h-111v-526h111v-66h-325zM202 745c-37 0 -62 26 -62 63c0 35 27 64 62 64c37 0 62 -27 62 -64c0 -35 -27 -63 -62 -63z" />
    <glyph glyph-name="dotlessi" unicode="&#x131;" horiz-adv-x="316" 
d="M40 0v66h83v326h-83v66h177v-392h83v-66h-260z" />
    <glyph glyph-name="Igrave" unicode="&#xcc;" horiz-adv-x="405" 
d="M40 0v66h111v526h-111v66h325v-66h-111v-526h111v-66h-325zM233 741h-50l-66 81c-30 37 -40 55 -40 74c0 23 19 43 42 43c29 0 47 -25 66 -74z" />
    <glyph glyph-name="igrave" unicode="&#xec;" horiz-adv-x="316" 
d="M40 0v66h83v326h-83v66h177v-392h83v-66h-260zM186 533h-50l-66 81c-30 37 -40 55 -40 74c0 23 19 43 42 43c29 0 47 -25 66 -74z" />
    <glyph glyph-name="Imacron" unicode="&#x12a;" horiz-adv-x="405" 
d="M40 0v66h111v526h-111v66h325v-66h-111v-526h111v-66h-325zM77 758v75h251v-75h-251z" />
    <glyph glyph-name="imacron" unicode="&#x12b;" horiz-adv-x="316" 
d="M40 0v66h83v326h-83v66h177v-392h83v-66h-260zM30 550v75h251v-75h-251z" />
    <glyph glyph-name="Iogonek" unicode="&#x12e;" horiz-adv-x="405" 
d="M40 0v66h111v526h-111v66h325v-66h-111v-526h111v-66h-105l-12 -12c-67 -67 -78 -99 -78 -127c0 -37 25 -51 50 -51c23 0 42 11 56 21l22 -35c-29 -23 -65 -39 -101 -39c-67 0 -106 35 -106 90c0 45 26 83 88 137l18 16h-157z" />
    <glyph glyph-name="iogonek" unicode="&#x12f;" horiz-adv-x="316" 
d="M40 0v66h83v326h-83v66h177v-392h83v-66h-70l-12 -12c-67 -67 -78 -99 -78 -127c0 -37 25 -51 50 -51c23 0 42 11 56 21l22 -35c-29 -23 -65 -39 -101 -39c-67 0 -106 35 -106 90c0 45 26 83 88 137l18 16h-127zM164 554c-39 0 -65 25 -65 65s26 68 65 68s65 -26 65 -66
s-26 -67 -65 -67z" />
    <glyph glyph-name="Kcommaaccent" unicode="&#x136;" horiz-adv-x="724" 
d="M244 232v-166h95v-66h-309v66h111v526h-111v66h309v-66h-95v-279l267 279h-86v66h262v-66h-83l-207 -207l236 -319h83v-66h-292v66h84l-179 251zM310 -316l-17 32c58 28 85 63 89 98l-5 3c-6 -5 -15 -8 -26 -8c-24 0 -47 22 -47 52c0 33 26 62 60 62c43 0 70 -32 70 -78
c0 -66 -30 -119 -124 -161z" />
    <glyph glyph-name="kcommaaccent" unicode="&#x137;" horiz-adv-x="541" 
d="M436 392l-121 -121l158 -205h54v-66h-217v66h57l-112 150l-65 -65v-85h57v-66h-224v66h73v549h-73v72h167v-468l166 173h-75v66h224v-66h-69zM205 -316l-17 32c58 28 85 63 89 98l-5 3c-6 -5 -15 -8 -26 -8c-24 0 -47 22 -47 52c0 33 26 62 60 62c43 0 70 -32 70 -78
c0 -66 -30 -119 -124 -161z" />
    <glyph glyph-name="Lacute" unicode="&#x139;" horiz-adv-x="610" 
d="M30 658h325v-66h-111v-526h138c81 0 96 17 146 179h48v-245h-546v66h111v526h-111v66zM164 741l48 124c19 50 37 74 66 74c23 0 42 -20 42 -43c0 -19 -10 -37 -40 -74l-66 -81h-50z" />
    <glyph glyph-name="lacute" unicode="&#x13a;" horiz-adv-x="298" 
d="M19 0v66h83v549h-83v72h177v-621h83v-66h-260zM105 762l48 124c19 50 37 74 66 74c23 0 42 -20 42 -43c0 -19 -10 -37 -40 -74l-66 -81h-50z" />
    <glyph glyph-name="Lcaron" unicode="&#x13d;" horiz-adv-x="610" 
d="M30 658h325v-66h-111v-526h138c81 0 96 17 146 179h48v-245h-546v66h111v526h-111v66zM465 494h-41l-4 144c-2 57 16 84 49 84c26 0 42 -20 42 -49c0 -15 -4 -32 -12 -61z" />
    <glyph glyph-name="lcaron" unicode="&#x13e;" horiz-adv-x="298" 
d="M19 0v66h83v549h-83v72h177v-621h83v-66h-260zM311 523h-41l-4 144c-2 57 16 84 49 84c26 0 42 -20 42 -49c0 -15 -4 -32 -12 -61z" />
    <glyph glyph-name="Lcommaaccent" unicode="&#x13b;" horiz-adv-x="610" 
d="M30 658h325v-66h-111v-526h138c81 0 96 17 146 179h48v-245h-546v66h111v526h-111v66zM255 -316l-17 32c58 28 85 63 89 98l-5 3c-6 -5 -15 -8 -26 -8c-24 0 -47 22 -47 52c0 33 26 62 60 62c43 0 70 -32 70 -78c0 -66 -30 -119 -124 -161z" />
    <glyph glyph-name="lcommaaccent" unicode="&#x13c;" horiz-adv-x="298" 
d="M19 0v66h83v549h-83v72h177v-621h83v-66h-260zM91 -316l-17 32c58 28 85 63 89 98l-5 3c-6 -5 -15 -8 -26 -8c-24 0 -47 22 -47 52c0 33 26 62 60 62c43 0 70 -32 70 -78c0 -66 -30 -119 -124 -161z" />
    <glyph glyph-name="Ldot" unicode="&#x13f;" horiz-adv-x="610" 
d="M30 658h325v-66h-111v-526h138c81 0 96 13 146 167h48v-233h-546v66h111v526h-111v66zM474 299c-37 0 -62 26 -62 63c0 35 27 64 62 64c37 0 62 -27 62 -64c0 -35 -27 -63 -62 -63z" />
    <glyph glyph-name="ldot" unicode="&#x140;" horiz-adv-x="356" 
d="M327 287c-36 0 -60 25 -60 61c0 34 26 62 60 62c36 0 60 -26 60 -62c0 -34 -26 -61 -60 -61zM19 0v66h83v549h-83v72h177v-621h83v-66h-260z" />
    <glyph glyph-name="Lslash" unicode="&#x141;" horiz-adv-x="610" 
d="M30 658h325v-66h-111v-216l168 56v-62l-168 -57v-247h138c81 0 96 17 146 179h48v-245h-546v66h111v212l-87 -29v64l87 29v250h-111v66z" />
    <glyph glyph-name="lslash" unicode="&#x142;" horiz-adv-x="314" 
d="M27 0v66h83v239l-89 -30v60l89 30v250h-83v72h177v-290l95 32v-60l-95 -32v-271h83v-66h-260z" />
    <glyph glyph-name="Nacute" unicode="&#x143;" horiz-adv-x="792" 
d="M591 -16l-372 541h-9v-459h104v-66h-279v66h101v526h-101v66h218l331 -480h9v414h-104v66h279v-66h-101v-608h-76zM364 741l48 124c19 50 37 74 66 74c23 0 42 -20 42 -43c0 -19 -10 -37 -40 -74l-66 -81h-50z" />
    <glyph glyph-name="nacute" unicode="&#x144;" horiz-adv-x="582" 
d="M35 0v66h73v326h-73v66h165v-116c52 86 106 122 172 122c73 0 122 -53 122 -143v-255h73v-66h-234v66h67v221c0 34 -8 63 -25 80c-13 13 -31 20 -54 20c-56 0 -119 -55 -119 -147v-174h67v-66h-234zM274 533l48 124c19 50 37 74 66 74c23 0 42 -20 42 -43
c0 -19 -10 -37 -40 -74l-66 -81h-50z" />
    <glyph glyph-name="Ncaron" unicode="&#x147;" horiz-adv-x="792" 
d="M591 -16l-372 541h-9v-459h104v-66h-279v66h101v526h-101v66h218l331 -480h9v414h-104v66h279v-66h-101v-608h-76zM378 751l-111 183h49l83 -93l82 93h49l-111 -183h-41z" />
    <glyph glyph-name="ncaron" unicode="&#x148;" horiz-adv-x="582" 
d="M35 0v66h73v326h-73v66h165v-116c52 86 106 122 172 122c73 0 122 -53 122 -143v-255h73v-66h-234v66h67v221c0 34 -8 63 -25 80c-13 13 -31 20 -54 20c-56 0 -119 -55 -119 -147v-174h67v-66h-234zM288 543l-111 183h49l83 -93l82 93h49l-111 -183h-41z" />
    <glyph glyph-name="Ncommaaccent" unicode="&#x145;" horiz-adv-x="792" 
d="M591 -16l-372 541h-9v-459h104v-66h-279v66h101v526h-101v66h218l331 -480h9v414h-104v66h279v-66h-101v-608h-76zM335 -316l-17 32c58 28 85 63 89 98l-5 3c-6 -5 -15 -8 -26 -8c-24 0 -47 22 -47 52c0 33 26 62 60 62c43 0 70 -32 70 -78c0 -66 -30 -119 -124 -161z
" />
    <glyph glyph-name="ncommaaccent" unicode="&#x146;" horiz-adv-x="582" 
d="M35 0v66h73v326h-73v66h165v-116c52 86 106 122 172 122c73 0 122 -53 122 -143v-255h73v-66h-234v66h67v221c0 34 -8 63 -25 80c-13 13 -31 20 -54 20c-56 0 -119 -55 -119 -147v-174h67v-66h-234zM245 -316l-17 32c58 28 85 63 89 98l-5 3c-6 -5 -15 -8 -26 -8
c-24 0 -47 22 -47 52c0 33 26 62 60 62c43 0 70 -32 70 -78c0 -66 -30 -119 -124 -161z" />
    <glyph glyph-name="Ntilde" unicode="&#xd1;" horiz-adv-x="792" 
d="M591 -16l-372 541h-9v-459h104v-66h-279v66h101v526h-101v66h218l331 -480h9v414h-104v66h279v-66h-101v-608h-76zM243 745c12 91 38 124 98 124c52 0 97 -48 124 -48c19 0 28 18 35 57h48c-12 -91 -38 -124 -98 -124c-52 0 -97 48 -124 48c-19 0 -28 -18 -35 -57h-48z
" />
    <glyph glyph-name="ntilde" unicode="&#xf1;" horiz-adv-x="582" 
d="M35 0v66h73v326h-73v66h165v-116c52 86 106 122 172 122c73 0 122 -53 122 -143v-255h73v-66h-234v66h67v221c0 34 -8 63 -25 80c-13 13 -31 20 -54 20c-56 0 -119 -55 -119 -147v-174h67v-66h-234zM153 537c12 91 38 124 98 124c52 0 97 -48 124 -48c19 0 28 18 35 57
h48c-12 -91 -38 -124 -98 -124c-52 0 -97 48 -124 48c-19 0 -28 -18 -35 -57h-48z" />
    <glyph glyph-name="Oacute" unicode="&#xd3;" 
d="M360 -16c-179 0 -322 144 -322 345c0 196 148 345 322 345c179 0 322 -143 322 -345c0 -197 -148 -345 -322 -345zM360 50c131 0 202 104 202 279s-71 279 -202 279s-202 -105 -202 -279s71 -279 202 -279zM329 741l48 124c19 50 37 74 66 74c23 0 42 -20 42 -43
c0 -19 -10 -37 -40 -74l-66 -81h-50z" />
    <glyph glyph-name="oacute" unicode="&#xf3;" horiz-adv-x="529" 
d="M265 -9c-143 0 -229 96 -229 236c0 139 92 239 229 239c141 0 228 -96 228 -235c0 -140 -92 -240 -228 -240zM269 45c78 0 120 58 120 184s-49 183 -129 183c-79 0 -120 -57 -120 -183s49 -184 129 -184zM233 533l48 124c19 50 37 74 66 74c23 0 42 -20 42 -43
c0 -19 -10 -37 -40 -74l-66 -81h-50z" />
    <glyph glyph-name="Obreve" unicode="&#x14e;" 
d="M360 -16c-179 0 -322 144 -322 345c0 196 148 345 322 345c179 0 322 -143 322 -345c0 -197 -148 -345 -322 -345zM360 50c131 0 202 104 202 279s-71 279 -202 279s-202 -105 -202 -279s71 -279 202 -279zM361 748c-80 0 -134 58 -139 157h41c16 -54 45 -87 98 -87
s80 33 96 87h41c-3 -99 -57 -157 -137 -157z" />
    <glyph glyph-name="obreve" unicode="&#x14f;" horiz-adv-x="529" 
d="M265 -9c-143 0 -229 96 -229 236c0 139 92 239 229 239c141 0 228 -96 228 -235c0 -140 -92 -240 -228 -240zM269 45c78 0 120 58 120 184s-49 183 -129 183c-79 0 -120 -57 -120 -183s49 -184 129 -184zM265 540c-80 0 -134 58 -139 157h41c16 -54 45 -87 98 -87
s80 33 96 87h41c-3 -99 -57 -157 -137 -157z" />
    <glyph glyph-name="Ocircumflex" unicode="&#xd4;" 
d="M360 -16c-179 0 -322 144 -322 345c0 196 148 345 322 345c179 0 322 -143 322 -345c0 -197 -148 -345 -322 -345zM360 50c131 0 202 104 202 279s-71 279 -202 279s-202 -105 -202 -279s71 -279 202 -279zM228 742l111 183h41l111 -183h-49l-83 93l-82 -93h-49z" />
    <glyph glyph-name="ocircumflex" unicode="&#xf4;" horiz-adv-x="529" 
d="M265 -9c-143 0 -229 96 -229 236c0 139 92 239 229 239c141 0 228 -96 228 -235c0 -140 -92 -240 -228 -240zM269 45c78 0 120 58 120 184s-49 183 -129 183c-79 0 -120 -57 -120 -183s49 -184 129 -184zM132 534l111 183h41l111 -183h-49l-83 93l-82 -93h-49z" />
    <glyph glyph-name="Odieresis" unicode="&#xd6;" 
d="M360 -16c-179 0 -322 144 -322 345c0 196 148 345 322 345c179 0 322 -143 322 -345c0 -197 -148 -345 -322 -345zM360 50c131 0 202 104 202 279s-71 279 -202 279s-202 -105 -202 -279s71 -279 202 -279zM451 764c-34 0 -59 27 -59 61s25 62 59 62s59 -28 59 -62
s-25 -61 -59 -61zM269 764c-34 0 -59 27 -59 61s25 62 59 62s59 -28 59 -62s-25 -61 -59 -61z" />
    <glyph glyph-name="odieresis" unicode="&#xf6;" horiz-adv-x="529" 
d="M265 -9c-143 0 -229 96 -229 236c0 139 92 239 229 239c141 0 228 -96 228 -235c0 -140 -92 -240 -228 -240zM269 45c78 0 120 58 120 184s-49 183 -129 183c-79 0 -120 -57 -120 -183s49 -184 129 -184zM355 556c-34 0 -59 27 -59 61s25 62 59 62s59 -28 59 -62
s-25 -61 -59 -61zM173 556c-34 0 -59 27 -59 61s25 62 59 62s59 -28 59 -62s-25 -61 -59 -61z" />
    <glyph glyph-name="OE" unicode="&#x152;" horiz-adv-x="1015" 
d="M410 0c-246 0 -372 130 -372 319c0 182 111 339 363 339h548v-214h-48c-36 118 -46 148 -123 148h-197v-226h69c74 0 83 10 102 101h53v-262h-53c-17 95 -28 105 -102 105h-69v-244h193c88 0 99 31 136 168h48v-234h-548zM410 66h68v526h-78c-168 0 -242 -73 -242 -273
c0 -175 75 -253 252 -253z" />
    <glyph glyph-name="oe" unicode="&#x153;" horiz-adv-x="840" 
d="M806 223h-316c3 -113 52 -169 140 -169c56 0 98 24 126 85h48c-26 -98 -98 -148 -199 -148c-78 0 -134 35 -168 88c-38 -53 -96 -88 -172 -88c-143 0 -229 96 -229 236c0 139 92 239 229 239c81 0 140 -33 177 -89c39 56 96 89 169 89c137 0 198 -122 195 -243zM269 45
c78 0 120 58 120 184s-49 183 -129 183c-79 0 -120 -57 -120 -183s49 -184 129 -184zM604 413c-63 0 -105 -40 -113 -143h219c-7 85 -36 143 -106 143z" />
    <glyph glyph-name="Ograve" unicode="&#xd2;" 
d="M360 -16c-179 0 -322 144 -322 345c0 196 148 345 322 345c179 0 322 -143 322 -345c0 -197 -148 -345 -322 -345zM360 50c131 0 202 104 202 279s-71 279 -202 279s-202 -105 -202 -279s71 -279 202 -279zM391 741h-50l-66 81c-30 37 -40 55 -40 74c0 23 19 43 42 43
c29 0 47 -25 66 -74z" />
    <glyph glyph-name="ograve" unicode="&#xf2;" horiz-adv-x="529" 
d="M265 -9c-143 0 -229 96 -229 236c0 139 92 239 229 239c141 0 228 -96 228 -235c0 -140 -92 -240 -228 -240zM269 45c78 0 120 58 120 184s-49 183 -129 183c-79 0 -120 -57 -120 -183s49 -184 129 -184zM295 533h-50l-66 81c-30 37 -40 55 -40 74c0 23 19 43 42 43
c29 0 47 -25 66 -74z" />
    <glyph glyph-name="Ohungarumlaut" unicode="&#x150;" 
d="M360 -16c-179 0 -322 144 -322 345c0 196 148 345 322 345c179 0 322 -143 322 -345c0 -197 -148 -345 -322 -345zM360 50c131 0 202 104 202 279s-71 279 -202 279s-202 -105 -202 -279s71 -279 202 -279zM411 741l52 124c21 50 40 74 69 74c23 0 40 -18 40 -41
c0 -19 -11 -39 -42 -76l-69 -81h-50zM261 741l52 124c21 50 40 74 69 74c23 0 40 -18 40 -41c0 -19 -11 -39 -42 -76l-69 -81h-50z" />
    <glyph glyph-name="ohungarumlaut" unicode="&#x151;" horiz-adv-x="529" 
d="M265 -9c-143 0 -229 96 -229 236c0 139 92 239 229 239c141 0 228 -96 228 -235c0 -140 -92 -240 -228 -240zM269 45c78 0 120 58 120 184s-49 183 -129 183c-79 0 -120 -57 -120 -183s49 -184 129 -184zM315 533l52 124c21 50 40 74 69 74c23 0 40 -18 40 -41
c0 -19 -11 -39 -42 -76l-69 -81h-50zM165 533l52 124c21 50 40 74 69 74c23 0 40 -18 40 -41c0 -19 -11 -39 -42 -76l-69 -81h-50z" />
    <glyph glyph-name="Omacron" unicode="&#x14c;" 
d="M360 -16c-179 0 -322 144 -322 345c0 196 148 345 322 345c179 0 322 -143 322 -345c0 -197 -148 -345 -322 -345zM360 50c131 0 202 104 202 279s-71 279 -202 279s-202 -105 -202 -279s71 -279 202 -279zM235 758v75h251v-75h-251z" />
    <glyph glyph-name="omacron" unicode="&#x14d;" horiz-adv-x="529" 
d="M265 -9c-143 0 -229 96 -229 236c0 139 92 239 229 239c141 0 228 -96 228 -235c0 -140 -92 -240 -228 -240zM269 45c78 0 120 58 120 184s-49 183 -129 183c-79 0 -120 -57 -120 -183s49 -184 129 -184zM139 550v75h251v-75h-251z" />
    <glyph glyph-name="Oslash" unicode="&#xd8;" 
d="M129 -34h-81l85 113c-59 61 -95 148 -95 250c0 196 148 345 322 345c66 0 128 -20 179 -55l52 73h81l-86 -113c59 -61 96 -148 96 -250c0 -197 -148 -345 -322 -345c-67 0 -128 19 -179 55zM360 50c131 0 202 104 202 279c0 71 -12 131 -35 176l-297 -405
c33 -33 76 -50 130 -50zM158 329c0 -71 12 -131 35 -177l296 406c-32 32 -76 50 -129 50c-131 0 -202 -105 -202 -279z" />
    <glyph glyph-name="oslash" unicode="&#xf8;" horiz-adv-x="529" 
d="M93 -27h-63l66 84c-39 41 -60 100 -60 170c0 139 92 239 229 239c51 0 95 -13 130 -35l41 53h63l-67 -84c39 -42 61 -100 61 -169c0 -140 -92 -240 -228 -240c-52 0 -96 12 -131 35zM140 229c0 -41 5 -74 14 -101l195 246c-22 26 -52 38 -89 38c-79 0 -120 -57 -120 -183
zM269 45c78 0 120 58 120 184c0 40 -5 74 -15 100l-194 -247c22 -25 52 -37 89 -37z" />
    <glyph glyph-name="Oslashacute" unicode="&#x1fe;" 
d="M129 -34h-81l85 113c-59 61 -95 148 -95 250c0 196 148 345 322 345c66 0 128 -20 179 -55l52 73h81l-86 -113c59 -61 96 -148 96 -250c0 -197 -148 -345 -322 -345c-67 0 -128 19 -179 55zM360 50c131 0 202 104 202 279c0 71 -12 131 -35 176l-297 -405
c33 -33 76 -50 130 -50zM158 329c0 -71 12 -131 35 -177l296 406c-32 32 -76 50 -129 50c-131 0 -202 -105 -202 -279zM329 741l48 124c19 50 37 74 66 74c23 0 42 -20 42 -43c0 -19 -10 -37 -40 -74l-66 -81h-50z" />
    <glyph glyph-name="oslashacute" unicode="&#x1ff;" horiz-adv-x="529" 
d="M93 -27h-63l66 84c-39 41 -60 100 -60 170c0 139 92 239 229 239c51 0 95 -13 130 -35l41 53h63l-67 -84c39 -42 61 -100 61 -169c0 -140 -92 -240 -228 -240c-52 0 -96 12 -131 35zM140 229c0 -41 5 -74 14 -101l195 246c-22 26 -52 38 -89 38c-79 0 -120 -57 -120 -183
zM269 45c78 0 120 58 120 184c0 40 -5 74 -15 100l-194 -247c22 -25 52 -37 89 -37zM233 533l48 124c19 50 37 74 66 74c23 0 42 -20 42 -43c0 -19 -10 -37 -40 -74l-66 -81h-50z" />
    <glyph glyph-name="Otilde" unicode="&#xd5;" 
d="M360 -16c-179 0 -322 144 -322 345c0 196 148 345 322 345c179 0 322 -143 322 -345c0 -197 -148 -345 -322 -345zM360 50c131 0 202 104 202 279s-71 279 -202 279s-202 -105 -202 -279s71 -279 202 -279zM208 745c12 91 38 124 98 124c52 0 97 -48 124 -48
c19 0 28 18 35 57h48c-12 -91 -38 -124 -98 -124c-52 0 -97 48 -124 48c-19 0 -28 -18 -35 -57h-48z" />
    <glyph glyph-name="otilde" unicode="&#xf5;" horiz-adv-x="529" 
d="M265 -9c-143 0 -229 96 -229 236c0 139 92 239 229 239c141 0 228 -96 228 -235c0 -140 -92 -240 -228 -240zM269 45c78 0 120 58 120 184s-49 183 -129 183c-79 0 -120 -57 -120 -183s49 -184 129 -184zM112 537c12 91 38 124 98 124c52 0 97 -48 124 -48
c19 0 28 18 35 57h48c-12 -91 -38 -124 -98 -124c-52 0 -97 48 -124 48c-19 0 -28 -18 -35 -57h-48z" />
    <glyph glyph-name="Racute" unicode="&#x154;" horiz-adv-x="685" 
d="M244 290v-224h108v-66h-322v66h111v526h-111v66h322c201 0 255 -88 255 -171c0 -68 -40 -139 -167 -160v-9c102 -22 132 -72 137 -141l6 -73c3 -33 12 -45 30 -45c16 0 28 13 44 42l44 -21c-21 -55 -58 -91 -112 -91c-59 0 -115 27 -117 118l-2 80
c-2 68 -17 103 -112 103h-114zM244 350h106c107 0 139 48 139 129c0 72 -32 113 -127 113h-118v-242zM319 741l48 124c19 50 37 74 66 74c23 0 42 -20 42 -43c0 -19 -10 -37 -40 -74l-66 -81h-50z" />
    <glyph glyph-name="racute" unicode="&#x155;" horiz-adv-x="422" 
d="M35 0v66h73v326h-73v66h165v-106c23 77 83 112 135 112c51 0 80 -35 80 -78c0 -35 -26 -65 -60 -65c-35 0 -63 21 -63 59c0 5 1 11 2 17c-45 2 -76 -49 -92 -109v-222h87v-66h-254zM199 533l48 124c19 50 37 74 66 74c23 0 42 -20 42 -43c0 -19 -10 -37 -40 -74l-66 -81
h-50z" />
    <glyph glyph-name="Rcaron" unicode="&#x158;" horiz-adv-x="685" 
d="M244 290v-224h108v-66h-322v66h111v526h-111v66h322c201 0 255 -88 255 -171c0 -68 -40 -139 -167 -160v-9c102 -22 132 -72 137 -141l6 -73c3 -33 12 -45 30 -45c16 0 28 13 44 42l44 -21c-21 -55 -58 -91 -112 -91c-59 0 -115 27 -117 118l-2 80
c-2 68 -17 103 -112 103h-114zM244 350h106c107 0 139 48 139 129c0 72 -32 113 -127 113h-118v-242zM333 751l-111 183h49l83 -93l82 93h49l-111 -183h-41z" />
    <glyph glyph-name="rcaron" unicode="&#x159;" horiz-adv-x="422" 
d="M35 0v66h73v326h-73v66h165v-106c23 77 83 112 135 112c51 0 80 -35 80 -78c0 -35 -26 -65 -60 -65c-35 0 -63 21 -63 59c0 5 1 11 2 17c-45 2 -76 -49 -92 -109v-222h87v-66h-254zM213 543l-111 183h49l83 -93l82 93h49l-111 -183h-41z" />
    <glyph glyph-name="Rcommaaccent" unicode="&#x156;" horiz-adv-x="685" 
d="M244 290v-224h108v-66h-322v66h111v526h-111v66h322c201 0 255 -88 255 -171c0 -68 -40 -139 -167 -160v-9c102 -22 132 -72 137 -141l6 -73c3 -33 12 -45 30 -45c16 0 28 13 44 42l44 -21c-21 -55 -58 -91 -112 -91c-59 0 -115 27 -117 118l-2 80
c-2 68 -17 103 -112 103h-114zM244 350h106c107 0 139 48 139 129c0 72 -32 113 -127 113h-118v-242zM305 -316l-17 32c58 28 85 63 89 98l-5 3c-6 -5 -15 -8 -26 -8c-24 0 -47 22 -47 52c0 33 26 62 60 62c43 0 70 -32 70 -78c0 -66 -30 -119 -124 -161z" />
    <glyph glyph-name="rcommaaccent" unicode="&#x157;" horiz-adv-x="422" 
d="M35 0v66h73v326h-73v66h165v-106c23 77 83 112 135 112c51 0 80 -35 80 -78c0 -35 -26 -65 -60 -65c-35 0 -63 21 -63 59c0 5 1 11 2 17c-45 2 -76 -49 -92 -109v-222h87v-66h-254zM100 -316l-17 32c58 28 85 63 89 98l-5 3c-6 -5 -15 -8 -26 -8c-24 0 -47 22 -47 52
c0 33 26 62 60 62c43 0 70 -32 70 -78c0 -66 -30 -119 -124 -161z" />
    <glyph glyph-name="Sacute" unicode="&#x15a;" horiz-adv-x="585" 
d="M53 -13v238h60c73 -134 119 -179 212 -179c78 0 125 40 125 109c0 81 -85 103 -175 129c-103 29 -213 64 -213 199c0 98 82 191 207 191c56 0 125 -24 162 -70l21 67h66v-228h-60c-61 130 -119 169 -194 169c-64 0 -104 -40 -104 -100c0 -89 88 -109 180 -133
c101 -25 208 -56 208 -189c0 -115 -94 -206 -222 -206c-74 0 -143 26 -183 72l-24 -69h-66zM264 741l48 124c19 50 37 74 66 74c23 0 42 -20 42 -43c0 -19 -10 -37 -40 -74l-66 -81h-50z" />
    <glyph glyph-name="sacute" unicode="&#x15b;" horiz-adv-x="442" 
d="M45 -9v173h61c25 -73 82 -124 146 -124c54 0 77 27 77 64c0 40 -31 59 -121 84c-110 31 -155 69 -155 142c0 74 64 136 158 136c47 0 89 -18 111 -53l10 53h59v-157h-60c-31 67 -60 108 -122 108c-35 0 -71 -20 -71 -58c0 -40 35 -61 117 -83c106 -29 156 -63 156 -141
c0 -69 -61 -144 -164 -144c-57 0 -104 24 -133 60l-11 -60h-58zM189 533l48 124c19 50 37 74 66 74c23 0 42 -20 42 -43c0 -19 -10 -37 -40 -74l-66 -81h-50z" />
    <glyph glyph-name="Scaron" unicode="&#x160;" horiz-adv-x="585" 
d="M53 -13v238h60c73 -134 119 -179 212 -179c78 0 125 40 125 109c0 81 -85 103 -175 129c-103 29 -213 64 -213 199c0 98 82 191 207 191c56 0 125 -24 162 -70l21 67h66v-228h-60c-61 130 -119 169 -194 169c-64 0 -104 -40 -104 -100c0 -89 88 -109 180 -133
c101 -25 208 -56 208 -189c0 -115 -94 -206 -222 -206c-74 0 -143 26 -183 72l-24 -69h-66zM278 751l-111 183h49l83 -93l82 93h49l-111 -183h-41z" />
    <glyph glyph-name="scaron" unicode="&#x161;" horiz-adv-x="442" 
d="M45 -9v173h61c25 -73 82 -124 146 -124c54 0 77 27 77 64c0 40 -31 59 -121 84c-110 31 -155 69 -155 142c0 74 64 136 158 136c47 0 89 -18 111 -53l10 53h59v-157h-60c-31 67 -60 108 -122 108c-35 0 -71 -20 -71 -58c0 -40 35 -61 117 -83c106 -29 156 -63 156 -141
c0 -69 -61 -144 -164 -144c-57 0 -104 24 -133 60l-11 -60h-58zM203 543l-111 183h49l83 -93l82 93h49l-111 -183h-41z" />
    <glyph glyph-name="Scedilla" unicode="&#x15e;" horiz-adv-x="585" 
d="M285 -243c-33 0 -73 10 -105 32l22 36c25 -16 47 -21 70 -21c37 0 55 13 55 37c0 25 -28 43 -70 43c-12 0 -22 -1 -34 -4l-16 22l80 85c-59 7 -111 31 -144 69l-24 -69h-66v238h60c73 -134 119 -179 212 -179c78 0 125 40 125 109c0 81 -85 103 -175 129
c-103 29 -213 64 -213 199c0 98 82 191 207 191c56 0 125 -24 162 -70l21 67h66v-228h-60c-61 130 -119 169 -194 169c-64 0 -104 -40 -104 -100c0 -89 88 -109 180 -133c101 -25 208 -56 208 -189c0 -111 -87 -198 -207 -205l-48 -50l1 -4c65 -5 101 -39 101 -81
c0 -58 -46 -93 -110 -93z" />
    <glyph glyph-name="scedilla" unicode="&#x15f;" horiz-adv-x="442" 
d="M213 -243c-33 0 -73 10 -105 32l22 36c25 -16 47 -21 70 -21c37 0 55 13 55 37c0 25 -28 43 -70 43c-12 0 -22 -1 -34 -4l-16 22l86 91c-46 6 -83 27 -107 58l-11 -60h-58v173h61c25 -73 82 -124 146 -124c54 0 77 27 77 64c0 40 -31 59 -121 84
c-110 31 -155 69 -155 142c0 74 64 136 158 136c47 0 89 -18 111 -53l10 53h59v-157h-60c-31 67 -60 108 -122 108c-35 0 -71 -20 -71 -58c0 -40 35 -61 117 -83c106 -29 156 -63 156 -141c0 -62 -49 -128 -133 -141l-57 -59l1 -4c65 -5 101 -39 101 -81
c0 -58 -46 -93 -110 -93z" />
    <glyph glyph-name="Scommaaccent" unicode="&#x218;" horiz-adv-x="585" 
d="M53 -13v238h60c73 -134 119 -179 212 -179c78 0 125 40 125 109c0 81 -85 103 -175 129c-103 29 -213 64 -213 199c0 98 82 191 207 191c56 0 125 -24 162 -70l21 67h66v-228h-60c-61 130 -119 169 -194 169c-64 0 -104 -40 -104 -100c0 -89 88 -109 180 -133
c101 -25 208 -56 208 -189c0 -115 -94 -206 -222 -206c-74 0 -143 26 -183 72l-24 -69h-66zM235 -316l-17 32c58 28 85 63 89 98l-5 3c-6 -5 -15 -8 -26 -8c-24 0 -47 22 -47 52c0 33 26 62 60 62c43 0 70 -32 70 -78c0 -66 -30 -119 -124 -161z" />
    <glyph glyph-name="scommaaccent" unicode="&#x219;" horiz-adv-x="442" 
d="M45 -9v173h61c25 -73 82 -124 146 -124c54 0 77 27 77 64c0 40 -31 59 -121 84c-110 31 -155 69 -155 142c0 74 64 136 158 136c47 0 89 -18 111 -53l10 53h59v-157h-60c-31 67 -60 108 -122 108c-35 0 -71 -20 -71 -58c0 -40 35 -61 117 -83c106 -29 156 -63 156 -141
c0 -69 -61 -144 -164 -144c-57 0 -104 24 -133 60l-11 -60h-58zM160 -316l-17 32c58 28 85 63 89 98l-5 3c-6 -5 -15 -8 -26 -8c-24 0 -47 22 -47 52c0 33 26 62 60 62c43 0 70 -32 70 -78c0 -66 -30 -119 -124 -161z" />
    <glyph glyph-name="Tcaron" unicode="&#x164;" horiz-adv-x="677" 
d="M171 0v66h116v536h-44c-88 0 -107 -29 -156 -178h-47v234h597v-234h-47c-49 149 -68 178 -156 178h-44v-536h116v-66h-335zM321 751l-111 183h49l83 -93l82 93h49l-111 -183h-41z" />
    <glyph glyph-name="tcaron" unicode="&#x165;" horiz-adv-x="362" 
d="M96 567l94 10v-124h150v-61h-150v-270c0 -45 13 -67 55 -67c28 0 50 26 70 79l45 -19c-26 -88 -79 -124 -143 -124c-80 0 -121 47 -121 122v279h-90v61h90v114zM305 523h-41l-4 144c-2 57 16 84 49 84c26 0 42 -20 42 -49c0 -15 -4 -32 -12 -61z" />
    <glyph glyph-name="Tcommaaccent" unicode="&#x162;" horiz-adv-x="677" 
d="M171 0v66h116v536h-44c-88 0 -107 -29 -156 -178h-47v234h597v-234h-47c-49 149 -68 178 -156 178h-44v-536h116v-66h-335zM278 -316l-17 32c58 28 85 63 89 98l-5 3c-6 -5 -15 -8 -26 -8c-24 0 -47 22 -47 52c0 33 26 62 60 62c43 0 70 -32 70 -78
c0 -66 -30 -119 -124 -161z" />
    <glyph glyph-name="tcommaaccent" unicode="&#x163;" horiz-adv-x="362" 
d="M96 567l94 10v-124h150v-61h-150v-270c0 -45 13 -67 55 -67c28 0 50 26 70 79l45 -19c-26 -88 -79 -124 -143 -124c-80 0 -121 47 -121 122v279h-90v61h90v114zM140 -316l-17 32c58 28 85 63 89 98l-5 3c-6 -5 -15 -8 -26 -8c-24 0 -47 22 -47 52c0 33 26 62 60 62
c43 0 70 -32 70 -78c0 -66 -30 -119 -124 -161z" />
    <glyph glyph-name="Thorn" unicode="&#xde;" horiz-adv-x="629" 
d="M30 0v66h111v526h-111v66h319v-66h-105v-65h74c205 0 277 -83 277 -181c0 -91 -59 -191 -268 -191h-83v-89h105v-66h-319zM244 218h76c131 0 157 51 157 129c0 65 -33 117 -158 117h-75v-246z" />
    <glyph glyph-name="thorn" unicode="&#xfe;" horiz-adv-x="546" 
d="M4 -154v66h73v703h-73v72h167v-322c33 63 92 101 153 101c55 0 91 -17 119 -45c43 -43 62 -106 62 -191c0 -64 -20 -131 -67 -180c-31 -31 -76 -50 -119 -50c-70 0 -120 35 -148 84v-172h96v-66h-263zM296 53c63 0 105 63 105 177c0 110 -39 173 -105 173
c-72 0 -127 -76 -127 -183c0 -106 61 -167 127 -167z" />
    <glyph glyph-name="Uacute" unicode="&#xda;" horiz-adv-x="751" 
d="M374 -16c-168 0 -258 89 -258 215v393h-96v66h297v-66h-98v-360c0 -127 64 -176 186 -176c54 0 90 18 119 47c34 34 41 78 41 153v336h-103v66h271v-66h-94v-393c0 -113 -93 -215 -265 -215zM356 741l48 124c19 50 37 74 66 74c23 0 42 -20 42 -43c0 -19 -10 -37 -40 -74
l-66 -81h-50z" />
    <glyph glyph-name="uacute" unicode="&#xfa;" horiz-adv-x="565" 
d="M211 -6c-73 0 -119 53 -119 143v255h-73v66h167v-287c0 -35 7 -64 24 -81c12 -12 29 -19 52 -19c56 0 119 55 119 147v174h-76v66h170v-392h73v-66h-165v116c-52 -86 -106 -122 -172 -122zM244 533l48 124c19 50 37 74 66 74c23 0 42 -20 42 -43c0 -19 -10 -37 -40 -74
l-66 -81h-50z" />
    <glyph glyph-name="Ubreve" unicode="&#x16c;" horiz-adv-x="751" 
d="M374 -16c-168 0 -258 89 -258 215v393h-96v66h297v-66h-98v-360c0 -127 64 -176 186 -176c54 0 90 18 119 47c34 34 41 78 41 153v336h-103v66h271v-66h-94v-393c0 -113 -93 -215 -265 -215zM388 748c-80 0 -134 58 -139 157h41c16 -54 45 -87 98 -87s80 33 96 87h41
c-3 -99 -57 -157 -137 -157z" />
    <glyph glyph-name="ubreve" unicode="&#x16d;" horiz-adv-x="565" 
d="M211 -6c-73 0 -119 53 -119 143v255h-73v66h167v-287c0 -35 7 -64 24 -81c12 -12 29 -19 52 -19c56 0 119 55 119 147v174h-76v66h170v-392h73v-66h-165v116c-52 -86 -106 -122 -172 -122zM276 540c-80 0 -134 58 -139 157h41c16 -54 45 -87 98 -87s80 33 96 87h41
c-3 -99 -57 -157 -137 -157z" />
    <glyph glyph-name="Ucircumflex" unicode="&#xdb;" horiz-adv-x="751" 
d="M374 -16c-168 0 -258 89 -258 215v393h-96v66h297v-66h-98v-360c0 -127 64 -176 186 -176c54 0 90 18 119 47c34 34 41 78 41 153v336h-103v66h271v-66h-94v-393c0 -113 -93 -215 -265 -215zM255 742l111 183h41l111 -183h-49l-83 93l-82 -93h-49z" />
    <glyph glyph-name="ucircumflex" unicode="&#xfb;" horiz-adv-x="565" 
d="M211 -6c-73 0 -119 53 -119 143v255h-73v66h167v-287c0 -35 7 -64 24 -81c12 -12 29 -19 52 -19c56 0 119 55 119 147v174h-76v66h170v-392h73v-66h-165v116c-52 -86 -106 -122 -172 -122zM143 534l111 183h41l111 -183h-49l-83 93l-82 -93h-49z" />
    <glyph glyph-name="Udieresis" unicode="&#xdc;" horiz-adv-x="751" 
d="M374 -16c-168 0 -258 89 -258 215v393h-96v66h297v-66h-98v-360c0 -127 64 -176 186 -176c54 0 90 18 119 47c34 34 41 78 41 153v336h-103v66h271v-66h-94v-393c0 -113 -93 -215 -265 -215zM478 764c-34 0 -59 27 -59 61s25 62 59 62s59 -28 59 -62s-25 -61 -59 -61z
M296 764c-34 0 -59 27 -59 61s25 62 59 62s59 -28 59 -62s-25 -61 -59 -61z" />
    <glyph glyph-name="udieresis" unicode="&#xfc;" horiz-adv-x="565" 
d="M211 -6c-73 0 -119 53 -119 143v255h-73v66h167v-287c0 -35 7 -64 24 -81c12 -12 29 -19 52 -19c56 0 119 55 119 147v174h-76v66h170v-392h73v-66h-165v116c-52 -86 -106 -122 -172 -122zM366 556c-34 0 -59 27 -59 61s25 62 59 62s59 -28 59 -62s-25 -61 -59 -61z
M184 556c-34 0 -59 27 -59 61s25 62 59 62s59 -28 59 -62s-25 -61 -59 -61z" />
    <glyph glyph-name="Ugrave" unicode="&#xd9;" horiz-adv-x="751" 
d="M374 -16c-168 0 -258 89 -258 215v393h-96v66h297v-66h-98v-360c0 -127 64 -176 186 -176c54 0 90 18 119 47c34 34 41 78 41 153v336h-103v66h271v-66h-94v-393c0 -113 -93 -215 -265 -215zM418 741h-50l-66 81c-30 37 -40 55 -40 74c0 23 19 43 42 43
c29 0 47 -25 66 -74z" />
    <glyph glyph-name="ugrave" unicode="&#xf9;" horiz-adv-x="565" 
d="M211 -6c-73 0 -119 53 -119 143v255h-73v66h167v-287c0 -35 7 -64 24 -81c12 -12 29 -19 52 -19c56 0 119 55 119 147v174h-76v66h170v-392h73v-66h-165v116c-52 -86 -106 -122 -172 -122zM306 533h-50l-66 81c-30 37 -40 55 -40 74c0 23 19 43 42 43c29 0 47 -25 66 -74
z" />
    <glyph glyph-name="Uhungarumlaut" unicode="&#x170;" horiz-adv-x="751" 
d="M374 -16c-168 0 -258 89 -258 215v393h-96v66h297v-66h-98v-360c0 -127 64 -176 186 -176c54 0 90 18 119 47c34 34 41 78 41 153v336h-103v66h271v-66h-94v-393c0 -113 -93 -215 -265 -215zM438 741l52 124c21 50 40 74 69 74c23 0 40 -18 40 -41c0 -19 -11 -39 -42 -76
l-69 -81h-50zM288 741l52 124c21 50 40 74 69 74c23 0 40 -18 40 -41c0 -19 -11 -39 -42 -76l-69 -81h-50z" />
    <glyph glyph-name="uhungarumlaut" unicode="&#x171;" horiz-adv-x="565" 
d="M211 -6c-73 0 -119 53 -119 143v255h-73v66h167v-287c0 -35 7 -64 24 -81c12 -12 29 -19 52 -19c56 0 119 55 119 147v174h-76v66h170v-392h73v-66h-165v116c-52 -86 -106 -122 -172 -122zM326 533l52 124c21 50 40 74 69 74c23 0 40 -18 40 -41c0 -19 -11 -39 -42 -76
l-69 -81h-50zM176 533l52 124c21 50 40 74 69 74c23 0 40 -18 40 -41c0 -19 -11 -39 -42 -76l-69 -81h-50z" />
    <glyph glyph-name="Umacron" unicode="&#x16a;" horiz-adv-x="751" 
d="M374 -16c-168 0 -258 89 -258 215v393h-96v66h297v-66h-98v-360c0 -127 64 -176 186 -176c54 0 90 18 119 47c34 34 41 78 41 153v336h-103v66h271v-66h-94v-393c0 -113 -93 -215 -265 -215zM262 758v75h251v-75h-251z" />
    <glyph glyph-name="umacron" unicode="&#x16b;" horiz-adv-x="565" 
d="M211 -6c-73 0 -119 53 -119 143v255h-73v66h167v-287c0 -35 7 -64 24 -81c12 -12 29 -19 52 -19c56 0 119 55 119 147v174h-76v66h170v-392h73v-66h-165v116c-52 -86 -106 -122 -172 -122zM150 550v75h251v-75h-251z" />
    <glyph glyph-name="Uogonek" unicode="&#x172;" horiz-adv-x="751" 
d="M373 -243c-67 0 -106 35 -106 90c0 45 26 83 88 137v1c-156 6 -239 92 -239 214v393h-96v66h297v-66h-98v-360c0 -127 64 -176 186 -176c54 0 90 18 119 47c34 34 41 78 41 153v336h-103v66h271v-66h-94v-393c0 -102 -76 -195 -216 -212c-66 -66 -77 -98 -77 -126
c0 -37 25 -51 50 -51c23 0 42 11 56 21l22 -35c-29 -23 -65 -39 -101 -39z" />
    <glyph glyph-name="uogonek" unicode="&#x173;" horiz-adv-x="565" 
d="M450 -243c-67 0 -106 35 -106 90c0 45 26 83 88 137l18 16h-67v116c-52 -86 -106 -122 -172 -122c-73 0 -119 53 -119 143v255h-73v66h167v-287c0 -35 7 -64 24 -81c12 -12 29 -19 52 -19c56 0 119 55 119 147v174h-76v66h170v-392h73v-66h-35l-12 -12
c-67 -67 -78 -99 -78 -127c0 -37 25 -51 50 -51c23 0 42 11 56 21l22 -35c-29 -23 -65 -39 -101 -39z" />
    <glyph glyph-name="Uring" unicode="&#x16e;" horiz-adv-x="751" 
d="M374 -16c-168 0 -258 89 -258 215v393h-96v66h297v-66h-98v-360c0 -127 64 -176 186 -176c54 0 90 18 119 47c34 34 41 78 41 153v336h-103v66h271v-66h-94v-393c0 -113 -93 -215 -265 -215zM387 735c-70 0 -105 47 -105 102s35 102 105 102c69 0 105 -47 105 -102
s-36 -102 -105 -102zM387 770c36 0 56 29 56 67s-20 67 -56 67c-35 0 -56 -29 -56 -67s21 -67 56 -67z" />
    <glyph glyph-name="uring" unicode="&#x16f;" horiz-adv-x="565" 
d="M211 -6c-73 0 -119 53 -119 143v255h-73v66h167v-287c0 -35 7 -64 24 -81c12 -12 29 -19 52 -19c56 0 119 55 119 147v174h-76v66h170v-392h73v-66h-165v116c-52 -86 -106 -122 -172 -122zM275 527c-70 0 -105 47 -105 102s35 102 105 102c69 0 105 -47 105 -102
s-36 -102 -105 -102zM275 562c36 0 56 29 56 67s-20 67 -56 67c-35 0 -56 -29 -56 -67s21 -67 56 -67z" />
    <glyph glyph-name="Wacute" unicode="&#x1e82;" horiz-adv-x="992" 
d="M687 592h-117l127 -474h9l145 474h-83v66h231v-66h-71l-198 -596h-101l-118 425l-146 -425h-100l-187 596h-91v66h310v-66h-106l141 -474h9l138 409l-18 65h-91v66h317v-66zM489 741l48 124c19 50 37 74 66 74c23 0 42 -20 42 -43c0 -19 -10 -37 -40 -74l-66 -81h-50z
" />
    <glyph glyph-name="wacute" unicode="&#x1e83;" horiz-adv-x="767" 
d="M519 392h-84l103 -310h4l97 310h-65v66h193v-66h-58l-138 -398h-92l-88 257l-104 -257h-88l-135 398h-64v66h235v-66h-75l98 -310h4l101 252l-20 58h-62v66h238v-66zM364 533l48 124c19 50 37 74 66 74c23 0 42 -20 42 -43c0 -19 -10 -37 -40 -74l-66 -81h-50z" />
    <glyph glyph-name="Wcircumflex" unicode="&#x174;" horiz-adv-x="992" 
d="M687 592h-117l127 -474h9l145 474h-83v66h231v-66h-71l-198 -596h-101l-118 425l-146 -425h-100l-187 596h-91v66h310v-66h-106l141 -474h9l138 409l-18 65h-91v66h317v-66zM388 742l111 183h41l111 -183h-49l-83 93l-82 -93h-49z" />
    <glyph glyph-name="wcircumflex" unicode="&#x175;" horiz-adv-x="767" 
d="M519 392h-84l103 -310h4l97 310h-65v66h193v-66h-58l-138 -398h-92l-88 257l-104 -257h-88l-135 398h-64v66h235v-66h-75l98 -310h4l101 252l-20 58h-62v66h238v-66zM263 534l111 183h41l111 -183h-49l-83 93l-82 -93h-49z" />
    <glyph glyph-name="Wdieresis" unicode="&#x1e84;" horiz-adv-x="992" 
d="M687 592h-117l127 -474h9l145 474h-83v66h231v-66h-71l-198 -596h-101l-118 425l-146 -425h-100l-187 596h-91v66h310v-66h-106l141 -474h9l138 409l-18 65h-91v66h317v-66zM429 764c-34 0 -59 27 -59 61s25 62 59 62s59 -28 59 -62s-25 -61 -59 -61zM611 764
c-34 0 -59 27 -59 61s25 62 59 62s59 -28 59 -62s-25 -61 -59 -61z" />
    <glyph glyph-name="wdieresis" unicode="&#x1e85;" horiz-adv-x="767" 
d="M519 392h-84l103 -310h4l97 310h-65v66h193v-66h-58l-138 -398h-92l-88 257l-104 -257h-88l-135 398h-64v66h235v-66h-75l98 -310h4l101 252l-20 58h-62v66h238v-66zM304 556c-34 0 -59 27 -59 61s25 62 59 62s59 -28 59 -62s-25 -61 -59 -61zM486 556
c-34 0 -59 27 -59 61s25 62 59 62s59 -28 59 -62s-25 -61 -59 -61z" />
    <glyph glyph-name="Wgrave" unicode="&#x1e80;" horiz-adv-x="992" 
d="M687 592h-117l127 -474h9l145 474h-83v66h231v-66h-71l-198 -596h-101l-118 425l-146 -425h-100l-187 596h-91v66h310v-66h-106l141 -474h9l138 409l-18 65h-91v66h317v-66zM551 741h-50l-66 81c-30 37 -40 55 -40 74c0 23 19 43 42 43c29 0 47 -25 66 -74z" />
    <glyph glyph-name="wgrave" unicode="&#x1e81;" horiz-adv-x="767" 
d="M519 392h-84l103 -310h4l97 310h-65v66h193v-66h-58l-138 -398h-92l-88 257l-104 -257h-88l-135 398h-64v66h235v-66h-75l98 -310h4l101 252l-20 58h-62v66h238v-66zM426 533h-50l-66 81c-30 37 -40 55 -40 74c0 23 19 43 42 43c29 0 47 -25 66 -74z" />
    <glyph glyph-name="Yacute" unicode="&#xdd;" horiz-adv-x="647" 
d="M349 334l149 258h-84v66h232v-66h-77l-193 -317v-209h101v-66h-303v66h99v208l-181 318h-82v66h289v-66h-90zM314 741l48 124c19 50 37 74 66 74c23 0 42 -20 42 -43c0 -19 -10 -37 -40 -74l-66 -81h-50z" />
    <glyph glyph-name="yacute" unicode="&#xfd;" horiz-adv-x="506" 
d="M74 -23c37 0 59 -29 59 -58c0 -11 -4 -25 -7 -31c38 9 64 29 96 114l-158 390h-64v66h242v-66h-78l107 -288l113 288h-64v66h193v-66h-59l-159 -381c-60 -142 -119 -178 -188 -178c-59 0 -96 31 -96 79c0 34 27 65 63 65zM239 533l48 124c19 50 37 74 66 74
c23 0 42 -20 42 -43c0 -19 -10 -37 -40 -74l-66 -81h-50z" />
    <glyph glyph-name="Ycircumflex" unicode="&#x176;" horiz-adv-x="647" 
d="M349 334l149 258h-84v66h232v-66h-77l-193 -317v-209h101v-66h-303v66h99v208l-181 318h-82v66h289v-66h-90zM213 742l111 183h41l111 -183h-49l-83 93l-82 -93h-49z" />
    <glyph glyph-name="ycircumflex" unicode="&#x177;" horiz-adv-x="506" 
d="M74 -23c37 0 59 -29 59 -58c0 -11 -4 -25 -7 -31c38 9 64 29 96 114l-158 390h-64v66h242v-66h-78l107 -288l113 288h-64v66h193v-66h-59l-159 -381c-60 -142 -119 -178 -188 -178c-59 0 -96 31 -96 79c0 34 27 65 63 65zM138 534l111 183h41l111 -183h-49l-83 93
l-82 -93h-49z" />
    <glyph glyph-name="Ydieresis" unicode="&#x178;" horiz-adv-x="647" 
d="M349 334l149 258h-84v66h232v-66h-77l-193 -317v-209h101v-66h-303v66h99v208l-181 318h-82v66h289v-66h-90zM436 764c-34 0 -59 27 -59 61s25 62 59 62s59 -28 59 -62s-25 -61 -59 -61zM254 764c-34 0 -59 27 -59 61s25 62 59 62s59 -28 59 -62s-25 -61 -59 -61z" />
    <glyph glyph-name="ydieresis" unicode="&#xff;" horiz-adv-x="506" 
d="M74 -23c37 0 59 -29 59 -58c0 -11 -4 -25 -7 -31c38 9 64 29 96 114l-158 390h-64v66h242v-66h-78l107 -288l113 288h-64v66h193v-66h-59l-159 -381c-60 -142 -119 -178 -188 -178c-59 0 -96 31 -96 79c0 34 27 65 63 65zM179 556c-34 0 -59 27 -59 61s25 62 59 62
s59 -28 59 -62s-25 -61 -59 -61zM361 556c-34 0 -59 27 -59 61s25 62 59 62s59 -28 59 -62s-25 -61 -59 -61z" />
    <glyph glyph-name="Ygrave" unicode="&#x1ef2;" horiz-adv-x="647" 
d="M349 334l149 258h-84v66h232v-66h-77l-193 -317v-209h101v-66h-303v66h99v208l-181 318h-82v66h289v-66h-90zM376 741h-50l-66 81c-30 37 -40 55 -40 74c0 23 19 43 42 43c29 0 47 -25 66 -74z" />
    <glyph glyph-name="ygrave" unicode="&#x1ef3;" horiz-adv-x="506" 
d="M74 -23c37 0 59 -29 59 -58c0 -11 -4 -25 -7 -31c38 9 64 29 96 114l-158 390h-64v66h242v-66h-78l107 -288l113 288h-64v66h193v-66h-59l-159 -381c-60 -142 -119 -178 -188 -178c-59 0 -96 31 -96 79c0 34 27 65 63 65zM301 533h-50l-66 81c-30 37 -40 55 -40 74
c0 23 19 43 42 43c29 0 47 -25 66 -74z" />
    <glyph glyph-name="Zacute" unicode="&#x179;" horiz-adv-x="629" 
d="M42 0v51l413 541h-199c-81 0 -98 -10 -148 -172h-48v238h524v-51l-411 -541h220c81 0 96 17 146 179h48v-245h-545zM289 741l48 124c19 50 37 74 66 74c23 0 42 -20 42 -43c0 -19 -10 -37 -40 -74l-66 -81h-50z" />
    <glyph glyph-name="zacute" unicode="&#x17a;" horiz-adv-x="465" 
d="M39 0v53l285 351h-114c-71 0 -82 -16 -112 -113h-46v167h382v-53l-286 -351h137c68 0 79 19 105 124h46v-178h-397zM219 533l48 124c19 50 37 74 66 74c23 0 42 -20 42 -43c0 -19 -10 -37 -40 -74l-66 -81h-50z" />
    <glyph glyph-name="Zcaron" unicode="&#x17d;" horiz-adv-x="629" 
d="M42 0v51l413 541h-199c-81 0 -98 -10 -148 -172h-48v238h524v-51l-411 -541h220c81 0 96 17 146 179h48v-245h-545zM303 751l-111 183h49l83 -93l82 93h49l-111 -183h-41z" />
    <glyph glyph-name="zcaron" unicode="&#x17e;" horiz-adv-x="465" 
d="M39 0v53l285 351h-114c-71 0 -82 -16 -112 -113h-46v167h382v-53l-286 -351h137c68 0 79 19 105 124h46v-178h-397zM233 543l-111 183h49l83 -93l82 93h49l-111 -183h-41z" />
    <glyph glyph-name="Zdotaccent" unicode="&#x17b;" horiz-adv-x="629" 
d="M42 0v51l413 541h-199c-81 0 -98 -10 -148 -172h-48v238h524v-51l-411 -541h220c81 0 96 17 146 179h48v-245h-545zM320 745c-37 0 -62 26 -62 63c0 35 27 64 62 64c37 0 62 -27 62 -64c0 -35 -27 -63 -62 -63z" />
    <glyph glyph-name="zdotaccent" unicode="&#x17c;" horiz-adv-x="465" 
d="M39 0v53l285 351h-114c-71 0 -82 -16 -112 -113h-46v167h382v-53l-286 -351h137c68 0 79 19 105 124h46v-178h-397zM250 537c-37 0 -62 26 -62 63c0 35 27 64 62 64c37 0 62 -27 62 -64c0 -35 -27 -63 -62 -63z" />
    <glyph glyph-name="schwa" unicode="&#x259;" horiz-adv-x="490" 
d="M229 -9c-137 0 -198 122 -195 243h316c-3 112 -53 169 -140 169c-56 0 -98 -24 -126 -85h-48c26 98 98 148 199 148c140 0 219 -101 219 -233c0 -137 -95 -242 -225 -242zM236 44c62 0 104 39 112 143h-218c7 -85 36 -143 106 -143z" />
    <glyph glyph-name="germandbls" unicode="&#xdf;" horiz-adv-x="566" 
d="M399 -9c-77 0 -142 38 -142 101c0 30 19 57 54 57c31 0 49 -25 49 -52c0 -15 -7 -30 -19 -40c15 -12 35 -17 63 -17c41 0 70 29 70 66c0 24 -16 56 -89 100c-78 47 -105 76 -105 134c0 30 16 59 54 96c45 45 60 69 60 109c0 54 -34 94 -91 94c-73 0 -103 -45 -103 -136
v-503h-167v66h73v326h-90v61h90v12c0 171 103 228 203 228c102 0 177 -62 177 -143c0 -54 -27 -86 -81 -126c-44 -32 -49 -45 -49 -63c0 -24 13 -32 87 -78c61 -38 108 -78 108 -142c0 -79 -58 -150 -152 -150z" />
    <glyph glyph-name="zero" unicode="0" horiz-adv-x="568" 
d="M283 -16c-158 0 -243 146 -243 331c0 186 92 335 245 335c158 0 243 -146 243 -331c0 -186 -92 -335 -245 -335zM285 45c96 0 131 98 131 271c0 174 -41 273 -133 273c-96 0 -131 -98 -131 -271c0 -174 41 -273 133 -273z" />
    <glyph glyph-name="one" unicode="1" horiz-adv-x="474" 
d="M65 0v66h143v446c-18 -8 -48 -14 -79 -14c-21 0 -53 4 -69 10v54c72 -4 148 26 177 79h70v-575h143v-66h-385z" />
    <glyph glyph-name="two" unicode="2" horiz-adv-x="569" 
d="M50 57c0 66 60 140 184 214c122 73 163 105 163 197c0 73 -45 121 -122 121c-56 0 -100 -23 -121 -61c31 -11 50 -35 50 -66c0 -39 -26 -70 -68 -70c-43 0 -73 35 -73 80c0 92 94 178 226 178c141 0 215 -91 215 -189c0 -97 -68 -156 -197 -218
c-112 -54 -144 -90 -168 -133l2 -4c26 16 62 24 89 24c71 0 128 -52 168 -52c42 0 60 32 82 120l50 -5c-16 -152 -71 -209 -148 -209c-92 0 -138 88 -203 88c-6 0 -17 -2 -18 -2c5 -7 9 -18 9 -30c0 -30 -23 -56 -56 -56c-40 0 -64 32 -64 73z" />
    <glyph glyph-name="three" unicode="3" horiz-adv-x="546" 
d="M255 -16c-123 0 -216 61 -216 143c0 40 30 76 74 76c39 0 62 -31 62 -65c0 -25 -15 -45 -30 -58c22 -22 61 -36 111 -36c94 0 132 52 132 125c0 75 -40 128 -176 128h-28v59h23c132 0 166 57 166 128c0 69 -42 106 -111 106c-54 0 -94 -18 -115 -38c22 -10 40 -32 40 -60
c0 -32 -21 -65 -63 -65c-37 0 -69 30 -69 75c0 77 90 148 216 148c136 0 211 -74 211 -159c0 -66 -54 -137 -183 -160v-3c127 -6 198 -72 198 -155c0 -103 -94 -189 -242 -189z" />
    <glyph glyph-name="four" unicode="4" horiz-adv-x="566" 
d="M320 249v289h-4l-210 -289h214zM416 64h98v-64h-294v64h99v119h-289v68l291 394h95v-396h131v-66h-131v-119z" />
    <glyph glyph-name="five" unicode="5" horiz-adv-x="535" 
d="M171 540l-12 -175c28 22 78 42 134 42c137 0 200 -94 200 -197c0 -108 -71 -226 -238 -226c-105 0 -207 64 -207 149c0 44 29 81 70 81s61 -31 61 -64c0 -26 -15 -50 -34 -62c19 -23 58 -45 110 -45c88 0 133 56 133 156c0 98 -43 148 -124 148c-58 0 -94 -22 -129 -54
l-46 12l22 327l14 13c62 -26 126 -37 184 -37c62 0 113 14 153 36l15 -38c-38 -57 -97 -92 -177 -92c-51 0 -97 14 -129 26z" />
    <glyph glyph-name="six" unicode="6" horiz-adv-x="554" 
d="M155 308c40 58 89 94 163 94c123 0 188 -84 188 -193c0 -113 -71 -225 -224 -225c-144 0 -232 131 -232 303c0 222 117 363 283 363c104 0 161 -58 161 -122c0 -44 -27 -76 -66 -76c-37 0 -59 25 -59 58c0 25 15 48 35 59c-14 12 -38 22 -75 22
c-101 0 -178 -85 -174 -283zM161 193c0 -77 54 -149 126 -149c81 0 114 64 114 158c0 76 -35 140 -114 140c-75 0 -126 -60 -126 -149z" />
    <glyph glyph-name="seven" unicode="7" horiz-adv-x="523" 
d="M282 59c-4 -49 -23 -75 -61 -75c-32 0 -58 23 -58 69c0 101 80 267 197 398c13 15 50 54 74 76l-5 6c-32 -18 -73 -30 -108 -30c-75 0 -106 43 -145 43c-38 0 -53 -29 -68 -140h-62v229h68l4 -72h5c20 59 49 77 88 77c78 0 110 -88 171 -88c12 0 22 2 28 3
c-7 9 -14 22 -14 38c0 30 23 57 58 57c36 0 58 -29 58 -61c0 -36 -24 -67 -62 -109c-97 -107 -154 -227 -168 -421z" />
    <glyph glyph-name="eight" unicode="8" horiz-adv-x="541" 
d="M66 465c0 97 83 185 213 185c122 0 201 -74 201 -161c0 -62 -33 -113 -109 -144c89 -34 128 -92 128 -161c0 -111 -97 -200 -231 -200c-139 0 -220 77 -220 172c0 56 32 116 119 151c-72 34 -101 84 -101 158zM234 284c-7 1 -13 3 -19 5c-47 -22 -73 -63 -73 -118
c0 -71 48 -128 137 -128c83 0 131 57 131 112c0 68 -48 97 -176 129zM156 489c0 -73 55 -103 158 -126c1 -1 2 -1 3 -1c60 29 79 80 79 124c0 54 -41 105 -121 105c-78 0 -119 -47 -119 -102z" />
    <glyph glyph-name="nine" unicode="9" horiz-adv-x="554" 
d="M399 318c-40 -58 -89 -94 -163 -94c-123 0 -188 83 -188 196c0 117 71 230 224 230c144 0 232 -131 232 -303c0 -225 -110 -363 -279 -363c-112 0 -173 58 -173 126c0 44 27 76 66 76c37 0 59 -25 59 -58c0 -25 -15 -48 -35 -59c21 -17 48 -26 85 -26
c102 0 176 82 172 275zM393 438c0 81 -54 152 -126 152c-81 0 -114 -65 -114 -163c0 -80 35 -143 114 -143c75 0 126 61 126 154z" />
    <glyph glyph-name="period" unicode="." horiz-adv-x="231" 
d="M116 -16c-37 0 -66 29 -66 64s29 64 66 64c36 0 65 -29 65 -64s-29 -64 -65 -64z" />
    <glyph glyph-name="comma" unicode="," horiz-adv-x="231" 
d="M35 -151l-19 34c76 34 110 71 118 114l-6 3c-7 -5 -16 -8 -27 -8c-26 0 -49 24 -49 55c0 35 26 65 62 65c45 0 74 -34 74 -82c0 -75 -41 -131 -153 -181z" />
    <glyph glyph-name="colon" unicode=":" horiz-adv-x="241" 
d="M121 277c-37 0 -66 29 -66 64s29 64 66 64c36 0 65 -29 65 -64s-29 -64 -65 -64zM121 -16c-37 0 -66 29 -66 64s29 64 66 64c36 0 65 -29 65 -64s-29 -64 -65 -64z" />
    <glyph glyph-name="semicolon" unicode=";" horiz-adv-x="241" 
d="M124 277c-37 0 -66 29 -66 64s29 64 66 64c36 0 65 -29 65 -64s-29 -64 -65 -64zM35 -151l-19 34c76 34 110 71 118 114l-6 3c-7 -5 -16 -8 -27 -8c-26 0 -49 24 -49 55c0 35 26 65 62 65c45 0 74 -34 74 -82c0 -75 -41 -131 -153 -181z" />
    <glyph glyph-name="ellipsis" unicode="&#x2026;" horiz-adv-x="673" 
d="M558 -16c-37 0 -66 29 -66 64s29 64 66 64c36 0 65 -29 65 -64s-29 -64 -65 -64zM337 -16c-37 0 -66 29 -66 64s29 64 66 64c36 0 65 -29 65 -64s-29 -64 -65 -64zM116 -16c-37 0 -66 29 -66 64s29 64 66 64c36 0 65 -29 65 -64s-29 -64 -65 -64z" />
    <glyph glyph-name="periodcentered" unicode="&#xb7;" horiz-adv-x="231" 
d="M116 254c-37 0 -66 29 -66 64s29 64 66 64c36 0 65 -29 65 -64s-29 -64 -65 -64z" />
    <glyph glyph-name="bullet" unicode="&#x2022;" horiz-adv-x="490" 
d="M245 179c-77 0 -139 62 -139 139s62 140 139 140s139 -63 139 -140s-62 -139 -139 -139z" />
    <glyph glyph-name="ampersand" unicode="&#x26;" horiz-adv-x="730" 
d="M480 380h223v-61h-76c-31 -66 -69 -128 -121 -189c39 -64 55 -76 82 -76c24 0 40 13 59 56l44 -19c-23 -64 -66 -107 -133 -107c-57 0 -85 21 -123 88c-54 -56 -111 -88 -185 -88c-141 0 -198 89 -198 163c0 89 53 148 163 195c-39 42 -63 84 -63 130
c0 98 74 158 170 158c93 0 147 -57 147 -124c0 -75 -54 -118 -132 -161c59 -58 100 -110 136 -167c34 42 64 91 84 141h-77v61zM275 55c50 0 89 22 129 64c-37 62 -80 116 -153 188c-66 -34 -95 -73 -95 -135s44 -117 119 -117zM238 499c0 -30 14 -67 66 -122
c51 32 82 69 82 118c0 41 -21 81 -73 81c-45 0 -75 -30 -75 -77z" />
    <glyph glyph-name="exclam" unicode="!" horiz-adv-x="279" 
d="M140 684c37 0 61 -24 61 -73c0 -38 -5 -88 -12 -150c-9 -78 -20 -174 -26 -281h-47c-6 107 -17 203 -26 281c-7 62 -12 112 -12 150c0 49 24 73 62 73zM140 -16c-37 0 -66 29 -66 64s29 64 66 64c36 0 65 -29 65 -64s-29 -64 -65 -64z" />
    <glyph glyph-name="exclamdown" unicode="&#xa1;" horiz-adv-x="279" 
d="M139 -16c-37 0 -61 24 -61 73c0 38 5 88 12 150c9 78 20 174 26 281h47c6 -107 17 -203 26 -281c7 -62 12 -112 12 -150c0 -49 -24 -73 -62 -73zM139 684c37 0 66 -29 66 -64s-29 -64 -66 -64c-36 0 -65 29 -65 64s29 64 65 64z" />
    <glyph glyph-name="question" unicode="?" horiz-adv-x="453" 
d="M173 194c3 57 21 122 63 173s92 86 92 159c0 61 -40 103 -104 103c-51 0 -94 -22 -108 -58c23 -11 42 -39 42 -64c0 -36 -24 -70 -66 -70c-41 0 -74 34 -74 78c0 85 84 169 203 169c144 0 210 -88 210 -173c0 -67 -34 -114 -122 -183c-48 -38 -62 -82 -72 -134h-64z
M208 -16c-37 0 -66 29 -66 64s29 64 66 64c36 0 65 -29 65 -64s-29 -64 -65 -64z" />
    <glyph glyph-name="questiondown" unicode="&#xbf;" horiz-adv-x="441" 
d="M280 474c-3 -57 -21 -122 -63 -173s-92 -86 -92 -159c0 -61 40 -103 104 -103c51 0 94 22 108 58c-23 11 -42 39 -42 64c0 36 24 70 66 70c41 0 74 -34 74 -78c0 -85 -84 -169 -203 -169c-144 0 -210 88 -210 173c0 67 34 114 122 183c48 38 62 82 72 134h64zM245 684
c37 0 66 -29 66 -64s-29 -64 -66 -64c-36 0 -65 29 -65 64s29 64 65 64z" />
    <glyph glyph-name="quotedblleft" unicode="&#x201c;" horiz-adv-x="420" 
d="M312 420c-45 0 -74 34 -74 82c0 75 41 131 153 181l19 -34c-76 -34 -110 -71 -118 -114l6 -3c7 5 16 8 27 8c26 0 49 -24 49 -55c0 -35 -26 -65 -62 -65zM120 420c-45 0 -74 34 -74 82c0 75 41 131 153 181l19 -34c-76 -34 -110 -71 -118 -114l6 -3c7 5 16 8 27 8
c26 0 49 -24 49 -55c0 -35 -26 -65 -62 -65z" />
    <glyph glyph-name="quotedblright" unicode="&#x201d;" horiz-adv-x="420" 
d="M227 411l-19 34c76 34 110 71 118 114l-6 3c-7 -5 -16 -8 -27 -8c-26 0 -49 24 -49 55c0 35 26 65 62 65c45 0 74 -34 74 -82c0 -75 -41 -131 -153 -181zM35 411l-19 34c76 34 110 71 118 114l-6 3c-7 -5 -16 -8 -27 -8c-26 0 -49 24 -49 55c0 35 26 65 62 65
c45 0 74 -34 74 -82c0 -75 -41 -131 -153 -181z" />
    <glyph glyph-name="quoteleft" unicode="&#x2018;" horiz-adv-x="231" 
d="M121 420c-45 0 -74 34 -74 82c0 75 41 131 153 181l19 -34c-76 -34 -110 -71 -118 -114l6 -3c7 5 16 8 27 8c26 0 49 -24 49 -55c0 -35 -26 -65 -62 -65z" />
    <glyph glyph-name="quoteright" unicode="&#x2019;" horiz-adv-x="231" 
d="M35 411l-19 34c76 34 110 71 118 114l-6 3c-7 -5 -16 -8 -27 -8c-26 0 -49 24 -49 55c0 35 26 65 62 65c45 0 74 -34 74 -82c0 -75 -41 -131 -153 -181z" />
    <glyph glyph-name="quotedblbase" unicode="&#x201e;" horiz-adv-x="420" 
d="M227 -151l-19 34c76 34 110 71 118 114l-6 3c-7 -5 -16 -8 -27 -8c-26 0 -49 24 -49 55c0 35 26 65 62 65c45 0 74 -34 74 -82c0 -75 -41 -131 -153 -181zM35 -151l-19 34c76 34 110 71 118 114l-6 3c-7 -5 -16 -8 -27 -8c-26 0 -49 24 -49 55c0 35 26 65 62 65
c45 0 74 -34 74 -82c0 -75 -41 -131 -153 -181z" />
    <glyph glyph-name="quotesinglbase" unicode="&#x201a;" horiz-adv-x="231" 
d="M35 -151l-19 34c76 34 110 71 118 114l-6 3c-7 -5 -16 -8 -27 -8c-26 0 -49 24 -49 55c0 35 26 65 62 65c45 0 74 -34 74 -82c0 -75 -41 -131 -153 -181z" />
    <glyph glyph-name="guillemotleft" unicode="&#xab;" horiz-adv-x="500" 
d="M137 226l117 -172l-35 -24l-152 154c-22 22 -27 31 -27 40s6 19 27 40l152 154l35 -24zM337 226l117 -172l-35 -24l-152 154c-22 22 -27 31 -27 40s6 19 27 40l152 154l35 -24z" />
    <glyph glyph-name="guillemotright" unicode="&#xbb;" horiz-adv-x="500" 
d="M363 222l-117 172l35 24l152 -154c22 -22 27 -31 27 -40s-6 -19 -27 -40l-152 -154l-35 24zM163 222l-117 172l35 24l152 -154c22 -22 27 -31 27 -40s-6 -19 -27 -40l-152 -154l-35 24z" />
    <glyph glyph-name="guilsinglleft" unicode="&#x2039;" horiz-adv-x="300" 
d="M137 226l117 -172l-35 -24l-152 154c-21 21 -27 31 -27 40s5 18 27 40l152 154l35 -24z" />
    <glyph glyph-name="guilsinglright" unicode="&#x203a;" horiz-adv-x="300" 
d="M163 222l-117 172l35 24l152 -154c21 -21 27 -31 27 -40s-5 -18 -27 -40l-152 -154l-35 24z" />
    <glyph glyph-name="hyphen" unicode="-" horiz-adv-x="366" 
d="M55 211v77h256v-77h-256z" />
    <glyph glyph-name="endash" unicode="&#x2013;" horiz-adv-x="540" 
d="M55 212v69h430v-69h-430z" />
    <glyph glyph-name="emdash" unicode="&#x2014;" horiz-adv-x="790" 
d="M55 212v69h680v-69h-680z" />
    <glyph glyph-name="underscore" unicode="_" horiz-adv-x="440" 
d="M-2 0v66h444v-66h-444z" />
    <glyph glyph-name="slash" unicode="/" horiz-adv-x="430" 
d="M-48 -203l386 907h73l-386 -907h-73z" />
    <glyph glyph-name="backslash" unicode="\" horiz-adv-x="430" 
d="M405 -203l-386 907h73l386 -907h-73z" />
    <glyph glyph-name="bar" unicode="|" horiz-adv-x="289" 
d="M113 -203v907h64v-907h-64z" />
    <glyph glyph-name="parenleft" unicode="(" horiz-adv-x="361" 
d="M349 -157c-145 67 -279 205 -279 439s134 372 279 439l29 -46c-125 -72 -209 -192 -209 -393s84 -321 209 -393z" />
    <glyph glyph-name="parenright" unicode=")" horiz-adv-x="361" 
d="M12 721c145 -67 279 -205 279 -439s-134 -372 -279 -439l-29 46c125 72 209 192 209 393s-84 321 -209 393z" />
    <glyph glyph-name="bracketleft" unicode="[" horiz-adv-x="343" 
d="M89 -156v877h265v-62h-171v-753h171v-62h-265z" />
    <glyph glyph-name="bracketright" unicode="]" horiz-adv-x="343" 
d="M254 721v-877h-265v62h171v753h-171v62h265z" />
    <glyph glyph-name="braceleft" unicode="{" horiz-adv-x="388" 
d="M16 312h30c96 0 137 32 137 86c0 51 -16 94 -16 139c0 114 81 179 228 184v-60c-113 -9 -130 -47 -130 -121c0 -12 4 -61 4 -98c0 -100 -40 -147 -156 -157v-5c116 -10 156 -57 156 -157c0 -37 -4 -86 -4 -98c0 -74 17 -112 130 -121v-60c-147 5 -228 70 -228 184
c0 45 16 88 16 139c0 54 -41 86 -137 86h-30v59z" />
    <glyph glyph-name="braceright" unicode="}" horiz-adv-x="388" 
d="M372 253h-30c-96 0 -137 -32 -137 -86c0 -51 16 -94 16 -139c0 -114 -81 -179 -228 -184v60c113 9 130 47 130 121c0 12 -4 61 -4 98c0 100 40 147 156 157v5c-116 10 -156 57 -156 157c0 37 4 86 4 98c0 74 -17 112 -130 121v60c147 -5 228 -70 228 -184
c0 -45 -16 -88 -16 -139c0 -54 41 -86 137 -86h30v-59z" />
    <glyph glyph-name="at" unicode="@" horiz-adv-x="906" 
d="M461 -146c-227 0 -405 142 -405 391c0 257 192 439 432 439c196 0 362 -134 362 -348c0 -179 -112 -275 -223 -275c-74 0 -121 39 -105 110h-2c-36 -68 -92 -102 -139 -102c-71 0 -130 53 -130 152c0 69 33 140 78 185c43 43 99 71 156 71c48 0 87 -29 91 -82l25 77h76
l-80 -244c-31 -96 -11 -120 44 -120c74 0 155 90 155 224c0 183 -133 308 -313 308c-216 0 -373 -175 -373 -395c0 -210 139 -347 356 -347c101 0 185 33 257 86l24 -37c-78 -59 -176 -93 -286 -93zM399 124c93 0 143 148 143 224c0 50 -13 83 -58 83
c-96 0 -146 -145 -146 -229c0 -46 18 -78 61 -78z" />
    <glyph glyph-name="copyright" unicode="&#xa9;" horiz-adv-x="787" 
d="M393 -32c-203 0 -361 157 -361 362c0 203 158 360 361 360c204 0 362 -157 362 -360c0 -205 -158 -362 -362 -362zM393 6c181 0 319 142 319 324c0 180 -138 322 -319 322c-179 0 -318 -142 -318 -322c0 -182 139 -324 318 -324zM397 141c-105 0 -181 87 -181 195
c0 104 87 188 182 188c44 0 75 -17 98 -43l10 42h42v-140h-39c-26 64 -58 99 -108 99c-60 0 -107 -40 -107 -143c0 -100 37 -153 112 -153c67 0 99 48 107 112h45c-10 -99 -74 -157 -161 -157z" />
    <glyph glyph-name="published" unicode="&#x2117;" horiz-adv-x="787" 
d="M393 -32c-203 0 -361 157 -361 362c0 203 158 360 361 360c204 0 362 -157 362 -360c0 -205 -158 -362 -362 -362zM393 6c181 0 319 142 319 324c0 180 -138 322 -319 322c-179 0 -318 -142 -318 -322c0 -182 139 -324 318 -324zM243 148v40h59v288h-59v41h166
c115 0 157 -51 157 -110c0 -56 -36 -115 -153 -115h-45v-104h64v-40h-189zM368 330h41c68 0 83 30 83 76c0 39 -19 71 -84 71h-40v-147z" />
    <glyph glyph-name="registered.alt" horiz-adv-x="787" 
d="M393 -32c-203 0 -361 157 -361 362c0 203 158 360 361 360c204 0 362 -157 362 -360c0 -205 -158 -362 -362 -362zM393 6c181 0 319 142 319 324c0 180 -138 322 -319 322c-179 0 -318 -142 -318 -322c0 -182 139 -324 318 -324zM345 310v-122h58v-40h-183v40h59v288h-59
v41h185c112 0 145 -49 145 -96c0 -39 -24 -79 -98 -90v-5c60 -10 78 -39 81 -79l3 -37c1 -19 7 -26 17 -26c8 0 16 8 24 27l26 -12c-11 -34 -32 -58 -68 -58c-39 0 -70 20 -70 73v38c0 38 -11 58 -60 58h-60zM345 346h56c55 0 75 25 75 70c0 39 -18 61 -69 61h-62v-131z" />
    <glyph glyph-name="registered" unicode="&#xae;" horiz-adv-x="517" 
d="M258 248c-125 0 -221 95 -221 222s96 220 221 220c126 0 222 -93 222 -220s-96 -222 -222 -222zM258 278c114 0 187 78 187 192c0 113 -73 190 -187 190c-112 0 -186 -77 -186 -190c0 -114 74 -192 186 -192zM231 458v-74h35v-25h-115v25h36v177h-36v26h118
c69 0 89 -31 89 -60c0 -24 -16 -49 -63 -55v-3c38 -6 49 -24 52 -49l2 -21c1 -13 4 -17 10 -17c5 0 11 5 15 17l17 -7c-7 -22 -20 -38 -43 -38c-27 0 -46 13 -46 47v22c0 23 -6 35 -36 35h-35zM231 482h34c32 0 44 15 44 42c0 24 -10 37 -41 37h-37v-79z" />
    <glyph glyph-name="servicemark" unicode="&#x2120;" horiz-adv-x="781" 
d="M49 358v107h32c29 -54 52 -75 94 -75c35 0 52 15 52 46c0 33 -35 42 -74 53c-46 13 -97 29 -97 92c0 44 37 87 94 87c25 0 53 -11 70 -32l9 30h33v-102h-32c-25 51 -48 70 -80 70c-29 0 -46 -13 -46 -40c0 -37 38 -46 78 -56c46 -11 94 -26 94 -87
c0 -52 -43 -95 -101 -95c-33 0 -64 12 -82 33l-11 -31h-33zM319 361v35h42v227h-42v35h142l67 -213h7l67 213h140v-35h-45v-227h45v-35h-139v35h33v210h-14l-80 -245h-42l-83 245h-16v-210h35v-35h-117z" />
    <glyph glyph-name="trademark" unicode="&#x2122;" horiz-adv-x="831" 
d="M369 361v35h42v227h-42v35h142l67 -213h7l67 213h140v-35h-45v-227h45v-35h-139v35h33v210h-14l-80 -245h-42l-83 245h-16v-210h35v-35h-117zM100 361v35h55v230h-13c-40 0 -49 -13 -73 -82h-26v114h286v-114h-27c-20 66 -32 82 -72 82h-13v-230h55v-35h-172z" />
    <glyph glyph-name="asterisk" unicode="*" horiz-adv-x="437" 
d="M225 365c-8 22 -6 84 -8 122l-13 5c-24 -29 -60 -81 -79 -95c-27 -20 -45 -17 -61 4s-12 40 15 59c19 13 80 32 115 46v13c-36 14 -96 34 -115 47c-27 19 -30 38 -15 59s34 24 61 4c19 -14 55 -65 79 -95l12 5c3 38 1 100 9 122c11 32 27 41 52 33c24 -8 33 -25 22 -57
c-7 -22 -44 -71 -65 -103l9 -11c37 10 96 29 118 29c34 0 47 -13 47 -39s-13 -39 -47 -39c-22 0 -81 20 -118 30l-8 -11c20 -32 56 -82 64 -104c11 -32 2 -49 -22 -57c-25 -8 -41 1 -52 33z" />
    <glyph glyph-name="dagger" unicode="&#x2020;" horiz-adv-x="518" 
d="M239 423c-47 16 -93 28 -108 28c-4 0 -10 0 -13 -1c2 -5 5 -15 5 -26c0 -28 -20 -49 -47 -49c-24 0 -50 18 -50 49c0 34 28 71 92 71c32 0 63 -9 121 -29l-33 175l9 23c8 21 21 39 44 39s36 -18 44 -39l9 -23l-35 -188c47 -15 95 -28 110 -28c4 0 10 0 13 1
c-2 5 -5 15 -5 26c0 28 20 49 47 49c24 0 50 -18 50 -49c0 -34 -28 -71 -92 -71c-31 0 -62 9 -119 28l21 -266v-154c0 -49 -31 -93 -43 -93c-13 0 -44 44 -44 93v154z" />
    <glyph glyph-name="daggerdbl" unicode="&#x2021;" horiz-adv-x="518" 
d="M239 466l-33 175l9 23c8 21 21 39 44 39s36 -18 44 -39l9 -23l-35 -188c47 -15 95 -28 110 -28c4 0 10 0 13 1c-2 5 -5 15 -5 26c0 28 20 49 47 49c24 0 50 -18 50 -49c0 -34 -28 -71 -92 -71c-31 0 -62 8 -117 27l18 -122l-20 -112c45 -15 91 -27 106 -27c4 0 10 0 13 1
c-2 5 -5 15 -5 26c0 28 20 49 47 49c24 0 50 -18 50 -49c0 -34 -28 -71 -92 -71c-32 0 -63 9 -121 29l33 -175l-9 -23c-8 -20 -21 -39 -44 -39s-36 19 -44 39l-9 23l35 187c-47 16 -95 29 -110 29c-4 0 -10 0 -13 -1c2 -5 5 -15 5 -26c0 -28 -20 -49 -47 -49
c-24 0 -50 18 -50 49c0 34 28 71 92 71c31 0 61 -8 117 -27l-19 122l21 112c-46 15 -91 27 -106 27c-4 0 -10 0 -13 -1c2 -5 5 -15 5 -26c0 -28 -20 -49 -47 -49c-24 0 -50 18 -50 49c0 34 28 71 92 71c32 0 63 -9 121 -29z" />
    <glyph glyph-name="asciicircum" unicode="^" horiz-adv-x="333" 
d="M24 517l123 200h45l115 -200h-51l-90 106l-91 -106h-51z" />
    <glyph glyph-name="asciitilde" unicode="~" horiz-adv-x="371" 
d="M35 249c12 91 38 124 98 124c52 0 97 -48 124 -48c19 0 28 18 35 57h48c-12 -91 -38 -124 -98 -124c-52 0 -97 48 -124 48c-19 0 -28 -18 -35 -57h-48z" />
    <glyph glyph-name="dollar" unicode="$" horiz-adv-x="562" 
d="M317 -80h-58v81c-123 8 -207 70 -207 138c0 35 27 70 65 70c37 0 62 -31 62 -62c0 -24 -14 -43 -32 -54c12 -16 55 -35 112 -41v228c-103 34 -186 69 -186 171c0 91 65 168 186 182v72h58v-70c117 -5 187 -71 187 -128c0 -42 -20 -68 -54 -68c-41 0 -63 25 -63 58
c0 20 13 40 27 49c-16 17 -49 33 -97 37v-216c119 -39 189 -78 189 -179c0 -78 -41 -176 -189 -187v-81zM426 151c0 51 -28 80 -109 110v-209c72 7 109 48 109 99zM161 485c0 -49 20 -72 98 -100v196c-67 -11 -98 -55 -98 -96z" />
    <glyph glyph-name="sterling" unicode="&#xa3;" horiz-adv-x="611" 
d="M478 282h-171c1 -7 2 -14 2 -21c0 -28 -8 -63 -31 -103c77 -21 119 -74 171 -74c43 0 67 17 81 101l51 -3c-7 -135 -46 -197 -140 -197c-73 0 -132 64 -197 99c-26 -73 -83 -100 -131 -100c-50 0 -83 30 -83 73c0 55 54 113 177 113c4 0 9 0 15 -1c4 17 6 31 6 44
c0 25 -8 47 -18 69h-152v63h119c-12 26 -21 55 -21 92c0 128 98 213 220 213c106 0 177 -64 177 -131c0 -51 -36 -79 -72 -79c-41 0 -69 27 -69 67c0 26 15 44 26 54c-10 15 -41 28 -71 28c-68 0 -111 -41 -111 -106c0 -49 20 -93 36 -138h186v-63zM125 39c22 0 51 21 64 64
c-12 3 -23 5 -34 5c-41 0 -59 -23 -59 -43c0 -14 10 -26 29 -26z" />
    <glyph glyph-name="Euro" unicode="&#x20ac;" horiz-adv-x="649" 
d="M31 351v57h96c36 139 145 242 279 242c112 0 205 -65 205 -141c0 -37 -23 -77 -70 -77c-43 0 -69 27 -69 68c0 22 11 42 24 55c-14 20 -53 34 -87 34c-75 0 -152 -42 -176 -181h186v-57h-192c-1 -13 -1 -26 -1 -39c0 -14 0 -27 1 -40h192v-56h-183
c24 -99 87 -155 171 -155s140 56 150 148h60c-4 -120 -89 -225 -230 -225c-147 0 -236 101 -263 232h-93v56h85c-1 11 -1 23 -1 35c0 15 1 29 2 44h-86z" />
    <glyph glyph-name="yen" unicode="&#xa5;" horiz-adv-x="658" 
d="M90 318h159l-141 250h-81v66h283v-66h-91l129 -246l136 246h-81v66h229v-66h-75l-150 -250h160v-57h-190v-69h190v-57h-190v-69h119v-66h-336v66h121v69h-191v57h191v69h-191v57z" />
    <glyph glyph-name="cent" unicode="&#xa2;" horiz-adv-x="521" 
d="M287 -101l-57 4l7 92c-118 19 -181 110 -181 227c0 134 91 232 223 243l8 83l57 -4l-7 -81c89 -12 154 -73 154 -130c0 -45 -25 -73 -65 -73s-62 28 -62 61c0 27 22 53 39 60c-11 17 -38 29 -71 34l-33 -361h11c56 0 110 31 133 98h48c-24 -101 -99 -158 -196 -161z
M160 234c0 -85 27 -144 84 -168l32 349c-68 -11 -116 -74 -116 -181z" />
    <glyph glyph-name="numbersign" unicode="#" horiz-adv-x="663" 
d="M205 413h-133v59h144l38 191h70l-38 -191h156l38 191h70l-38 -191h124v-59h-135l-39 -196h133v-59h-144l-39 -198h-70l39 198h-156l-39 -198h-70l39 198h-124v59h135zM431 413h-156l-39 -196h156z" />
    <glyph glyph-name="paragraph" unicode="&#xb6;" horiz-adv-x="652" 
d="M312 -104v273c-151 1 -263 81 -263 222c0 132 98 222 284 222h286v-66h-96v-651h-69v651h-73v-651h-69z" />
    <glyph glyph-name="section" unicode="&#xa7;" horiz-adv-x="525" 
d="M256 -118c-95 0 -189 52 -189 125c0 36 22 70 63 70c38 0 59 -27 59 -59c0 -20 -11 -40 -28 -51c17 -15 51 -29 103 -29c76 0 101 31 101 65s-10 64 -124 103c-126 43 -166 78 -166 152c0 59 47 101 115 123v7c-62 27 -99 60 -99 115c0 88 83 148 193 148
c99 0 163 -60 163 -115c0 -38 -22 -63 -56 -63c-36 0 -57 27 -57 55c0 18 9 34 22 45c-16 11 -44 22 -77 22c-71 0 -102 -31 -102 -63c0 -36 18 -59 138 -103c104 -38 150 -73 150 -151c0 -47 -36 -97 -102 -123v-6c50 -21 88 -56 88 -110c0 -74 -49 -157 -195 -157z
M297 179c65 15 84 47 84 76c0 32 -15 64 -107 97l-24 8c-68 -16 -87 -51 -87 -83c0 -36 25 -61 119 -93z" />
    <glyph glyph-name="ordfeminine" unicode="&#xaa;" horiz-adv-x="410" 
d="M148 316c-60 0 -97 35 -97 84c0 29 12 54 41 74c26 18 61 25 118 33c32 5 39 8 39 19v30c0 44 -20 55 -65 55c-22 0 -39 -3 -56 -11c12 -6 20 -20 20 -35c0 -22 -15 -40 -41 -40c-28 0 -44 20 -44 41c0 52 62 86 136 86s122 -31 122 -100v-163c0 -18 5 -26 22 -26
c10 0 20 11 27 27l29 -16c-17 -41 -46 -57 -79 -57c-30 0 -63 17 -63 57h-4c-18 -35 -63 -58 -105 -58zM179 365c32 0 70 28 70 66v50c-7 -3 -14 -4 -32 -7c-72 -11 -88 -17 -88 -60c0 -31 13 -49 50 -49z" />
    <glyph glyph-name="ordmasculine" unicode="&#xba;" horiz-adv-x="421" 
d="M211 312c-103 0 -167 69 -167 169s69 171 167 171c101 0 166 -68 166 -168s-69 -172 -166 -172zM214 355c55 0 85 43 85 128s-35 127 -92 127c-56 0 -86 -42 -86 -127s35 -128 93 -128z" />
    <glyph glyph-name="degree" unicode="&#xb0;" horiz-adv-x="402" 
d="M202 353c-103 0 -166 69 -166 159s68 162 166 162c101 0 164 -69 164 -159s-67 -162 -164 -162zM204 410c50 0 85 35 85 104c0 68 -39 103 -91 103c-50 0 -84 -35 -84 -103c0 -69 39 -104 90 -104z" />
    <glyph glyph-name="percent" unicode="%" horiz-adv-x="808" 
d="M169 265c-83 0 -129 57 -129 137c0 110 91 226 201 226c43 0 77 -16 97 -47c28 -13 60 -16 88 -16c53 0 112 18 161 77h68l-439 -668h-76l391 576l-3 3c-28 -22 -67 -38 -120 -38c-14 0 -31 1 -52 5c0 -5 1 -10 1 -15c0 -82 -61 -240 -188 -240zM580 -14
c-83 0 -129 57 -129 137c0 110 91 226 201 226c70 0 116 -43 116 -123c0 -82 -61 -240 -188 -240zM589 34c73 0 125 115 125 190c0 48 -18 72 -53 72c-69 0 -125 -117 -125 -191c0 -49 22 -71 53 -71zM178 313c73 0 125 115 125 190c0 11 -1 21 -3 30c-20 9 -39 22 -61 41
c-64 -11 -114 -120 -114 -190c0 -49 22 -71 53 -71z" />
    <glyph glyph-name="quotedbl" unicode="&#x22;" horiz-adv-x="392" 
d="M253 410l-33 16l20 88c15 67 23 102 31 119c10 21 25 29 40 29c27 0 53 -16 53 -42c0 -13 -2 -21 -6 -30c-12 -24 -25 -52 -58 -105zM89 410l-33 16l20 88c15 67 23 102 31 119c10 21 25 29 40 29c27 0 53 -16 53 -42c0 -13 -2 -21 -6 -30c-12 -24 -25 -52 -58 -105z" />
    <glyph glyph-name="quotesingle" unicode="'" horiz-adv-x="228" 
d="M89 410l-33 16l20 88c15 67 23 102 31 119c10 21 25 29 40 29c27 0 53 -16 53 -42c0 -13 -2 -21 -6 -30c-12 -24 -25 -52 -58 -105z" />
    <glyph glyph-name="plus" unicode="+" horiz-adv-x="525" 
d="M230 67v183h-179v62h179v183h66v-183h178v-62h-178v-183h-66z" />
    <glyph glyph-name="minus" unicode="&#x2212;" horiz-adv-x="520" 
d="M447 247h-374v68h374v-68z" />
    <glyph glyph-name="divide" unicode="&#xf7;" horiz-adv-x="520" 
d="M260 496c34 0 62 -28 62 -62s-28 -62 -62 -62s-62 28 -62 62s28 62 62 62zM475 250h-430v62h430v-62zM260 190c34 0 62 -28 62 -62s-28 -62 -62 -62s-62 28 -62 62s28 62 62 62z" />
    <glyph glyph-name="equal" unicode="=" horiz-adv-x="525" 
d="M54 345v62h417v-62h-417zM54 155v62h417v-62h-417z" />
    <glyph glyph-name="multiply" unicode="&#xd7;" horiz-adv-x="520" 
d="M303 281l140 -144l-45 -45l-138 144l-138 -144l-45 45l140 144l-140 144l45 45l138 -144l138 144l45 -45z" />
    <glyph glyph-name="less" unicode="&#x3c;" horiz-adv-x="524" 
d="M447 61l-370 191v59l370 190v-69l-304 -151l304 -150v-70z" />
    <glyph glyph-name="greater" unicode="&#x3e;" horiz-adv-x="524" 
d="M77 501l370 -191v-59l-370 -190v69l304 151l-304 150v70z" />
    <glyph glyph-name="plusminus" unicode="&#xb1;" horiz-adv-x="538" 
d="M240 159v163h-158v55h158v160h60v-160h157v-55h-157v-163h-60zM456 25h-374v57h374v-57z" />
    <glyph glyph-name="zero.osf" horiz-adv-x="576" 
d="M288 -16c-153 0 -248 132 -248 291s100 293 248 293c153 0 248 -132 248 -291s-100 -293 -248 -293zM292 45c92 0 132 83 132 230s-48 232 -140 232s-132 -83 -132 -230s48 -232 140 -232z" />
    <glyph glyph-name="one.osf" horiz-adv-x="464" 
d="M65 0v66h138v362c-19 -9 -43 -14 -72 -14c-25 0 -55 3 -71 10v54c72 -4 143 26 172 79h70v-491h138v-66h-375z" />
    <glyph glyph-name="two.osf" horiz-adv-x="549" 
d="M476 403c0 -83 -59 -133 -176 -178c-76 -29 -138 -77 -164 -120l1 -4c24 15 59 22 84 22c66 0 114 -45 155 -45c43 0 58 20 80 102l50 -4c-13 -140 -81 -192 -147 -192c-85 0 -124 81 -184 81c-5 0 -15 -2 -17 -2c5 -9 8 -19 8 -29c0 -27 -21 -50 -54 -50
c-37 0 -62 29 -62 63c0 76 74 155 178 205c111 53 143 85 143 161c0 59 -41 94 -106 94c-57 0 -93 -23 -113 -50c29 -10 47 -31 47 -62c0 -38 -25 -67 -66 -67c-40 0 -68 35 -68 74c0 89 88 166 207 166c134 0 204 -75 204 -165z" />
    <glyph glyph-name="three.osf" horiz-adv-x="531" 
d="M251 -85c-121 0 -213 60 -213 145c0 38 29 72 70 72c42 0 65 -33 65 -68c0 -23 -13 -43 -28 -56c22 -19 49 -34 111 -34c80 0 118 51 118 123c0 73 -31 125 -165 125h-20v58h15c130 0 156 56 156 125c0 68 -40 104 -106 104c-52 0 -84 -18 -107 -40c23 -10 40 -35 40 -59
c0 -34 -20 -67 -62 -67c-38 0 -70 30 -70 74c0 82 85 151 207 151c136 0 206 -73 206 -156c0 -64 -46 -134 -173 -157v-3c125 -6 187 -70 187 -151c0 -101 -85 -186 -231 -186z" />
    <glyph glyph-name="four.osf" horiz-adv-x="566" 
d="M320 177v281h-4l-209 -281h213zM416 -12h85v-63h-267v63h85v123h-289v66l291 386h95v-386h131v-66h-131v-123z" />
    <glyph glyph-name="five.osf" horiz-adv-x="526" 
d="M170 458l-12 -169c27 22 77 42 132 42c135 0 197 -92 197 -194c0 -106 -69 -222 -234 -222c-103 0 -205 64 -205 147c0 43 28 79 69 79c40 0 59 -30 59 -62c0 -26 -14 -50 -33 -62c19 -22 59 -43 110 -43c85 0 129 54 129 152c0 96 -42 145 -120 145
c-57 0 -93 -22 -128 -53l-46 12l22 320l14 13c61 -25 124 -36 181 -36c61 0 111 13 150 35l15 -38c-38 -56 -96 -91 -174 -91c-50 0 -95 13 -126 25z" />
    <glyph glyph-name="six.osf" horiz-adv-x="543" 
d="M155 301c39 57 86 93 160 93c124 0 189 -82 189 -189c0 -111 -71 -221 -223 -221c-144 0 -231 128 -231 297c0 199 122 356 281 356c108 0 161 -58 161 -116c0 -45 -25 -79 -66 -79c-43 0 -62 26 -62 59c0 24 15 45 40 55c-23 15 -39 22 -79 22
c-89 0 -170 -101 -170 -277zM161 188c0 -74 53 -144 125 -144c80 0 113 63 113 154c0 74 -35 136 -113 136c-75 0 -125 -59 -125 -146z" />
    <glyph glyph-name="seven.osf" horiz-adv-x="500" 
d="M157 -28c0 88 85 287 201 415l60 66l-5 5c-32 -18 -64 -29 -100 -29c-69 0 -100 40 -136 40s-51 -28 -66 -137h-62v226h68l4 -71h5c20 58 49 76 85 76c75 0 107 -85 165 -85c6 0 16 2 18 2c-7 9 -12 22 -12 39c0 27 22 54 53 54c39 0 59 -29 59 -63
c0 -33 -22 -67 -55 -102c-98 -105 -142 -222 -163 -421c-5 -49 -22 -73 -60 -73c-33 0 -59 20 -59 58z" />
    <glyph glyph-name="eight.osf" horiz-adv-x="535" 
d="M68 455c0 96 80 182 208 182c120 0 196 -73 196 -158c0 -61 -31 -111 -105 -141c87 -33 126 -90 126 -158c0 -109 -96 -196 -228 -196c-136 0 -217 76 -217 169c0 55 32 113 116 147c-69 33 -96 83 -96 155zM232 277c-7 1 -14 3 -20 5c-45 -22 -70 -61 -70 -114
c0 -70 46 -125 134 -125c81 0 127 55 127 109c0 67 -46 93 -171 125zM158 479c0 -72 51 -100 152 -123c2 -1 3 -1 5 -1c56 29 73 78 73 121c0 53 -38 102 -116 102c-77 0 -114 -45 -114 -99z" />
    <glyph glyph-name="nine.osf" horiz-adv-x="543" 
d="M388 245c-31 -59 -87 -93 -159 -93c-121 0 -190 82 -190 192c0 114 79 224 228 224c151 0 226 -128 226 -297c0 -193 -112 -356 -275 -356c-117 0 -171 56 -171 122c0 45 28 80 68 80s60 -27 60 -60c0 -24 -13 -45 -36 -57c23 -16 44 -26 85 -26c108 0 159 115 164 271z
M382 361c0 77 -44 147 -115 147c-78 0 -123 -63 -123 -157c0 -77 35 -138 115 -138c74 0 123 49 123 148z" />
    <glyph glyph-name="dollar.osf" horiz-adv-x="543" 
d="M307 -94h-58v79c-118 9 -200 69 -200 136c0 35 26 70 65 70c37 0 61 -31 61 -62c0 -23 -13 -43 -31 -54c12 -15 51 -33 105 -39v196c-96 29 -178 61 -178 157c0 86 63 156 178 170v70h58v-68c112 -5 181 -70 181 -129c0 -39 -26 -65 -59 -65c-34 0 -58 24 -58 56
c0 22 13 41 26 50c-15 17 -45 32 -90 36v-185c112 -34 181 -76 181 -164c0 -67 -40 -163 -181 -175v-79zM408 124c0 39 -27 65 -101 91v-179c67 7 101 46 101 88zM159 423c0 -41 18 -59 90 -82v166c-62 -9 -90 -44 -90 -84z" />
    <glyph glyph-name="sterling.osf" horiz-adv-x="598" 
d="M453 242h-160v-1c0 -27 -8 -52 -29 -87c72 -21 121 -75 171 -75c41 0 63 15 77 97l51 -3c-7 -132 -45 -188 -136 -188c-72 0 -135 63 -197 95c-25 -72 -73 -96 -120 -96c-53 0 -86 28 -86 70c0 52 49 110 165 110c6 0 13 0 21 -1c2 9 2 15 2 26c0 20 -7 36 -17 53h-141
v63h101c-8 18 -14 39 -14 66c0 109 91 197 221 197c115 0 181 -62 181 -125c0 -40 -28 -72 -68 -72c-38 0 -69 24 -69 64c0 20 10 39 18 49c-7 9 -30 23 -71 23c-77 0 -112 -46 -112 -90c0 -45 22 -77 37 -112h175v-63zM118 39c23 0 46 18 57 58c-12 3 -23 5 -32 5
c-42 0 -53 -20 -53 -36c0 -17 11 -27 28 -27z" />
    <glyph glyph-name="Euro.osf" horiz-adv-x="633" 
d="M27 307v57h99c39 120 144 204 275 204c114 0 207 -64 207 -137c0 -37 -23 -74 -69 -74c-42 0 -69 26 -69 64c0 22 11 41 23 52c-13 19 -51 34 -89 34c-75 0 -150 -36 -175 -143h189v-57h-197v-26c0 -15 0 -29 2 -42h195v-57h-184c25 -80 83 -121 164 -121
c91 0 143 53 155 140h60c-6 -111 -85 -217 -230 -217c-148 0 -237 84 -264 198h-92v57h83v22c0 15 1 31 3 46h-86z" />
    <glyph glyph-name="yen.osf" horiz-adv-x="648" 
d="M88 317h122l-104 169h-80v66h277v-66h-87l127 -213l133 213h-78v66h225v-66h-74l-111 -169h121v-57h-159l-28 -43v-24h187v-57h-187v-70h116v-66h-329v66h117v70h-188v57h188v18l-31 49h-157v57z" />
    <glyph glyph-name="space" unicode=" " horiz-adv-x="184" 
 />
    <glyph glyph-name="uni00A0" unicode="&#xa0;" horiz-adv-x="184" 
 />
    <glyph glyph-name="emspace" unicode="&#x2003;" horiz-adv-x="1000" 
 />
    <glyph glyph-name="enspace" unicode="&#x2002;" horiz-adv-x="500" 
 />
    <glyph glyph-name="threeperemspace" unicode="&#x2004;" horiz-adv-x="333" 
 />
    <glyph glyph-name="fourperemspace" unicode="&#x2005;" horiz-adv-x="250" 
 />
    <glyph glyph-name="thinspace" unicode="&#x2009;" horiz-adv-x="133" 
 />
    <glyph glyph-name="hairspace" unicode="&#x200a;" horiz-adv-x="75" 
 />
    <glyph glyph-name="hfjslug" horiz-adv-x="694" 
d="M644 -200h-208l-8 14h-163l-8 -14h-207v303c18 0 32 14 32 32c0 17 -14 32 -32 32v554h100l30 79h334l29 -79h101v-921zM400 563v-172h15v78h38v14h-38v66h43v14h-58zM184 563v-172h15v79h47v-79h15v172h-15v-79h-47v79h-15zM460 394c5 -2 14 -4 21 -4c20 0 31 11 31 36
v137h-16v-137c0 -16 -5 -22 -16 -22c-6 0 -15 3 -20 5v-15zM371 465l-13 3c-2 -9 -5 -21 -8 -30h-1l-16 31c13 12 23 26 23 42c0 17 -9 31 -27 31c-17 0 -28 -14 -28 -31c0 -15 6 -24 14 -39c-15 -12 -23 -28 -23 -47c0 -22 12 -37 29 -37c13 0 23 9 29 24h1l12 -24l12 6
l-17 32c5 12 9 25 13 39zM523 323v-46h8v12l8 8l15 -20h10l-20 26l18 20h-10l-20 -24h-1v24h-8zM488 292l10 -15h9l-12 17c5 2 10 6 10 14c0 9 -7 15 -17 15h-20v-46h8v15h12zM426 276c14 0 24 11 24 24c0 12 -10 24 -24 24s-24 -12 -24 -24c0 -13 10 -24 24 -24zM370 301
l-13 22h-9l18 -29v-17h8v17l18 29h-9zM193 323v-46h34v7h-26v13h23v7h-23v12h26v7h-34zM132 323v-46h8v32l25 -32h7v46h-8v-32l-25 32h-7zM241 323l14 -47h8l11 34h1l11 -34h8l14 47h-8l-10 -35h-1l-11 35h-7l-11 -35h-1l-10 35h-8zM327 479c-7 13 -12 22 -12 32
c0 11 6 19 14 19s13 -8 13 -19c0 -12 -5 -21 -15 -32zM342 423c-5 -13 -12 -21 -20 -21c-9 0 -16 10 -16 25c0 13 7 26 16 35zM487 299h-11v17h11c6 0 10 -3 10 -8s-4 -9 -10 -9zM426 283c-10 0 -16 8 -16 17c0 8 6 17 16 17s16 -9 16 -17c0 -9 -6 -17 -16 -17z" />
    <glyph glyph-name="i.dot" horiz-adv-x="316" 
d="M164 554c-39 0 -65 25 -65 65s26 68 65 68s65 -26 65 -66s-26 -67 -65 -67zM40 0v66h83v326h-83v66h177v-392h83v-66h-260z" />
    <glyph glyph-name="acute" unicode="&#xb4;" horiz-adv-x="238" 
d="M49 533l48 124c19 50 37 74 66 74c23 0 42 -20 42 -43c0 -19 -10 -37 -40 -74l-66 -81h-50z" />
    <glyph glyph-name="hungarumlaut" unicode="&#x2dd;" horiz-adv-x="288" 
d="M136 533l52 124c21 50 40 74 69 74c23 0 40 -18 40 -41c0 -19 -11 -39 -42 -76l-69 -81h-50zM-14 533l52 124c21 50 40 74 69 74c23 0 40 -18 40 -41c0 -19 -11 -39 -42 -76l-69 -81h-50z" />
    <glyph glyph-name="caron.alt" horiz-adv-x="238" 
d="M118 523h-41l-4 144c-2 57 16 84 49 84c26 0 42 -20 42 -49c0 -15 -4 -32 -12 -61z" />
    <glyph glyph-name="grave" unicode="`" horiz-adv-x="238" 
d="M176 533h-50l-66 81c-30 37 -40 55 -40 74c0 23 19 43 42 43c29 0 47 -25 66 -74z" />
    <glyph glyph-name="circumflex" unicode="&#x2c6;" horiz-adv-x="299" 
d="M18 534l111 183h41l111 -183h-49l-83 93l-82 -93h-49z" />
    <glyph glyph-name="caron" unicode="&#x2c7;" horiz-adv-x="299" 
d="M130 543l-111 183h49l83 -93l82 93h49l-111 -183h-41z" />
    <glyph glyph-name="breve" unicode="&#x2d8;" horiz-adv-x="336" 
d="M169 540c-80 0 -134 58 -139 157h41c16 -54 45 -87 98 -87s80 33 96 87h41c-3 -99 -57 -157 -137 -157z" />
    <glyph glyph-name="tilde" unicode="&#x2dc;" horiz-adv-x="331" 
d="M13 537c12 91 38 124 98 124c52 0 97 -48 124 -48c19 0 28 18 35 57h48c-12 -91 -38 -124 -98 -124c-52 0 -97 48 -124 48c-19 0 -28 -18 -35 -57h-48z" />
    <glyph glyph-name="macron" unicode="&#xaf;" horiz-adv-x="321" 
d="M35 550v75h251v-75h-251z" />
    <glyph glyph-name="dieresis" unicode="&#xa8;" horiz-adv-x="322" 
d="M252 556c-34 0 -59 27 -59 61s25 62 59 62s59 -28 59 -62s-25 -61 -59 -61zM70 556c-34 0 -59 27 -59 61s25 62 59 62s59 -28 59 -62s-25 -61 -59 -61z" />
    <glyph glyph-name="dotaccent" unicode="&#x2d9;" horiz-adv-x="192" 
d="M96 537c-37 0 -62 26 -62 63c0 35 27 64 62 64c37 0 62 -27 62 -64c0 -35 -27 -63 -62 -63z" />
    <glyph glyph-name="ring" unicode="&#x2da;" horiz-adv-x="258" 
d="M129 527c-70 0 -105 47 -105 102s35 102 105 102c69 0 105 -47 105 -102s-36 -102 -105 -102zM129 562c36 0 56 29 56 67s-20 67 -56 67c-35 0 -56 -29 -56 -67s21 -67 56 -67z" />
    <glyph glyph-name="commaaccent" unicode="&#x326;" horiz-adv-x="225" 
d="M50 -316l-17 32c58 28 85 63 89 98l-5 3c-6 -5 -15 -8 -26 -8c-24 0 -47 22 -47 52c0 33 26 62 60 62c43 0 70 -32 70 -78c0 -66 -30 -119 -124 -161z" />
    <glyph glyph-name="cedilla" unicode="&#xb8;" horiz-adv-x="282" 
d="M112 -243c-33 0 -73 10 -105 32l22 36c25 -16 47 -21 70 -21c37 0 55 13 55 37c0 25 -28 43 -70 43c-12 0 -22 -1 -34 -4l-16 22l98 103h57l-69 -70l1 -4c65 -5 101 -39 101 -81c0 -58 -46 -93 -110 -93z" />
    <glyph glyph-name="ogonek" unicode="&#x2db;" horiz-adv-x="269" 
d="M112 -243c-67 0 -106 35 -106 90c0 45 26 83 88 137l35 30h60l-26 -26c-67 -67 -78 -99 -78 -127c0 -37 25 -51 50 -51c23 0 42 11 56 21l22 -35c-29 -23 -65 -39 -101 -39z" />
    </font>
</defs>
</svg>
