<?xml version="1.0" standalone="no"?>
<!DOCTYPE svg PUBLIC "-//W3C//DTD SVG 1.1//EN" "http://www.w3.org/Graphics/SVG/1.1/DTD/svg11.dtd" >
<svg xmlns="http://www.w3.org/2000/svg" xmlns:xlink="http://www.w3.org/1999/xlink" version="1.1">
<metadata>
Created by FontForge 20170812 at Wed Dec  3 17:31:13 2008
 By www-data
Copyright (C) 2004, 2009 Hoefler &#38; Frere-Jones. http://www.typography.com
</metadata>
<defs>
<font id="Sentinel-Light" horiz-adv-x="704" >
  <font-face 
    font-family="Sentinel Light"
    font-weight="300"
    font-stretch="normal"
    units-per-em="1000"
    panose-1="2 0 0 0 0 0 0 0 0 0"
    ascent="800"
    descent="-200"
    x-height="443"
    cap-height="648"
    bbox="-48 -274 1107 1079"
    underline-thickness="50"
    underline-position="-100"
    stemh="40"
    stemv="64"
    unicode-range="U+0020-FB04"
  />
<missing-glyph horiz-adv-x="500" 
d="M0 -200v1000h500v-1000h-500zM71 750l179 -390l179 390h-358zM50 -76l172 376l-172 376v-752zM450 676l-172 -376l172 -376v752zM250 240l-179 -390h358z" />
    <glyph glyph-name="f_b" unicode="fb" horiz-adv-x="814" 
d="M36 0v40h76v363h-92v40h92v35c0 162 84 215 173 215c37 0 72 -9 97 -26l70 23v-347c36 72 91 109 152 109c45 0 77 -16 103 -41c43 -42 64 -105 64 -183s-25 -147 -68 -190c-28 -28 -63 -46 -110 -46c-63 0 -122 40 -148 109l-26 -106h-31v408h-212v-363h106v-40h-246z
M580 36c72 0 122 70 122 189c0 117 -49 183 -118 183c-75 0 -134 -82 -134 -197c0 -116 63 -175 130 -175zM176 485v-42h212v110c-4 -2 -9 -2 -13 -2c-30 0 -46 20 -46 44c0 23 17 38 23 41c-25 19 -51 23 -69 23c-69 0 -107 -45 -107 -174z" />
    <glyph glyph-name="f_f" unicode="ff" horiz-adv-x="608" 
d="M293 693c64 0 119 -24 134 -69c33 50 85 69 140 69c63 0 123 -31 123 -85c0 -29 -20 -52 -46 -52c-30 0 -46 20 -46 44c0 23 17 38 23 41c-12 13 -37 18 -58 18c-73 0 -108 -45 -108 -178v-38h134v-40h-134v-363h106v-40h-236v40h66v363h-215v-363h86v-40h-226v40h76v363
h-92v40h92v35c0 162 85 215 181 215zM391 443v35c0 27 2 51 7 73c-5 -2 -9 -2 -14 -2c-29 0 -48 18 -48 45c0 22 15 37 24 42c-14 15 -45 23 -71 23c-77 0 -113 -45 -113 -178v-38h215z" />
    <glyph glyph-name="f_h" unicode="fh" horiz-adv-x="844" 
d="M332 0v40h66v363h-222v-363h86v-40h-226v40h76v363h-92v40h92v35c0 162 84 215 177 215c39 0 75 -9 101 -26l72 23v-361c53 95 116 123 168 123c78 0 122 -48 122 -142v-270h76v-40h-210v40h70v234c0 49 -6 83 -26 103c-16 17 -37 22 -60 22c-75 0 -140 -87 -140 -144
v-215h70v-40h-200zM176 481v-38h222v111c-5 -2 -11 -3 -17 -3c-30 0 -46 20 -46 44c0 23 17 38 23 41c-25 19 -51 23 -70 23c-77 0 -112 -45 -112 -178z" />
    <glyph glyph-name="fi" unicode="fi" horiz-adv-x="561" 
d="M393 403h-217v-363h78v-40h-218v40h76v363h-92v40h92v35c0 162 86 215 198 215c83 0 144 -43 144 -101c0 -37 -25 -54 -48 -54c-28 0 -46 19 -46 43c0 23 13 38 26 46c-12 15 -34 32 -79 32c-85 0 -131 -42 -131 -178v-38h281v-403h86v-40h-219v40h69v363z" />
    <glyph glyph-name="f_j" unicode="fj" horiz-adv-x="541" 
d="M457 443v-434c0 -118 -54 -169 -131 -169c-54 0 -101 34 -101 77c0 29 20 52 48 52s45 -18 45 -42c0 -21 -12 -36 -26 -45c9 -7 20 -11 34 -11c39 0 67 33 67 110v422h-217v-363h86v-40h-226v40h76v363h-92v40h92v35c0 162 86 215 198 215c83 0 144 -43 144 -101
c0 -37 -25 -54 -48 -54c-28 0 -46 19 -46 43c0 23 13 38 26 46c-12 15 -34 32 -79 32c-85 0 -131 -42 -131 -178v-38h281z" />
    <glyph glyph-name="f_k" unicode="fk" horiz-adv-x="807" 
d="M36 0v40h76v363h-92v40h92v35c0 162 84 215 177 215c39 0 75 -9 101 -26l72 23v-494l196 208h-75v39h194v-40h-67l-124 -129l154 -234h59v-40h-195v39h63l-125 193l-80 -83v-109h67v-40h-197v40h66v363h-222v-363h86v-40h-226zM176 481v-38h222v111c-5 -2 -11 -3 -17 -3
c-30 0 -46 20 -46 44c0 23 17 38 23 41c-25 19 -51 23 -70 23c-77 0 -112 -45 -112 -178z" />
    <glyph glyph-name="fl" unicode="fl" horiz-adv-x="566" 
d="M36 0v40h76v363h-92v40h92v35c0 162 84 215 177 215c39 0 75 -9 101 -26l72 23v-650h86v-40h-216v40h66v363h-222v-363h86v-40h-226zM176 481v-38h222v111c-5 -2 -11 -3 -17 -3c-30 0 -46 20 -46 44c0 23 17 38 23 41c-25 19 -51 23 -70 23c-77 0 -112 -45 -112 -178z
" />
    <glyph glyph-name="f_f_b" unicode="ffb" horiz-adv-x="1100" 
d="M738 690v-347c36 72 91 109 152 109c45 0 77 -16 103 -41c43 -42 64 -105 64 -183s-25 -147 -68 -190c-28 -28 -63 -46 -110 -46c-63 0 -122 40 -148 109l-26 -106h-31v408h-219v-363h106v-40h-236v40h66v363h-215v-363h86v-40h-226v40h76v363h-92v40h92v35
c0 162 85 215 181 215c64 0 119 -24 134 -69c33 50 84 69 137 69c38 0 74 -10 99 -27zM866 36c72 0 122 70 122 189c0 117 -49 183 -118 183c-75 0 -134 -82 -134 -197c0 -116 63 -175 130 -175zM391 443v35c0 27 2 51 7 73c-5 -2 -9 -2 -14 -2c-29 0 -48 18 -48 45
c0 22 15 37 24 42c-14 15 -45 23 -71 23c-77 0 -113 -45 -113 -178v-38h215zM455 485v-42h219v113c-6 -3 -13 -5 -20 -5c-30 0 -46 20 -46 44c0 23 17 38 23 41c-25 19 -51 23 -69 23c-69 0 -107 -45 -107 -174z" />
    <glyph glyph-name="f_f_h" unicode="ffh" horiz-adv-x="1123" 
d="M611 0v40h66v363h-222v-363h86v-40h-216v40h66v363h-215v-363h86v-40h-226v40h76v363h-92v40h92v35c0 162 85 215 181 215c64 0 119 -24 134 -69c33 50 85 69 141 69c39 0 75 -9 101 -26l72 23v-361c53 95 116 123 168 123c78 0 122 -48 122 -142v-270h76v-40h-210v40h70
v234c0 49 -6 83 -26 103c-16 17 -37 22 -60 22c-75 0 -140 -87 -140 -144v-215h70v-40h-200zM455 481v-38h222v111c-5 -2 -11 -3 -17 -3c-30 0 -46 20 -46 44c0 23 17 38 23 41c-25 19 -51 23 -70 23c-77 0 -112 -45 -112 -178zM391 478c0 27 2 51 7 73c-5 -2 -9 -2 -14 -2
c-29 0 -48 18 -48 45c0 22 15 37 24 42c-14 15 -45 23 -71 23c-77 0 -113 -45 -113 -178v-38h215v35z" />
    <glyph glyph-name="f_f_i" unicode="ffi" horiz-adv-x="840" 
d="M455 481v-38h281v-403h86v-40h-219v40h69v363h-217v-363h78v-40h-208v40h66v363h-215v-363h86v-40h-226v40h76v363h-92v40h92v35c0 162 85 215 181 215c66 0 121 -25 134 -71c36 51 94 71 162 71c83 0 144 -43 144 -101c0 -37 -25 -54 -48 -54c-28 0 -46 19 -46 43
c0 23 13 38 26 46c-12 15 -34 32 -79 32c-85 0 -131 -42 -131 -178zM391 478c0 27 2 51 7 73c-5 -2 -9 -2 -14 -2c-29 0 -48 18 -48 45c0 22 15 37 24 42c-14 15 -45 23 -71 23c-77 0 -113 -45 -113 -178v-38h215v35z" />
    <glyph glyph-name="f_f_j" unicode="ffj" horiz-adv-x="820" 
d="M736 443v-434c0 -118 -54 -169 -131 -169c-54 0 -101 34 -101 77c0 29 20 52 48 52s45 -18 45 -42c0 -21 -12 -36 -26 -45c9 -7 20 -11 34 -11c39 0 67 33 67 110v422h-217v-363h86v-40h-216v40h66v363h-215v-363h86v-40h-226v40h76v363h-92v40h92v35
c0 162 85 215 181 215c66 0 121 -25 134 -71c36 51 94 71 162 71c83 0 144 -43 144 -101c0 -37 -25 -54 -48 -54c-28 0 -46 19 -46 43c0 23 13 38 26 46c-12 15 -34 32 -79 32c-85 0 -131 -42 -131 -178v-38h281zM391 478c0 27 2 51 7 73c-5 -2 -9 -2 -14 -2
c-29 0 -48 18 -48 45c0 22 15 37 24 42c-14 15 -45 23 -71 23c-77 0 -113 -45 -113 -178v-38h215v35z" />
    <glyph glyph-name="f_f_k" unicode="ffk" horiz-adv-x="1086" 
d="M741 690v-494l196 208h-75v39h194v-40h-67l-124 -129l154 -234h59v-40h-195v39h63l-125 193l-80 -83v-109h67v-40h-197v40h66v363h-222v-363h86v-40h-216v40h66v363h-215v-363h86v-40h-226v40h76v363h-92v40h92v35c0 162 85 215 181 215c64 0 119 -24 134 -69
c33 50 85 69 141 69c39 0 75 -9 101 -26zM455 481v-38h222v111c-5 -2 -11 -3 -17 -3c-30 0 -46 20 -46 44c0 23 17 38 23 41c-25 19 -51 23 -70 23c-77 0 -112 -45 -112 -178zM391 478c0 27 2 51 7 73c-5 -2 -9 -2 -14 -2c-29 0 -48 18 -48 45c0 22 15 37 24 42
c-14 15 -45 23 -71 23c-77 0 -113 -45 -113 -178v-38h215v35z" />
    <glyph glyph-name="f_f_l" unicode="ffl" horiz-adv-x="845" 
d="M611 0v40h66v363h-222v-363h86v-40h-216v40h66v363h-215v-363h86v-40h-226v40h76v363h-92v40h92v35c0 162 85 215 181 215c64 0 119 -24 134 -69c33 50 85 69 141 69c39 0 75 -9 101 -26l72 23v-650h86v-40h-216zM455 481v-38h222v111c-5 -2 -11 -3 -17 -3
c-30 0 -46 20 -46 44c0 23 17 38 23 41c-25 19 -51 23 -70 23c-77 0 -112 -45 -112 -178zM391 443v35c0 27 2 51 7 73c-5 -2 -9 -2 -14 -2c-29 0 -48 18 -48 45c0 22 15 37 24 42c-14 15 -45 23 -71 23c-77 0 -113 -45 -113 -178v-38h215z" />
    <glyph glyph-name=".notdef" horiz-adv-x="500" 
d="M0 -200v1000h500v-1000h-500zM71 750l179 -390l179 390h-358zM50 -76l172 376l-172 376v-752zM450 676l-172 -376l172 -376v752zM250 240l-179 -390h358z" />
    <glyph glyph-name="A" unicode="A" horiz-adv-x="672" 
d="M514 40l-72 198h-245l-77 -198h92v-40h-209v40h69l245 613h45l228 -613h79v-40h-257v40h102zM323 559l-111 -283h216l-103 283h-2z" />
    <glyph glyph-name="B" unicode="B" horiz-adv-x="619" 
d="M34 0v40h110v568h-110v40h281c191 0 238 -74 238 -156c0 -53 -34 -127 -160 -150v-2c128 -10 191 -77 191 -157c0 -92 -54 -183 -268 -183h-282zM214 360h114c102 0 150 50 150 133c0 72 -37 115 -144 115h-120v-248zM214 40h117c125 0 177 45 177 146
c0 82 -62 135 -183 135h-111v-281z" />
    <glyph glyph-name="C" unicode="C" horiz-adv-x="674" 
d="M347 -16c-173 0 -293 134 -293 339c0 198 129 340 298 340c91 0 151 -35 191 -81l20 78h40v-238h-34c-38 125 -100 195 -219 195c-132 0 -220 -115 -220 -288c0 -194 99 -298 230 -298c116 0 193 83 213 218h45c-22 -171 -117 -265 -271 -265z" />
    <glyph glyph-name="D" unicode="D" horiz-adv-x="690" 
d="M34 0v40h110v568h-110v40h259c235 0 345 -125 345 -314s-104 -334 -341 -334h-263zM214 40h87c181 0 261 102 261 294c0 170 -81 274 -266 274h-82v-568z" />
    <glyph glyph-name="E" unicode="E" horiz-adv-x="640" 
d="M34 0v40h110v568h-110v40h538v-196h-32c-20 136 -27 156 -79 156h-247v-257h123c48 0 54 10 65 99h31v-238h-31c-10 93 -17 103 -65 103h-123v-275h247c60 0 67 21 88 176h32v-216h-547z" />
    <glyph glyph-name="F" unicode="F" horiz-adv-x="628" 
d="M34 0v40h110v568h-110v40h551v-200h-32c-21 140 -36 160 -88 160h-251v-269h119c46 0 52 10 65 102h31v-246h-31c-11 96 -19 108 -65 108h-119v-263h121v-40h-301z" />
    <glyph glyph-name="G" unicode="G" horiz-adv-x="705" 
d="M531 91c-38 -70 -108 -107 -188 -107c-179 0 -289 151 -289 342c0 183 119 337 291 337c72 0 141 -31 185 -81l20 78h40v-232h-34c-36 118 -104 189 -209 189c-141 0 -217 -119 -217 -285c0 -186 85 -300 221 -300c50 0 93 19 121 47c40 40 55 94 55 166v28h-123v40h284
v-40h-91v-280h-36z" />
    <glyph glyph-name="H" unicode="H" horiz-adv-x="758" 
d="M34 0v40h110v568h-110v40h280v-40h-100v-254h330v254h-100v40h280v-40h-110v-568h110v-40h-280v40h100v276h-330v-276h100v-40h-280z" />
    <glyph glyph-name="I" unicode="I" horiz-adv-x="366" 
d="M38 0v40h110v568h-110v40h290v-40h-110v-568h110v-40h-290z" />
    <glyph glyph-name="J" unicode="J" horiz-adv-x="508" 
d="M208 -16c-111 0 -174 73 -174 143c0 40 26 69 60 69c36 0 54 -27 54 -55c0 -26 -13 -49 -50 -56c13 -30 51 -58 105 -58c72 0 116 53 116 138v443h-103v40h268v-40h-95v-428c0 -124 -76 -196 -181 -196z" />
    <glyph glyph-name="K" unicode="K" horiz-adv-x="712" 
d="M214 227v-187h100v-40h-280v40h110v568h-110v40h280v-40h-100v-325l322 325h-92v40h241v-40h-85l-232 -229l254 -339h78v-40h-259v40h94l-215 291z" />
    <glyph glyph-name="L" unicode="L" horiz-adv-x="603" 
d="M34 648h301v-40h-121v-568h244c41 0 48 43 73 205h32v-245h-529v40h110v568h-110v40z" />
    <glyph glyph-name="M" unicode="M" horiz-adv-x="912" 
d="M34 0v40h105v568h-105v40h221l199 -527h3l205 527h216v-40h-110v-568h110v-40h-268v40h88v568h-4l-243 -609h-24l-238 609h-4v-568h94v-40h-245z" />
    <glyph glyph-name="N" unicode="N" horiz-adv-x="747" 
d="M587 -16l-400 579h-2v-523h97v-40h-248v40h105v568h-105v40h178l365 -529h2v489h-99v40h243v-40h-98v-624h-38z" />
    <glyph glyph-name="O" unicode="O" 
d="M352 -16c-168 0 -298 139 -298 340c0 196 135 338 298 338c168 0 298 -137 298 -339c0 -197 -135 -339 -298 -339zM352 27c135 0 222 116 222 296c0 178 -87 296 -222 296s-222 -118 -222 -295c0 -178 87 -297 222 -297z" />
    <glyph glyph-name="P" unicode="P" horiz-adv-x="600" 
d="M34 0v40h110v568h-110v40h281c193 0 248 -86 248 -184c0 -112 -87 -194 -248 -194h-101v-230h121v-40h-301zM214 310h102c116 0 171 63 171 156c0 86 -46 142 -168 142h-105v-298z" />
    <glyph glyph-name="Q" unicode="Q" 
d="M352 -16c-168 0 -298 139 -298 340c0 196 135 338 298 338c168 0 298 -137 298 -339c0 -119 -50 -219 -125 -278c42 -72 64 -95 95 -95c41 0 61 42 71 109h42c-7 -97 -40 -164 -121 -164c-62 0 -97 45 -135 119c-38 -19 -81 -30 -125 -30zM216 80c-14 70 23 147 117 147
c74 0 120 -59 166 -137c46 51 75 132 75 233c0 178 -87 296 -222 296s-222 -118 -222 -295c0 -109 33 -195 86 -244zM365 26c33 0 65 9 93 27c-37 78 -70 134 -131 134c-46 0 -75 -34 -75 -78s29 -83 113 -83z" />
    <glyph glyph-name="R" unicode="R" horiz-adv-x="670" 
d="M214 296v-256h111v-40h-291v40h110v568h-110v40h317c145 0 224 -68 224 -168c0 -68 -42 -140 -150 -161v-2c86 -23 118 -64 124 -143l7 -90c3 -32 16 -46 38 -46c23 0 37 16 51 51l25 -13c-20 -55 -47 -87 -99 -87c-53 0 -90 26 -92 116l-2 79c-2 80 -32 112 -131 112
h-132zM214 333h127c111 0 156 61 156 151c0 81 -46 124 -143 124h-140v-275z" />
    <glyph glyph-name="S" unicode="S" horiz-adv-x="561" 
d="M56 -13v218h33c55 -125 133 -184 231 -184c75 0 133 43 133 129c0 94 -65 117 -179 146c-107 27 -209 61 -209 184c0 107 76 182 195 182c73 0 132 -32 171 -75l20 72h35v-206h-33c-44 126 -121 173 -198 173c-67 0 -128 -42 -128 -124c0 -95 72 -116 166 -141
c123 -33 222 -59 222 -183c0 -114 -83 -194 -200 -194c-86 0 -149 34 -202 89l-22 -86h-35z" />
    <glyph glyph-name="T" unicode="T" horiz-adv-x="664" 
d="M183 0v40h114v568h-124c-67 0 -70 -30 -91 -180h-31v220h562v-220h-31c-21 150 -24 180 -91 180h-124v-568h114v-40h-298z" />
    <glyph glyph-name="U" unicode="U" horiz-adv-x="720" 
d="M358 -16c-164 0 -239 88 -239 212v412h-95v40h268v-40h-103v-399c0 -126 67 -176 189 -176c53 0 104 18 134 47c33 33 49 78 49 152v376h-99v40h234v-40h-89v-396c0 -132 -81 -228 -249 -228z" />
    <glyph glyph-name="V" unicode="V" horiz-adv-x="674" 
d="M313 -4l-231 612h-79v40h257v-40h-102l190 -515h2l204 515h-92v40h209v-40h-69l-247 -612h-42z" />
    <glyph glyph-name="W" unicode="W" horiz-adv-x="977" 
d="M624 608h-96l156 -507h2l170 507h-92v40h207v-40h-69l-209 -612h-46l-155 493l-168 -493h-46l-193 612h-79v40h249v-40h-96l156 -507h2l153 458l-15 49h-77v40h246v-40z" />
    <glyph glyph-name="X" unicode="X" horiz-adv-x="663" 
d="M402 608v40h236v-40h-79l-190 -270l197 -298h85v-40h-260v40h91l-160 250l-172 -250h96v-40h-234v40h79l201 285l-186 283h-86v40h262v-40h-92l149 -235l161 235h-98z" />
    <glyph glyph-name="Y" unicode="Y" horiz-adv-x="628" 
d="M329 324l170 284h-84v40h213v-40h-77l-204 -333v-235h101v-40h-272v40h101v234l-192 334h-82v40h257v-40h-90z" />
    <glyph glyph-name="Z" unicode="Z" horiz-adv-x="592" 
d="M37 0v25l419 583h-291c-41 0 -49 -10 -74 -172h-32v212h491v-25l-417 -583h311c41 0 48 17 73 179h32v-219h-512z" />
    <glyph glyph-name="a" unicode="a" horiz-adv-x="477" 
d="M173 -8c-80 0 -125 45 -125 115c0 28 9 57 29 77c33 33 79 47 171 63c63 11 72 14 72 30v42c0 72 -38 97 -95 97c-39 0 -75 -12 -94 -31c17 -10 27 -24 27 -44c0 -28 -20 -48 -47 -48c-28 0 -47 19 -47 51c0 58 82 106 168 106c102 0 152 -44 152 -132v-237
c0 -38 14 -45 30 -45c19 0 31 13 44 42l25 -12c-22 -47 -39 -72 -84 -72c-41 0 -70 23 -72 84h-2c-34 -51 -89 -86 -152 -86zM200 35c60 0 120 49 120 100v97c-9 -3 -29 -6 -52 -10c-107 -17 -150 -45 -150 -105c0 -55 30 -82 82 -82z" />
    <glyph glyph-name="b" unicode="b" horiz-adv-x="510" 
d="M276 36c72 0 122 70 122 189c0 117 -49 183 -118 183c-75 0 -134 -82 -134 -197c0 -116 63 -175 130 -175zM84 -5v652h-76v40h140v-344c36 72 91 109 152 109c45 0 77 -16 103 -41c43 -42 64 -105 64 -183s-25 -147 -68 -190c-28 -28 -63 -46 -110 -46
c-63 0 -122 40 -148 109l-26 -106h-31z" />
    <glyph glyph-name="c" unicode="c" horiz-adv-x="464" 
d="M240 -9c-113 0 -199 91 -199 220c0 142 85 241 219 241c97 0 166 -70 166 -126c0 -33 -21 -60 -52 -60c-30 0 -49 23 -49 49c0 22 12 41 38 50c-18 25 -52 51 -105 51c-91 0 -148 -81 -148 -197c0 -114 57 -185 144 -185c70 0 111 39 139 108h38
c-27 -100 -96 -151 -191 -151z" />
    <glyph glyph-name="d" unicode="d" horiz-adv-x="522" 
d="M210 -8c-45 0 -77 16 -103 41c-43 42 -64 105 -64 183s25 147 68 190c28 28 63 46 110 46c58 0 112 -34 139 -93v289h-76v39h140v-647h76v-40h-138v101c-36 -72 -91 -109 -152 -109zM230 36c75 0 134 82 134 197c0 116 -63 175 -130 175c-72 0 -122 -70 -122 -189
c0 -117 49 -183 118 -183z" />
    <glyph glyph-name="e" unicode="e" horiz-adv-x="465" 
d="M426 219h-316c1 -120 62 -184 146 -184c55 0 103 20 130 91h37c-28 -88 -91 -135 -177 -135c-123 0 -205 91 -205 226c0 137 93 235 205 235c126 0 183 -115 180 -233zM244 416c-70 0 -122 -59 -132 -157h246c-7 101 -47 157 -114 157z" />
    <glyph glyph-name="f" unicode="f" horiz-adv-x="329" 
d="M36 0v40h76v363h-92v40h92v35c0 162 84 215 176 215c63 0 123 -31 123 -85c0 -29 -20 -52 -46 -52c-30 0 -46 20 -46 44c0 23 17 38 23 41c-12 13 -37 18 -58 18c-73 0 -108 -45 -108 -178v-38h134v-40h-134v-363h106v-40h-246z" />
    <glyph glyph-name="g" unicode="g" horiz-adv-x="463" 
d="M388 305c0 -92 -67 -145 -167 -145c-22 0 -44 3 -62 3c-33 0 -58 -19 -58 -41c0 -28 38 -40 90 -40h117c84 0 120 -34 120 -93c0 -80 -85 -145 -216 -145c-119 0 -187 45 -187 104c0 45 39 79 95 91v2c-54 15 -74 35 -74 67s32 60 85 72c-49 26 -78 62 -78 123
c0 93 77 146 167 146c25 0 52 -6 77 -16c31 55 70 90 114 90c30 0 52 -19 52 -48c0 -24 -16 -44 -42 -44c-23 0 -37 17 -37 39c0 3 0 6 1 10c-18 -2 -44 -23 -64 -60c39 -24 67 -63 67 -115zM225 192c58 0 94 40 94 112c0 64 -37 114 -101 114c-56 0 -96 -38 -96 -114
c0 -75 44 -112 103 -112zM215 -122c96 0 156 40 156 94c0 38 -26 57 -72 57h-112c-61 0 -99 -28 -99 -78c0 -44 42 -73 127 -73z" />
    <glyph glyph-name="h" unicode="h" horiz-adv-x="544" 
d="M22 0v40h76v608h-76v39h140v-358c53 95 116 123 168 123c78 0 122 -48 122 -142v-270h76v-40h-210v40h70v234c0 49 -6 83 -26 103c-16 17 -37 22 -60 22c-75 0 -140 -87 -140 -144v-215h70v-40h-210z" />
    <glyph glyph-name="i" unicode="i" horiz-adv-x="287" 
d="M145 550c-28 0 -49 19 -49 49c0 28 20 50 49 50c25 0 47 -20 47 -49c0 -30 -21 -50 -47 -50zM33 0v40h86v363h-86v40h150v-403h86v-40h-236z" />
    <glyph glyph-name="j" unicode="j" horiz-adv-x="273" 
d="M151 550c-28 0 -49 19 -49 49c0 28 20 50 49 50c25 0 47 -20 47 -49c0 -30 -21 -50 -47 -50zM58 -160c-54 0 -101 34 -101 77c0 29 20 52 48 52s45 -18 45 -42c0 -21 -12 -36 -26 -45c9 -7 20 -11 34 -11c39 0 67 33 67 110v422h-86v40h150v-434
c0 -118 -54 -169 -131 -169z" />
    <glyph glyph-name="k" unicode="k" horiz-adv-x="507" 
d="M410 403l-124 -129l154 -234h59v-40h-195v39h63l-125 193l-80 -83v-109h67v-40h-207v40h76v608h-76v39h140v-491l196 208h-75v39h194v-40h-67z" />
    <glyph glyph-name="l" unicode="l" horiz-adv-x="272" 
d="M18 0v40h86v608h-86v39h150v-647h86v-40h-236z" />
    <glyph glyph-name="m" unicode="m" horiz-adv-x="826" 
d="M453 330c54 94 111 122 163 122c78 0 118 -49 118 -143v-269h76v-40h-205v40h65v234c0 49 -4 84 -25 105c-15 15 -34 19 -57 19c-74 0 -134 -87 -134 -143v-215h65v-40h-194v40h65v234c0 49 -4 84 -25 105c-15 15 -33 19 -57 19c-74 0 -134 -87 -134 -143v-215h65v-40
h-205v40h76v363h-76v40h138v-115c55 96 113 124 164 124c72 0 111 -42 117 -122z" />
    <glyph glyph-name="n" unicode="n" horiz-adv-x="556" 
d="M34 0v40h76v363h-76v40h138v-115c55 96 118 124 170 124c78 0 122 -48 122 -142v-270h75v-40h-209v40h70v234c0 49 -6 83 -26 103c-16 17 -37 22 -60 22c-75 0 -140 -87 -140 -144v-215h70v-40h-210z" />
    <glyph glyph-name="o" unicode="o" horiz-adv-x="498" 
d="M249 -9c-117 0 -208 88 -208 226c0 140 96 235 208 235c117 0 208 -89 208 -227c0 -140 -96 -234 -208 -234zM252 27c71 0 136 62 136 195c0 134 -72 194 -142 194c-71 0 -136 -63 -136 -196c0 -134 72 -193 142 -193z" />
    <glyph glyph-name="p" unicode="p" horiz-adv-x="524" 
d="M292 44c68 0 120 62 120 186c0 132 -57 178 -115 178c-75 0 -134 -83 -134 -191c0 -102 56 -173 129 -173zM25 -147v40h76v510h-76v40h138v-105c36 78 90 114 153 114c44 0 75 -13 105 -43c40 -40 60 -106 60 -179c0 -74 -25 -142 -66 -183c-30 -30 -65 -47 -112 -47
c-67 0 -115 44 -138 96v-203h98v-40h-238z" />
    <glyph glyph-name="q" unicode="q" horiz-adv-x="509" 
d="M232 408c-68 0 -120 -62 -120 -186c0 -132 57 -178 115 -178c75 0 134 83 134 191c0 102 -56 173 -129 173zM361 114c-36 -78 -90 -114 -153 -114c-44 0 -75 14 -105 43c-40 41 -60 106 -60 179c0 74 25 142 66 183c30 30 65 47 112 47c61 0 121 -40 147 -109l26 106h31
v-556h76v-40h-238v40h98v221z" />
    <glyph glyph-name="r" unicode="r" horiz-adv-x="391" 
d="M34 0v40h76v363h-76v40h138v-105c34 75 86 112 138 112c42 0 66 -29 66 -63c0 -28 -20 -52 -49 -52c-26 0 -46 19 -46 46c0 8 2 15 5 22c-53 6 -100 -66 -112 -103v-260h90v-40h-230z" />
    <glyph glyph-name="s" unicode="s" horiz-adv-x="425" 
d="M45 -9v168h33c24 -84 75 -133 153 -133c56 0 97 29 97 75c0 49 -34 69 -123 94c-110 31 -152 66 -152 131c0 66 59 126 146 126c54 0 98 -20 121 -55l12 55h32v-152h-31c-32 78 -64 117 -134 117c-48 0 -88 -27 -88 -70c0 -45 36 -69 119 -92c112 -32 153 -60 153 -133
c0 -67 -57 -131 -149 -131c-65 0 -115 26 -146 65l-11 -65h-32z" />
    <glyph glyph-name="t" unicode="t" horiz-adv-x="341" 
d="M100 567l64 10v-134h145v-40h-145v-294c0 -45 20 -72 58 -72s60 25 78 81l29 -10c-24 -88 -66 -117 -121 -117c-72 0 -108 45 -108 122v290h-92v40h92v124z" />
    <glyph glyph-name="u" unicode="u" horiz-adv-x="540" 
d="M213 -9c-76 0 -121 48 -121 142v270h-75v40h139v-274c0 -49 5 -84 26 -105c15 -16 37 -20 59 -20c74 0 137 87 137 144v215h-79v40h143v-403h76v-40h-138v115c-54 -96 -116 -124 -167 -124z" />
    <glyph glyph-name="v" unicode="v" horiz-adv-x="479" 
d="M219 -6l-158 409h-61v40h211v-40h-78l118 -327h2l130 327h-73v40h169v-40h-51l-169 -409h-40z" />
    <glyph glyph-name="w" unicode="w" horiz-adv-x="740" 
d="M490 403h-78l112 -324h2l118 324h-73v40h166v-40h-51l-153 -409h-42l-113 319l-130 -319h-42l-142 409h-61v40h207v-40h-78l107 -324h2l116 293l-11 31h-61v40h205v-40z" />
    <glyph glyph-name="x" unicode="x" horiz-adv-x="473" 
d="M210 405h-67l104 -149l114 149h-62v38h164v-40h-51l-141 -175l137 -188h55v-40h-195v38h66l-106 148l-115 -148h60v-38h-163v40h54l140 174l-138 189h-56v40h200v-38z" />
    <glyph glyph-name="y" unicode="y" horiz-adv-x="476" 
d="M67 -42c26 0 45 -18 45 -44c0 -16 -5 -28 -12 -37c34 -3 77 17 120 122c-35 89 -160 404 -160 404h-60v40h210v-40h-78l123 -327l125 327h-72v40h168v-40h-51l-151 -380c-56 -141 -113 -183 -178 -183c-52 0 -80 29 -80 63c0 31 21 55 51 55z" />
    <glyph glyph-name="z" unicode="z" horiz-adv-x="451" 
d="M32 0v34l300 374h-196c-37 0 -43 -16 -58 -113h-30v148h367v-34l-301 -374h220c35 0 40 19 53 124h30v-159h-385z" />
    <glyph glyph-name="Aacute" unicode="&#xc1;" horiz-adv-x="672" 
d="M514 40l-72 198h-245l-77 -198h92v-40h-209v40h69l245 613h45l228 -613h79v-40h-257v40h102zM323 559l-111 -283h216l-103 283h-2zM320 736l51 126c20 50 33 68 56 68c16 0 30 -12 30 -32c0 -22 -16 -41 -45 -79l-64 -83h-28z" />
    <glyph glyph-name="aacute" unicode="&#xe1;" horiz-adv-x="477" 
d="M173 -8c-80 0 -125 45 -125 115c0 28 9 57 29 77c33 33 79 47 171 63c63 11 72 14 72 30v42c0 72 -38 97 -95 97c-39 0 -75 -12 -94 -31c17 -10 27 -24 27 -44c0 -28 -20 -48 -47 -48c-28 0 -47 19 -47 51c0 58 82 106 168 106c102 0 152 -44 152 -132v-237
c0 -38 14 -45 30 -45c19 0 31 13 44 42l25 -12c-22 -47 -39 -72 -84 -72c-41 0 -70 23 -72 84h-2c-34 -51 -89 -86 -152 -86zM200 35c60 0 120 49 120 100v97c-9 -3 -29 -6 -52 -10c-107 -17 -150 -45 -150 -105c0 -55 30 -82 82 -82zM220 523l51 126c20 50 33 68 56 68
c16 0 30 -12 30 -32c0 -22 -16 -41 -45 -79l-64 -83h-28z" />
    <glyph glyph-name="Abreve" unicode="&#x102;" horiz-adv-x="672" 
d="M514 40l-72 198h-245l-77 -198h92v-40h-209v40h69l245 613h45l228 -613h79v-40h-257v40h102zM323 559l-111 -283h216l-103 283h-2zM340 743c-70 0 -118 54 -122 143h24c16 -55 46 -89 98 -89s82 34 98 89h24c-4 -89 -52 -143 -122 -143z" />
    <glyph glyph-name="abreve" unicode="&#x103;" horiz-adv-x="477" 
d="M173 -8c-80 0 -125 45 -125 115c0 28 9 57 29 77c33 33 79 47 171 63c63 11 72 14 72 30v42c0 72 -38 97 -95 97c-39 0 -75 -12 -94 -31c17 -10 27 -24 27 -44c0 -28 -20 -48 -47 -48c-28 0 -47 19 -47 51c0 58 82 106 168 106c102 0 152 -44 152 -132v-237
c0 -38 14 -45 30 -45c19 0 31 13 44 42l25 -12c-22 -47 -39 -72 -84 -72c-41 0 -70 23 -72 84h-2c-34 -51 -89 -86 -152 -86zM200 35c60 0 120 49 120 100v97c-9 -3 -29 -6 -52 -10c-107 -17 -150 -45 -150 -105c0 -55 30 -82 82 -82zM240 530c-70 0 -118 54 -122 143h24
c16 -55 46 -89 98 -89s82 34 98 89h24c-4 -89 -52 -143 -122 -143z" />
    <glyph glyph-name="Acircumflex" unicode="&#xc2;" horiz-adv-x="672" 
d="M514 40l-72 198h-245l-77 -198h92v-40h-209v40h69l245 613h45l228 -613h79v-40h-257v40h102zM323 559l-111 -283h216l-103 283h-2zM217 737l106 179h34l106 -179h-31l-92 108l-92 -108h-31z" />
    <glyph glyph-name="acircumflex" unicode="&#xe2;" horiz-adv-x="477" 
d="M173 -8c-80 0 -125 45 -125 115c0 28 9 57 29 77c33 33 79 47 171 63c63 11 72 14 72 30v42c0 72 -38 97 -95 97c-39 0 -75 -12 -94 -31c17 -10 27 -24 27 -44c0 -28 -20 -48 -47 -48c-28 0 -47 19 -47 51c0 58 82 106 168 106c102 0 152 -44 152 -132v-237
c0 -38 14 -45 30 -45c19 0 31 13 44 42l25 -12c-22 -47 -39 -72 -84 -72c-41 0 -70 23 -72 84h-2c-34 -51 -89 -86 -152 -86zM200 35c60 0 120 49 120 100v97c-9 -3 -29 -6 -52 -10c-107 -17 -150 -45 -150 -105c0 -55 30 -82 82 -82zM117 524l106 179h34l106 -179h-31
l-92 108l-92 -108h-31z" />
    <glyph glyph-name="Adieresis" unicode="&#xc4;" horiz-adv-x="672" 
d="M514 40l-72 198h-245l-77 -198h92v-40h-209v40h69l245 613h45l228 -613h79v-40h-257v40h102zM323 559l-111 -283h216l-103 283h-2zM423 759c-25 0 -45 21 -45 48s20 48 45 48s45 -21 45 -48s-20 -48 -45 -48zM257 759c-25 0 -45 21 -45 48s20 48 45 48s45 -21 45 -48
s-20 -48 -45 -48z" />
    <glyph glyph-name="adieresis" unicode="&#xe4;" horiz-adv-x="477" 
d="M173 -8c-80 0 -125 45 -125 115c0 28 9 57 29 77c33 33 79 47 171 63c63 11 72 14 72 30v42c0 72 -38 97 -95 97c-39 0 -75 -12 -94 -31c17 -10 27 -24 27 -44c0 -28 -20 -48 -47 -48c-28 0 -47 19 -47 51c0 58 82 106 168 106c102 0 152 -44 152 -132v-237
c0 -38 14 -45 30 -45c19 0 31 13 44 42l25 -12c-22 -47 -39 -72 -84 -72c-41 0 -70 23 -72 84h-2c-34 -51 -89 -86 -152 -86zM200 35c60 0 120 49 120 100v97c-9 -3 -29 -6 -52 -10c-107 -17 -150 -45 -150 -105c0 -55 30 -82 82 -82zM323 546c-25 0 -45 21 -45 48
s20 48 45 48s45 -21 45 -48s-20 -48 -45 -48zM157 546c-25 0 -45 21 -45 48s20 48 45 48s45 -21 45 -48s-20 -48 -45 -48z" />
    <glyph glyph-name="AE" unicode="&#xc6;" horiz-adv-x="932" 
d="M436 286v322h-5l-180 -322h185zM229 248l-116 -208h95v-40h-225v40h79l318 568h-106v40h590v-196h-32c-20 136 -27 156 -79 156h-247v-257h123c48 0 54 10 65 99h31v-238h-31c-10 93 -17 103 -65 103h-123v-275h247c60 0 67 21 88 176h32v-216h-547v40h110v208h-207z" />
    <glyph glyph-name="ae" unicode="&#xe6;" horiz-adv-x="735" 
d="M696 219h-312c1 -120 62 -184 142 -184c55 0 103 20 130 91h37c-28 -88 -91 -135 -177 -135c-82 0 -144 46 -172 106c-37 -71 -105 -105 -171 -105c-80 0 -125 45 -125 115c0 28 9 57 29 77c33 33 79 47 171 63c63 11 72 14 72 30v42c0 72 -38 97 -95 97
c-39 0 -75 -12 -94 -31c17 -10 27 -24 27 -44c0 -28 -20 -48 -47 -48c-28 0 -47 19 -47 51c0 58 82 106 168 106c73 0 119 -23 139 -68c37 44 88 70 145 70c126 0 183 -115 180 -233zM200 35c60 0 120 49 120 100v97c-9 -3 -29 -6 -52 -10c-107 -17 -150 -45 -150 -105
c0 -55 30 -82 82 -82zM514 416c-66 0 -118 -59 -128 -157h242c-7 101 -47 157 -114 157z" />
    <glyph glyph-name="AEacute" unicode="&#x1fc;" horiz-adv-x="932" 
d="M436 286v322h-5l-180 -322h185zM229 248l-116 -208h95v-40h-225v40h79l318 568h-106v40h590v-196h-32c-20 136 -27 156 -79 156h-247v-257h123c48 0 54 10 65 99h31v-238h-31c-10 93 -17 103 -65 103h-123v-275h247c60 0 67 21 88 176h32v-216h-547v40h110v208h-207z
M480 736l51 126c20 50 33 68 56 68c16 0 30 -12 30 -32c0 -22 -16 -41 -45 -79l-64 -83h-28z" />
    <glyph glyph-name="aeacute" unicode="&#x1fd;" horiz-adv-x="735" 
d="M696 219h-312c1 -120 62 -184 142 -184c55 0 103 20 130 91h37c-28 -88 -91 -135 -177 -135c-82 0 -144 46 -172 106c-37 -71 -105 -105 -171 -105c-80 0 -125 45 -125 115c0 28 9 57 29 77c33 33 79 47 171 63c63 11 72 14 72 30v42c0 72 -38 97 -95 97
c-39 0 -75 -12 -94 -31c17 -10 27 -24 27 -44c0 -28 -20 -48 -47 -48c-28 0 -47 19 -47 51c0 58 82 106 168 106c73 0 119 -23 139 -68c37 44 88 70 145 70c126 0 183 -115 180 -233zM200 35c60 0 120 49 120 100v97c-9 -3 -29 -6 -52 -10c-107 -17 -150 -45 -150 -105
c0 -55 30 -82 82 -82zM514 416c-66 0 -118 -59 -128 -157h242c-7 101 -47 157 -114 157zM377 523l51 126c20 50 33 68 56 68c16 0 30 -12 30 -32c0 -22 -16 -41 -45 -79l-64 -83h-28z" />
    <glyph glyph-name="Agrave" unicode="&#xc0;" horiz-adv-x="672" 
d="M514 40l-72 198h-245l-77 -198h92v-40h-209v40h69l245 613h45l228 -613h79v-40h-257v40h102zM323 559l-111 -283h216l-103 283h-2zM375 736h-28l-64 83c-29 38 -45 57 -45 79c0 20 14 32 30 32c23 0 36 -18 56 -68z" />
    <glyph glyph-name="agrave" unicode="&#xe0;" horiz-adv-x="477" 
d="M173 -8c-80 0 -125 45 -125 115c0 28 9 57 29 77c33 33 79 47 171 63c63 11 72 14 72 30v42c0 72 -38 97 -95 97c-39 0 -75 -12 -94 -31c17 -10 27 -24 27 -44c0 -28 -20 -48 -47 -48c-28 0 -47 19 -47 51c0 58 82 106 168 106c102 0 152 -44 152 -132v-237
c0 -38 14 -45 30 -45c19 0 31 13 44 42l25 -12c-22 -47 -39 -72 -84 -72c-41 0 -70 23 -72 84h-2c-34 -51 -89 -86 -152 -86zM200 35c60 0 120 49 120 100v97c-9 -3 -29 -6 -52 -10c-107 -17 -150 -45 -150 -105c0 -55 30 -82 82 -82zM275 523h-28l-64 83
c-29 38 -45 57 -45 79c0 20 14 32 30 32c23 0 36 -18 56 -68z" />
    <glyph glyph-name="Amacron" unicode="&#x100;" horiz-adv-x="672" 
d="M514 40l-72 198h-245l-77 -198h92v-40h-209v40h69l245 613h45l228 -613h79v-40h-257v40h102zM323 559l-111 -283h216l-103 283h-2zM215 755v53h251v-53h-251z" />
    <glyph glyph-name="amacron" unicode="&#x101;" horiz-adv-x="477" 
d="M173 -8c-80 0 -125 45 -125 115c0 28 9 57 29 77c33 33 79 47 171 63c63 11 72 14 72 30v42c0 72 -38 97 -95 97c-39 0 -75 -12 -94 -31c17 -10 27 -24 27 -44c0 -28 -20 -48 -47 -48c-28 0 -47 19 -47 51c0 58 82 106 168 106c102 0 152 -44 152 -132v-237
c0 -38 14 -45 30 -45c19 0 31 13 44 42l25 -12c-22 -47 -39 -72 -84 -72c-41 0 -70 23 -72 84h-2c-34 -51 -89 -86 -152 -86zM200 35c60 0 120 49 120 100v97c-9 -3 -29 -6 -52 -10c-107 -17 -150 -45 -150 -105c0 -55 30 -82 82 -82zM115 542v53h251v-53h-251z" />
    <glyph glyph-name="Aogonek" unicode="&#x104;" horiz-adv-x="672" 
d="M531 -233c-55 0 -91 34 -91 83c0 45 29 83 92 138l14 12h-134v40h102l-72 198h-245l-77 -198h92v-40h-209v40h69l245 613h45l228 -613h79v-40h-87l-17 -18c-55 -57 -73 -93 -73 -123c0 -34 23 -53 53 -53c25 0 45 13 59 23l16 -22c-24 -23 -54 -40 -89 -40zM323 559
l-111 -283h216l-103 283h-2z" />
    <glyph glyph-name="aogonek" unicode="&#x105;" horiz-adv-x="477" 
d="M384 -233c-55 0 -91 34 -91 83c0 45 28 83 99 144c-37 3 -63 26 -65 84h-2c-34 -51 -89 -86 -152 -86c-80 0 -125 45 -125 115c0 28 9 57 29 77c33 33 79 47 171 63c63 11 72 14 72 30v42c0 72 -38 97 -95 97c-39 0 -75 -12 -94 -31c17 -10 27 -24 27 -44
c0 -28 -20 -48 -47 -48c-28 0 -47 19 -47 51c0 58 82 106 168 106c102 0 152 -44 152 -132v-237c0 -38 14 -45 30 -45c19 0 31 13 44 42l25 -12c-13 -28 -19 -39 -47 -67s-91 -86 -91 -140c0 -34 23 -53 53 -53c25 0 45 13 59 23l16 -22c-24 -23 -54 -40 -89 -40zM200 35
c60 0 120 49 120 100v97c-9 -3 -29 -6 -52 -10c-107 -17 -150 -45 -150 -105c0 -55 30 -82 82 -82z" />
    <glyph glyph-name="Aring" unicode="&#xc5;" horiz-adv-x="672" 
d="M337 671c38 0 61 30 61 70s-23 70 -61 70s-61 -30 -61 -70s23 -70 61 -70zM428 276l-103 283h-2l-111 -283h216zM197 238l-77 -198h92v-40h-209v40h69l241 603c-53 10 -80 54 -80 98c0 50 35 100 104 100s104 -50 104 -100c0 -43 -25 -86 -76 -97l225 -604h79v-40h-257
v40h102l-72 198h-245z" />
    <glyph glyph-name="aring" unicode="&#xe5;" horiz-adv-x="477" 
d="M173 -8c-80 0 -125 45 -125 115c0 28 9 57 29 77c33 33 79 47 171 63c63 11 72 14 72 30v42c0 72 -38 97 -95 97c-39 0 -75 -12 -94 -31c17 -10 27 -24 27 -44c0 -28 -20 -48 -47 -48c-28 0 -47 19 -47 51c0 58 82 106 168 106c102 0 152 -44 152 -132v-237
c0 -38 14 -45 30 -45c19 0 31 13 44 42l25 -12c-22 -47 -39 -72 -84 -72c-41 0 -70 23 -72 84h-2c-34 -51 -89 -86 -152 -86zM200 35c60 0 120 49 120 100v97c-9 -3 -29 -6 -52 -10c-107 -17 -150 -45 -150 -105c0 -55 30 -82 82 -82zM240 517c-69 0 -105 50 -105 100
s36 100 105 100s105 -50 105 -100s-36 -100 -105 -100zM240 547c38 0 60 30 60 70s-22 70 -60 70s-60 -30 -60 -70s22 -70 60 -70z" />
    <glyph glyph-name="Aringacute" unicode="&#x1fa;" horiz-adv-x="672" 
d="M337 671c38 0 61 30 61 70s-23 70 -61 70s-61 -30 -61 -70s23 -70 61 -70zM428 276l-103 283h-2l-111 -283h216zM197 238l-77 -198h92v-40h-209v40h69l241 603c-53 10 -80 54 -80 98c0 50 35 100 104 100s104 -50 104 -100c0 -43 -25 -86 -76 -97l225 -604h79v-40h-257
v40h102l-72 198h-245zM315 885l51 126c20 50 33 68 56 68c16 0 30 -12 30 -32c0 -22 -16 -41 -45 -79l-64 -83h-28z" />
    <glyph glyph-name="aringacute" unicode="&#x1fb;" horiz-adv-x="477" 
d="M173 -8c-80 0 -125 45 -125 115c0 28 9 57 29 77c33 33 79 47 171 63c63 11 72 14 72 30v42c0 72 -38 97 -95 97c-39 0 -75 -12 -94 -31c17 -10 27 -24 27 -44c0 -28 -20 -48 -47 -48c-28 0 -47 19 -47 51c0 58 82 106 168 106c102 0 152 -44 152 -132v-237
c0 -38 14 -45 30 -45c19 0 31 13 44 42l25 -12c-22 -47 -39 -72 -84 -72c-41 0 -70 23 -72 84h-2c-34 -51 -89 -86 -152 -86zM200 35c60 0 120 49 120 100v97c-9 -3 -29 -6 -52 -10c-107 -17 -150 -45 -150 -105c0 -55 30 -82 82 -82zM240 517c-69 0 -105 50 -105 100
s36 100 105 100s105 -50 105 -100s-36 -100 -105 -100zM240 547c38 0 60 30 60 70s-22 70 -60 70s-60 -30 -60 -70s22 -70 60 -70zM215 762l51 126c20 50 33 68 56 68c16 0 30 -12 30 -32c0 -22 -16 -41 -45 -79l-64 -83h-28z" />
    <glyph glyph-name="Atilde" unicode="&#xc3;" horiz-adv-x="672" 
d="M514 40l-72 198h-245l-77 -198h92v-40h-209v40h69l245 613h45l228 -613h79v-40h-257v40h102zM323 559l-111 -283h216l-103 283h-2zM198 742c12 91 39 122 82 122c53 0 91 -66 128 -66c29 0 39 30 46 69h29c-12 -91 -39 -122 -82 -122c-53 0 -91 66 -128 66
c-29 0 -39 -30 -46 -69h-29z" />
    <glyph glyph-name="atilde" unicode="&#xe3;" horiz-adv-x="477" 
d="M173 -8c-80 0 -125 45 -125 115c0 28 9 57 29 77c33 33 79 47 171 63c63 11 72 14 72 30v42c0 72 -38 97 -95 97c-39 0 -75 -12 -94 -31c17 -10 27 -24 27 -44c0 -28 -20 -48 -47 -48c-28 0 -47 19 -47 51c0 58 82 106 168 106c102 0 152 -44 152 -132v-237
c0 -38 14 -45 30 -45c19 0 31 13 44 42l25 -12c-22 -47 -39 -72 -84 -72c-41 0 -70 23 -72 84h-2c-34 -51 -89 -86 -152 -86zM200 35c60 0 120 49 120 100v97c-9 -3 -29 -6 -52 -10c-107 -17 -150 -45 -150 -105c0 -55 30 -82 82 -82zM98 529c12 91 39 122 82 122
c53 0 91 -66 128 -66c29 0 39 30 46 69h29c-12 -91 -39 -122 -82 -122c-53 0 -91 66 -128 66c-29 0 -39 -30 -46 -69h-29z" />
    <glyph glyph-name="Cacute" unicode="&#x106;" horiz-adv-x="674" 
d="M347 -16c-173 0 -293 134 -293 339c0 198 129 340 298 340c91 0 151 -35 191 -81l20 78h40v-238h-34c-38 125 -100 195 -219 195c-132 0 -220 -115 -220 -288c0 -194 99 -298 230 -298c116 0 193 83 213 218h45c-22 -171 -117 -265 -271 -265zM330 736l51 126
c20 50 33 68 56 68c16 0 30 -12 30 -32c0 -22 -16 -41 -45 -79l-64 -83h-28z" />
    <glyph glyph-name="cacute" unicode="&#x107;" horiz-adv-x="464" 
d="M240 -9c-113 0 -199 91 -199 220c0 142 85 241 219 241c97 0 166 -70 166 -126c0 -33 -21 -60 -52 -60c-30 0 -49 23 -49 49c0 22 12 41 38 50c-18 25 -52 51 -105 51c-91 0 -148 -81 -148 -197c0 -114 57 -185 144 -185c70 0 111 39 139 108h38
c-27 -100 -96 -151 -191 -151zM240 523l51 126c20 50 33 68 56 68c16 0 30 -12 30 -32c0 -22 -16 -41 -45 -79l-64 -83h-28z" />
    <glyph glyph-name="Ccaron" unicode="&#x10c;" horiz-adv-x="674" 
d="M347 -16c-173 0 -293 134 -293 339c0 198 129 340 298 340c91 0 151 -35 191 -81l20 78h40v-238h-34c-38 125 -100 195 -219 195c-132 0 -220 -115 -220 -288c0 -194 99 -298 230 -298c116 0 193 83 213 218h45c-22 -171 -117 -265 -271 -265zM333 746l-106 179h31
l92 -108l92 108h31l-106 -179h-34z" />
    <glyph glyph-name="ccaron" unicode="&#x10d;" horiz-adv-x="464" 
d="M240 -9c-113 0 -199 91 -199 220c0 142 85 241 219 241c97 0 166 -70 166 -126c0 -33 -21 -60 -52 -60c-30 0 -49 23 -49 49c0 22 12 41 38 50c-18 25 -52 51 -105 51c-91 0 -148 -81 -148 -197c0 -114 57 -185 144 -185c70 0 111 39 139 108h38
c-27 -100 -96 -151 -191 -151zM243 533l-106 179h31l92 -108l92 108h31l-106 -179h-34z" />
    <glyph glyph-name="Ccedilla" unicode="&#xc7;" horiz-adv-x="674" 
d="M341 -233c-34 0 -68 11 -97 30l16 28c25 -15 49 -24 78 -24c33 0 58 17 58 48c0 33 -33 48 -70 48c-18 0 -31 -3 -41 -6l-13 17l75 76c-173 0 -293 134 -293 339c0 198 129 340 298 340c91 0 151 -35 191 -81l20 78h40v-238h-34c-38 125 -100 195 -219 195
c-132 0 -220 -115 -220 -288c0 -194 99 -298 230 -298c116 0 193 83 213 218h45c-20 -154 -99 -245 -226 -262l-57 -56l1 -2c64 0 108 -30 108 -78c0 -50 -42 -84 -103 -84z" />
    <glyph glyph-name="ccedilla" unicode="&#xe7;" horiz-adv-x="464" 
d="M240 -9c-113 0 -199 91 -199 220c0 142 85 241 219 241c97 0 166 -70 166 -126c0 -33 -21 -60 -52 -60c-30 0 -49 23 -49 49c0 22 12 41 38 50c-18 25 -52 51 -105 51c-91 0 -148 -81 -148 -197c0 -114 57 -185 144 -185c70 0 111 39 139 108h38
c-22 -80 -70 -129 -137 -145l-67 -66l1 -2c64 0 108 -30 108 -78c0 -50 -42 -84 -103 -84c-34 0 -68 11 -97 30l16 28c25 -15 49 -24 78 -24c33 0 58 17 58 48c0 33 -33 48 -70 48c-18 0 -31 -3 -41 -6l-13 17l82 83h-6z" />
    <glyph glyph-name="Cdotaccent" unicode="&#x10a;" horiz-adv-x="674" 
d="M347 -16c-173 0 -293 134 -293 339c0 198 129 340 298 340c91 0 151 -35 191 -81l20 78h40v-238h-34c-38 125 -100 195 -219 195c-132 0 -220 -115 -220 -288c0 -194 99 -298 230 -298c116 0 193 83 213 218h45c-22 -171 -117 -265 -271 -265zM351 740
c-26 0 -47 18 -47 47c0 27 20 48 47 48c23 0 45 -19 45 -47c0 -29 -21 -48 -45 -48z" />
    <glyph glyph-name="cdotaccent" unicode="&#x10b;" horiz-adv-x="464" 
d="M240 -9c-113 0 -199 91 -199 220c0 142 85 241 219 241c97 0 166 -70 166 -126c0 -33 -21 -60 -52 -60c-30 0 -49 23 -49 49c0 22 12 41 38 50c-18 25 -52 51 -105 51c-91 0 -148 -81 -148 -197c0 -114 57 -185 144 -185c70 0 111 39 139 108h38
c-27 -100 -96 -151 -191 -151zM261 527c-26 0 -47 18 -47 47c0 27 20 48 47 48c23 0 45 -19 45 -47c0 -29 -21 -48 -45 -48z" />
    <glyph glyph-name="Dcaron" unicode="&#x10e;" horiz-adv-x="690" 
d="M34 0v40h110v568h-110v40h259c235 0 345 -125 345 -314s-104 -334 -341 -334h-263zM214 40h87c181 0 261 102 261 294c0 170 -81 274 -266 274h-82v-568zM338 746l-106 179h31l92 -108l92 108h31l-106 -179h-34z" />
    <glyph glyph-name="dcaron" unicode="&#x10f;" horiz-adv-x="522" 
d="M210 -8c-45 0 -77 16 -103 41c-43 42 -64 105 -64 183s25 147 68 190c28 28 63 46 110 46c58 0 112 -34 139 -93v289h-76v39h140v-647h76v-40h-138v101c-36 -72 -91 -109 -152 -109zM230 36c75 0 134 82 134 197c0 116 -63 175 -130 175c-72 0 -122 -70 -122 -189
c0 -117 49 -183 118 -183zM523 539h-24l-2 145c-1 55 19 67 36 67c14 0 29 -10 29 -36c0 -16 -4 -36 -11 -65z" />
    <glyph glyph-name="Dcroat" unicode="&#x110;" horiz-adv-x="690" 
d="M34 0v40h110v280h-110v40h110v248h-110v40h259c235 0 345 -125 345 -314s-104 -334 -341 -334h-263zM214 40h87c181 0 261 102 261 294c0 170 -81 274 -266 274h-82v-248h148v-40h-148v-280z" />
    <glyph glyph-name="dcroat" unicode="&#x111;" horiz-adv-x="522" 
d="M210 -8c-45 0 -77 16 -103 41c-43 42 -64 105 -64 183s25 147 68 190c28 28 63 46 110 46c58 0 112 -34 139 -93v156h-129v34h129v99h-76v39h140v-138h76v-34h-76v-475h76v-40h-138v101c-36 -72 -91 -109 -152 -109zM230 36c75 0 134 82 134 197c0 116 -63 175 -130 175
c-72 0 -122 -70 -122 -189c0 -117 49 -183 118 -183z" />
    <glyph glyph-name="Eacute" unicode="&#xc9;" horiz-adv-x="640" 
d="M34 0v40h110v568h-110v40h538v-196h-32c-20 136 -27 156 -79 156h-247v-257h123c48 0 54 10 65 99h31v-238h-31c-10 93 -17 103 -65 103h-123v-275h247c60 0 67 21 88 176h32v-216h-547zM330 736l51 126c20 50 33 68 56 68c16 0 30 -12 30 -32c0 -22 -16 -41 -45 -79
l-64 -83h-28z" />
    <glyph glyph-name="eacute" unicode="&#xe9;" horiz-adv-x="465" 
d="M426 219h-316c1 -120 62 -184 146 -184c55 0 103 20 130 91h37c-28 -88 -91 -135 -177 -135c-123 0 -205 91 -205 226c0 137 93 235 205 235c126 0 183 -115 180 -233zM244 416c-70 0 -122 -59 -132 -157h246c-7 101 -47 157 -114 157zM230 523l51 126c20 50 33 68 56 68
c16 0 30 -12 30 -32c0 -22 -16 -41 -45 -79l-64 -83h-28z" />
    <glyph glyph-name="Ebreve" unicode="&#x114;" horiz-adv-x="640" 
d="M34 0v40h110v568h-110v40h538v-196h-32c-20 136 -27 156 -79 156h-247v-257h123c48 0 54 10 65 99h31v-238h-31c-10 93 -17 103 -65 103h-123v-275h247c60 0 67 21 88 176h32v-216h-547zM350 743c-70 0 -118 54 -122 143h24c16 -55 46 -89 98 -89s82 34 98 89h24
c-4 -89 -52 -143 -122 -143z" />
    <glyph glyph-name="ebreve" unicode="&#x115;" horiz-adv-x="465" 
d="M426 219h-316c1 -120 62 -184 146 -184c55 0 103 20 130 91h37c-28 -88 -91 -135 -177 -135c-123 0 -205 91 -205 226c0 137 93 235 205 235c126 0 183 -115 180 -233zM244 416c-70 0 -122 -59 -132 -157h246c-7 101 -47 157 -114 157zM250 530c-70 0 -118 54 -122 143
h24c16 -55 46 -89 98 -89s82 34 98 89h24c-4 -89 -52 -143 -122 -143z" />
    <glyph glyph-name="Ecaron" unicode="&#x11a;" horiz-adv-x="640" 
d="M34 0v40h110v568h-110v40h538v-196h-32c-20 136 -27 156 -79 156h-247v-257h123c48 0 54 10 65 99h31v-238h-31c-10 93 -17 103 -65 103h-123v-275h247c60 0 67 21 88 176h32v-216h-547zM333 746l-106 179h31l92 -108l92 108h31l-106 -179h-34z" />
    <glyph glyph-name="ecaron" unicode="&#x11b;" horiz-adv-x="465" 
d="M426 219h-316c1 -120 62 -184 146 -184c55 0 103 20 130 91h37c-28 -88 -91 -135 -177 -135c-123 0 -205 91 -205 226c0 137 93 235 205 235c126 0 183 -115 180 -233zM244 416c-70 0 -122 -59 -132 -157h246c-7 101 -47 157 -114 157zM233 533l-106 179h31l92 -108
l92 108h31l-106 -179h-34z" />
    <glyph glyph-name="Ecircumflex" unicode="&#xca;" horiz-adv-x="640" 
d="M34 0v40h110v568h-110v40h538v-196h-32c-20 136 -27 156 -79 156h-247v-257h123c48 0 54 10 65 99h31v-238h-31c-10 93 -17 103 -65 103h-123v-275h247c60 0 67 21 88 176h32v-216h-547zM227 737l106 179h34l106 -179h-31l-92 108l-92 -108h-31z" />
    <glyph glyph-name="ecircumflex" unicode="&#xea;" horiz-adv-x="465" 
d="M426 219h-316c1 -120 62 -184 146 -184c55 0 103 20 130 91h37c-28 -88 -91 -135 -177 -135c-123 0 -205 91 -205 226c0 137 93 235 205 235c126 0 183 -115 180 -233zM244 416c-70 0 -122 -59 -132 -157h246c-7 101 -47 157 -114 157zM127 524l106 179h34l106 -179h-31
l-92 108l-92 -108h-31z" />
    <glyph glyph-name="Edieresis" unicode="&#xcb;" horiz-adv-x="640" 
d="M34 0v40h110v568h-110v40h538v-196h-32c-20 136 -27 156 -79 156h-247v-257h123c48 0 54 10 65 99h31v-238h-31c-10 93 -17 103 -65 103h-123v-275h247c60 0 67 21 88 176h32v-216h-547zM433 759c-25 0 -45 21 -45 48s20 48 45 48s45 -21 45 -48s-20 -48 -45 -48z
M267 759c-25 0 -45 21 -45 48s20 48 45 48s45 -21 45 -48s-20 -48 -45 -48z" />
    <glyph glyph-name="edieresis" unicode="&#xeb;" horiz-adv-x="465" 
d="M426 219h-316c1 -120 62 -184 146 -184c55 0 103 20 130 91h37c-28 -88 -91 -135 -177 -135c-123 0 -205 91 -205 226c0 137 93 235 205 235c126 0 183 -115 180 -233zM244 416c-70 0 -122 -59 -132 -157h246c-7 101 -47 157 -114 157zM333 546c-25 0 -45 21 -45 48
s20 48 45 48s45 -21 45 -48s-20 -48 -45 -48zM167 546c-25 0 -45 21 -45 48s20 48 45 48s45 -21 45 -48s-20 -48 -45 -48z" />
    <glyph glyph-name="Edotaccent" unicode="&#x116;" horiz-adv-x="640" 
d="M34 0v40h110v568h-110v40h538v-196h-32c-20 136 -27 156 -79 156h-247v-257h123c48 0 54 10 65 99h31v-238h-31c-10 93 -17 103 -65 103h-123v-275h247c60 0 67 21 88 176h32v-216h-547zM351 740c-26 0 -47 18 -47 47c0 27 20 48 47 48c23 0 45 -19 45 -47
c0 -29 -21 -48 -45 -48z" />
    <glyph glyph-name="edotaccent" unicode="&#x117;" horiz-adv-x="465" 
d="M426 219h-316c1 -120 62 -184 146 -184c55 0 103 20 130 91h37c-28 -88 -91 -135 -177 -135c-123 0 -205 91 -205 226c0 137 93 235 205 235c126 0 183 -115 180 -233zM244 416c-70 0 -122 -59 -132 -157h246c-7 101 -47 157 -114 157zM251 527c-26 0 -47 18 -47 47
c0 27 20 48 47 48c23 0 45 -19 45 -47c0 -29 -21 -48 -45 -48z" />
    <glyph glyph-name="Egrave" unicode="&#xc8;" horiz-adv-x="640" 
d="M34 0v40h110v568h-110v40h538v-196h-32c-20 136 -27 156 -79 156h-247v-257h123c48 0 54 10 65 99h31v-238h-31c-10 93 -17 103 -65 103h-123v-275h247c60 0 67 21 88 176h32v-216h-547zM385 736h-28l-64 83c-29 38 -45 57 -45 79c0 20 14 32 30 32c23 0 36 -18 56 -68z
" />
    <glyph glyph-name="egrave" unicode="&#xe8;" horiz-adv-x="465" 
d="M426 219h-316c1 -120 62 -184 146 -184c55 0 103 20 130 91h37c-28 -88 -91 -135 -177 -135c-123 0 -205 91 -205 226c0 137 93 235 205 235c126 0 183 -115 180 -233zM244 416c-70 0 -122 -59 -132 -157h246c-7 101 -47 157 -114 157zM285 523h-28l-64 83
c-29 38 -45 57 -45 79c0 20 14 32 30 32c23 0 36 -18 56 -68z" />
    <glyph glyph-name="Emacron" unicode="&#x112;" horiz-adv-x="640" 
d="M34 0v40h110v568h-110v40h538v-196h-32c-20 136 -27 156 -79 156h-247v-257h123c48 0 54 10 65 99h31v-238h-31c-10 93 -17 103 -65 103h-123v-275h247c60 0 67 21 88 176h32v-216h-547zM225 755v53h251v-53h-251z" />
    <glyph glyph-name="emacron" unicode="&#x113;" horiz-adv-x="465" 
d="M426 219h-316c1 -120 62 -184 146 -184c55 0 103 20 130 91h37c-28 -88 -91 -135 -177 -135c-123 0 -205 91 -205 226c0 137 93 235 205 235c126 0 183 -115 180 -233zM244 416c-70 0 -122 -59 -132 -157h246c-7 101 -47 157 -114 157zM125 542v53h251v-53h-251z" />
    <glyph glyph-name="Eogonek" unicode="&#x118;" horiz-adv-x="640" 
d="M34 0v40h110v568h-110v40h538v-196h-32c-20 136 -27 156 -79 156h-247v-257h123c48 0 54 10 65 99h31v-238h-31c-10 93 -17 103 -65 103h-123v-275h247c60 0 67 21 88 176h32v-216h-27l-17 -18c-55 -57 -73 -93 -73 -123c0 -34 23 -53 53 -53c25 0 45 13 59 23l16 -22
c-24 -23 -54 -40 -89 -40c-55 0 -91 34 -91 83c0 45 29 83 92 138l14 12h-484z" />
    <glyph glyph-name="eogonek" unicode="&#x119;" horiz-adv-x="465" 
d="M426 219h-316c1 -120 62 -184 146 -184c55 0 103 20 130 91h37c-17 -52 -41 -78 -61 -101l-40 -44c-53 -59 -70 -92 -70 -122c0 -34 23 -53 53 -53c25 0 45 13 59 23l16 -22c-24 -23 -54 -40 -89 -40c-55 0 -91 34 -91 83c0 45 30 83 91 138l12 12c-23 -7 -39 -9 -57 -9
c-123 0 -205 91 -205 226c0 137 93 235 205 235c126 0 183 -115 180 -233zM244 416c-70 0 -122 -59 -132 -157h246c-7 101 -47 157 -114 157z" />
    <glyph glyph-name="Eth" unicode="&#xd0;" horiz-adv-x="690" 
d="M34 0v40h110v280h-110v40h110v248h-110v40h259c235 0 345 -125 345 -314s-104 -334 -341 -334h-263zM214 40h87c181 0 261 102 261 294c0 170 -81 274 -266 274h-82v-248h148v-40h-148v-280z" />
    <glyph glyph-name="eth" unicode="&#xf0;" horiz-adv-x="504" 
d="M440 616l-98 -44c66 -81 115 -178 115 -293c0 -179 -87 -288 -214 -288c-113 0 -202 84 -202 223c0 135 87 238 204 238c68 0 114 -43 134 -74c-12 60 -43 118 -85 173l-112 -49l-15 33l104 45c-23 27 -47 52 -72 77l53 9c22 -21 44 -42 65 -65l109 47zM250 27
c73 0 138 60 138 195c0 134 -72 194 -142 194c-71 0 -136 -63 -136 -196c0 -134 69 -193 140 -193z" />
    <glyph glyph-name="Gbreve" unicode="&#x11e;" horiz-adv-x="705" 
d="M531 91c-38 -70 -108 -107 -188 -107c-179 0 -289 151 -289 342c0 183 119 337 291 337c72 0 141 -31 185 -81l20 78h40v-232h-34c-36 118 -104 189 -209 189c-141 0 -217 -119 -217 -285c0 -186 85 -300 221 -300c50 0 93 19 121 47c40 40 55 94 55 166v28h-123v40h284
v-40h-91v-280h-36zM345 743c-70 0 -118 54 -122 143h24c16 -55 46 -89 98 -89s82 34 98 89h24c-4 -89 -52 -143 -122 -143z" />
    <glyph glyph-name="gbreve" unicode="&#x11f;" horiz-adv-x="463" 
d="M388 305c0 -92 -67 -145 -167 -145c-22 0 -44 3 -62 3c-33 0 -58 -19 -58 -41c0 -28 38 -40 90 -40h117c84 0 120 -34 120 -93c0 -80 -85 -145 -216 -145c-119 0 -187 45 -187 104c0 45 39 79 95 91v2c-54 15 -74 35 -74 67s32 60 85 72c-49 26 -78 62 -78 123
c0 93 77 146 167 146c25 0 52 -6 77 -16c31 55 70 90 114 90c30 0 52 -19 52 -48c0 -24 -16 -44 -42 -44c-23 0 -37 17 -37 39c0 3 0 6 1 10c-18 -2 -44 -23 -64 -60c39 -24 67 -63 67 -115zM225 192c58 0 94 40 94 112c0 64 -37 114 -101 114c-56 0 -96 -38 -96 -114
c0 -75 44 -112 103 -112zM215 -122c96 0 156 40 156 94c0 38 -26 57 -72 57h-112c-61 0 -99 -28 -99 -78c0 -44 42 -73 127 -73zM225 530c-70 0 -118 54 -122 143h24c16 -55 46 -89 98 -89s82 34 98 89h24c-4 -89 -52 -143 -122 -143z" />
    <glyph glyph-name="Gcommaaccent" unicode="&#x122;" horiz-adv-x="705" 
d="M531 91c-38 -70 -108 -107 -188 -107c-179 0 -289 151 -289 342c0 183 119 337 291 337c72 0 141 -31 185 -81l20 78h40v-232h-34c-36 118 -104 189 -209 189c-141 0 -217 -119 -217 -285c0 -186 85 -300 221 -300c50 0 93 19 121 47c40 40 55 94 55 166v28h-123v40h284
v-40h-91v-280h-36zM301 -274l-12 26c48 25 68 51 74 87l-2 2c-6 -4 -12 -6 -21 -6c-22 0 -39 18 -39 42s19 46 46 46c33 0 51 -25 51 -62c0 -59 -32 -106 -97 -135z" />
    <glyph glyph-name="gcommaaccent" unicode="&#x123;" horiz-adv-x="463" 
d="M388 305c0 -92 -67 -145 -167 -145c-22 0 -44 3 -62 3c-33 0 -58 -19 -58 -41c0 -28 38 -40 90 -40h117c84 0 120 -34 120 -93c0 -80 -85 -145 -216 -145c-119 0 -187 45 -187 104c0 45 39 79 95 91v2c-54 15 -74 35 -74 67s32 60 85 72c-49 26 -78 62 -78 123
c0 93 77 146 167 146c25 0 52 -6 77 -16c31 55 70 90 114 90c30 0 52 -19 52 -48c0 -24 -16 -44 -42 -44c-23 0 -37 17 -37 39c0 3 0 6 1 10c-18 -2 -44 -23 -64 -60c39 -24 67 -63 67 -115zM225 192c58 0 94 40 94 112c0 64 -37 114 -101 114c-56 0 -96 -38 -96 -114
c0 -75 44 -112 103 -112zM215 -122c96 0 156 40 156 94c0 38 -26 57 -72 57h-112c-61 0 -99 -28 -99 -78c0 -44 42 -73 127 -73zM273 724l12 -26c-48 -25 -68 -51 -74 -87l2 -2c6 4 12 6 21 6c22 0 39 -18 39 -42s-19 -46 -46 -46c-33 0 -51 25 -51 62c0 59 32 106 97 135z
" />
    <glyph glyph-name="Gdotaccent" unicode="&#x120;" horiz-adv-x="705" 
d="M531 91c-38 -70 -108 -107 -188 -107c-179 0 -289 151 -289 342c0 183 119 337 291 337c72 0 141 -31 185 -81l20 78h40v-232h-34c-36 118 -104 189 -209 189c-141 0 -217 -119 -217 -285c0 -186 85 -300 221 -300c50 0 93 19 121 47c40 40 55 94 55 166v28h-123v40h284
v-40h-91v-280h-36zM346 740c-26 0 -47 18 -47 47c0 27 20 48 47 48c23 0 45 -19 45 -47c0 -29 -21 -48 -45 -48z" />
    <glyph glyph-name="gdotaccent" unicode="&#x121;" horiz-adv-x="463" 
d="M388 305c0 -92 -67 -145 -167 -145c-22 0 -44 3 -62 3c-33 0 -58 -19 -58 -41c0 -28 38 -40 90 -40h117c84 0 120 -34 120 -93c0 -80 -85 -145 -216 -145c-119 0 -187 45 -187 104c0 45 39 79 95 91v2c-54 15 -74 35 -74 67s32 60 85 72c-49 26 -78 62 -78 123
c0 93 77 146 167 146c25 0 52 -6 77 -16c31 55 70 90 114 90c30 0 52 -19 52 -48c0 -24 -16 -44 -42 -44c-23 0 -37 17 -37 39c0 3 0 6 1 10c-18 -2 -44 -23 -64 -60c39 -24 67 -63 67 -115zM225 192c58 0 94 40 94 112c0 64 -37 114 -101 114c-56 0 -96 -38 -96 -114
c0 -75 44 -112 103 -112zM215 -122c96 0 156 40 156 94c0 38 -26 57 -72 57h-112c-61 0 -99 -28 -99 -78c0 -44 42 -73 127 -73zM226 527c-26 0 -47 18 -47 47c0 27 20 48 47 48c23 0 45 -19 45 -47c0 -29 -21 -48 -45 -48z" />
    <glyph glyph-name="Hbar" unicode="&#x126;" horiz-adv-x="758" 
d="M34 458v36h110v114h-110v40h280v-40h-100v-114h330v114h-100v40h280v-40h-110v-114h110v-36h-110v-418h110v-40h-280v40h100v266h-330v-266h100v-40h-280v40h110v418h-110zM214 344h330v114h-330v-114z" />
    <glyph glyph-name="hbar" unicode="&#x127;" horiz-adv-x="544" 
d="M22 0v40h76v475h-76v34h76v99h-76v39h140v-138h129v-34h-129v-186c53 95 116 123 168 123c78 0 122 -48 122 -142v-270h76v-40h-210v40h70v234c0 49 -6 83 -26 103c-16 17 -37 22 -60 22c-75 0 -140 -87 -140 -144v-215h70v-40h-210z" />
    <glyph glyph-name="Iacute" unicode="&#xcd;" horiz-adv-x="366" 
d="M38 0v40h110v568h-110v40h290v-40h-110v-568h110v-40h-290zM163 736l51 126c20 50 33 68 56 68c16 0 30 -12 30 -32c0 -22 -16 -41 -45 -79l-64 -83h-28z" />
    <glyph glyph-name="iacute" unicode="&#xed;" horiz-adv-x="287" 
d="M33 0v40h86v363h-86v40h150v-403h86v-40h-236zM120 523l51 126c20 50 33 68 56 68c16 0 30 -12 30 -32c0 -22 -16 -41 -45 -79l-64 -83h-28z" />
    <glyph glyph-name="Ibreve" unicode="&#x12c;" horiz-adv-x="366" 
d="M38 0v40h110v568h-110v40h290v-40h-110v-568h110v-40h-290zM183 743c-70 0 -118 54 -122 143h24c16 -55 46 -89 98 -89s82 34 98 89h24c-4 -89 -52 -143 -122 -143z" />
    <glyph glyph-name="ibreve" unicode="&#x12d;" horiz-adv-x="287" 
d="M33 0v40h86v363h-86v40h150v-403h86v-40h-236zM140 530c-70 0 -118 54 -122 143h24c16 -55 46 -89 98 -89s82 34 98 89h24c-4 -89 -52 -143 -122 -143z" />
    <glyph glyph-name="Icircumflex" unicode="&#xce;" horiz-adv-x="366" 
d="M38 0v40h110v568h-110v40h290v-40h-110v-568h110v-40h-290zM60 737l106 179h34l106 -179h-31l-92 108l-92 -108h-31z" />
    <glyph glyph-name="icircumflex" unicode="&#xee;" horiz-adv-x="287" 
d="M33 0v40h86v363h-86v40h150v-403h86v-40h-236zM17 524l106 179h34l106 -179h-31l-92 108l-92 -108h-31z" />
    <glyph glyph-name="Idieresis" unicode="&#xcf;" horiz-adv-x="366" 
d="M38 0v40h110v568h-110v40h290v-40h-110v-568h110v-40h-290zM266 759c-25 0 -45 21 -45 48s20 48 45 48s45 -21 45 -48s-20 -48 -45 -48zM100 759c-25 0 -45 21 -45 48s20 48 45 48s45 -21 45 -48s-20 -48 -45 -48z" />
    <glyph glyph-name="idieresis" unicode="&#xef;" horiz-adv-x="287" 
d="M33 0v40h86v363h-86v40h150v-403h86v-40h-236zM223 546c-25 0 -45 21 -45 48s20 48 45 48s45 -21 45 -48s-20 -48 -45 -48zM57 546c-25 0 -45 21 -45 48s20 48 45 48s45 -21 45 -48s-20 -48 -45 -48z" />
    <glyph glyph-name="Idotaccent" unicode="&#x130;" horiz-adv-x="366" 
d="M38 0v40h110v568h-110v40h290v-40h-110v-568h110v-40h-290zM184 740c-26 0 -47 18 -47 47c0 27 20 48 47 48c23 0 45 -19 45 -47c0 -29 -21 -48 -45 -48z" />
    <glyph glyph-name="dotlessi" unicode="&#x131;" horiz-adv-x="287" 
d="M33 0v40h86v363h-86v40h150v-403h86v-40h-236z" />
    <glyph glyph-name="Igrave" unicode="&#xcc;" horiz-adv-x="366" 
d="M38 0v40h110v568h-110v40h290v-40h-110v-568h110v-40h-290zM218 736h-28l-64 83c-29 38 -45 57 -45 79c0 20 14 32 30 32c23 0 36 -18 56 -68z" />
    <glyph glyph-name="igrave" unicode="&#xec;" horiz-adv-x="287" 
d="M33 0v40h86v363h-86v40h150v-403h86v-40h-236zM175 523h-28l-64 83c-29 38 -45 57 -45 79c0 20 14 32 30 32c23 0 36 -18 56 -68z" />
    <glyph glyph-name="Imacron" unicode="&#x12a;" horiz-adv-x="366" 
d="M38 0v40h110v568h-110v40h290v-40h-110v-568h110v-40h-290zM58 755v53h251v-53h-251z" />
    <glyph glyph-name="imacron" unicode="&#x12b;" horiz-adv-x="287" 
d="M33 0v40h86v363h-86v40h150v-403h86v-40h-236zM15 542v53h251v-53h-251z" />
    <glyph glyph-name="Iogonek" unicode="&#x12e;" horiz-adv-x="366" 
d="M38 0v40h110v568h-110v40h290v-40h-110v-568h110v-40h-96l-17 -18c-55 -57 -73 -93 -73 -123c0 -34 23 -53 53 -53c25 0 45 13 59 23l16 -22c-24 -23 -54 -40 -89 -40c-55 0 -91 34 -91 83c0 45 29 83 92 138l14 12h-158z" />
    <glyph glyph-name="iogonek" unicode="&#x12f;" horiz-adv-x="287" 
d="M33 0v40h86v363h-86v40h150v-403h86v-40h-75l-17 -18c-55 -57 -73 -93 -73 -123c0 -34 23 -53 53 -53c25 0 45 13 59 23l16 -22c-24 -23 -54 -40 -89 -40c-55 0 -91 34 -91 83c0 45 29 83 92 138l14 12h-125zM145 550c-28 0 -49 19 -49 49c0 28 20 50 49 50
c25 0 47 -20 47 -49c0 -30 -21 -50 -47 -50z" />
    <glyph glyph-name="Kcommaaccent" unicode="&#x136;" horiz-adv-x="712" 
d="M214 227v-187h100v-40h-280v40h110v568h-110v40h280v-40h-100v-325l322 325h-92v40h241v-40h-85l-232 -229l254 -339h78v-40h-259v40h94l-215 291zM306 -274l-12 26c48 25 68 51 74 87l-2 2c-6 -4 -12 -6 -21 -6c-22 0 -39 18 -39 42s19 46 46 46c33 0 51 -25 51 -62
c0 -59 -32 -106 -97 -135z" />
    <glyph glyph-name="kcommaaccent" unicode="&#x137;" horiz-adv-x="507" 
d="M410 403l-124 -129l154 -234h59v-40h-195v39h63l-125 193l-80 -83v-109h67v-40h-207v40h76v608h-76v39h140v-491l196 208h-75v39h194v-40h-67zM201 -274l-12 26c48 25 68 51 74 87l-2 2c-6 -4 -12 -6 -21 -6c-22 0 -39 18 -39 42s19 46 46 46c33 0 51 -25 51 -62
c0 -59 -32 -106 -97 -135z" />
    <glyph glyph-name="Lacute" unicode="&#x139;" horiz-adv-x="603" 
d="M34 648h301v-40h-121v-568h244c41 0 48 43 73 205h32v-245h-529v40h110v568h-110v40zM165 736l51 126c20 50 33 68 56 68c16 0 30 -12 30 -32c0 -22 -16 -41 -45 -79l-64 -83h-28z" />
    <glyph glyph-name="lacute" unicode="&#x13a;" horiz-adv-x="272" 
d="M18 0v40h86v608h-86v39h150v-647h86v-40h-236zM110 767l51 126c20 50 33 68 56 68c16 0 30 -12 30 -32c0 -22 -16 -41 -45 -79l-64 -83h-28z" />
    <glyph glyph-name="Lcaron" unicode="&#x13d;" horiz-adv-x="603" 
d="M34 648h301v-40h-121v-568h244c41 0 48 43 73 205h32v-245h-529v40h110v568h-110v40zM429 500h-24l-2 145c-1 55 19 67 36 67c14 0 29 -10 29 -36c0 -16 -4 -36 -11 -65z" />
    <glyph glyph-name="lcaron" unicode="&#x13e;" horiz-adv-x="272" 
d="M18 0v40h86v608h-86v39h150v-647h86v-40h-236zM267 539h-24l-2 145c-1 55 19 67 36 67c14 0 29 -10 29 -36c0 -16 -4 -36 -11 -65z" />
    <glyph glyph-name="Lcommaaccent" unicode="&#x13b;" horiz-adv-x="603" 
d="M34 648h301v-40h-121v-568h244c41 0 48 43 73 205h32v-245h-529v40h110v568h-110v40zM271 -274l-12 26c48 25 68 51 74 87l-2 2c-6 -4 -12 -6 -21 -6c-22 0 -39 18 -39 42s19 46 46 46c33 0 51 -25 51 -62c0 -59 -32 -106 -97 -135z" />
    <glyph glyph-name="lcommaaccent" unicode="&#x13c;" horiz-adv-x="272" 
d="M18 0v40h86v608h-86v39h150v-647h86v-40h-236zM86 -274l-12 26c48 25 68 51 74 87l-2 2c-6 -4 -12 -6 -21 -6c-22 0 -39 18 -39 42s19 46 46 46c33 0 51 -25 51 -62c0 -59 -32 -106 -97 -135z" />
    <glyph glyph-name="Ldot" unicode="&#x13f;" horiz-adv-x="603" 
d="M34 648h301v-40h-121v-568h244c41 0 48 43 73 195h32v-235h-529v40h110v568h-110v40zM475 313c-26 0 -47 18 -47 47c0 27 20 48 47 48c23 0 45 -19 45 -47c0 -29 -21 -48 -45 -48z" />
    <glyph glyph-name="ldot" unicode="&#x140;" horiz-adv-x="362" 
d="M318 301c-26 0 -47 18 -47 47c0 27 20 48 47 48c23 0 45 -19 45 -47c0 -29 -21 -48 -45 -48zM18 0v40h86v608h-86v39h150v-647h86v-40h-236z" />
    <glyph glyph-name="Lslash" unicode="&#x141;" horiz-adv-x="603" 
d="M34 648h301v-40h-121v-255l188 63v-38l-188 -64v-274h244c41 0 48 43 73 205h32v-245h-529v40h110v251l-86 -29v40l86 28v278h-110v40z" />
    <glyph glyph-name="lslash" unicode="&#x142;" horiz-adv-x="288" 
d="M26 0v40h86v276l-82 -27v36l82 27v296h-86v39h150v-313l88 30v-36l-88 -30v-298h86v-40h-236z" />
    <glyph glyph-name="Nacute" unicode="&#x143;" horiz-adv-x="747" 
d="M587 -16l-400 579h-2v-523h97v-40h-248v40h105v568h-105v40h178l365 -529h2v489h-99v40h243v-40h-98v-624h-38zM360 736l51 126c20 50 33 68 56 68c16 0 30 -12 30 -32c0 -22 -16 -41 -45 -79l-64 -83h-28z" />
    <glyph glyph-name="nacute" unicode="&#x144;" horiz-adv-x="556" 
d="M34 0v40h76v363h-76v40h138v-115c55 96 118 124 170 124c78 0 122 -48 122 -142v-270h75v-40h-209v40h70v234c0 49 -6 83 -26 103c-16 17 -37 22 -60 22c-75 0 -140 -87 -140 -144v-215h70v-40h-210zM267 523l51 126c20 50 33 68 56 68c16 0 30 -12 30 -32
c0 -22 -16 -41 -45 -79l-64 -83h-28z" />
    <glyph glyph-name="Ncaron" unicode="&#x147;" horiz-adv-x="747" 
d="M587 -16l-400 579h-2v-523h97v-40h-248v40h105v568h-105v40h178l365 -529h2v489h-99v40h243v-40h-98v-624h-38zM363 746l-106 179h31l92 -108l92 108h31l-106 -179h-34z" />
    <glyph glyph-name="ncaron" unicode="&#x148;" horiz-adv-x="556" 
d="M34 0v40h76v363h-76v40h138v-115c55 96 118 124 170 124c78 0 122 -48 122 -142v-270h75v-40h-209v40h70v234c0 49 -6 83 -26 103c-16 17 -37 22 -60 22c-75 0 -140 -87 -140 -144v-215h70v-40h-210zM270 533l-106 179h31l92 -108l92 108h31l-106 -179h-34z" />
    <glyph glyph-name="Ncommaaccent" unicode="&#x145;" horiz-adv-x="747" 
d="M587 -16l-400 579h-2v-523h97v-40h-248v40h105v568h-105v40h178l365 -529h2v489h-99v40h243v-40h-98v-624h-38zM336 -274l-12 26c48 25 68 51 74 87l-2 2c-6 -4 -12 -6 -21 -6c-22 0 -39 18 -39 42s19 46 46 46c33 0 51 -25 51 -62c0 -59 -32 -106 -97 -135z" />
    <glyph glyph-name="ncommaaccent" unicode="&#x146;" horiz-adv-x="556" 
d="M34 0v40h76v363h-76v40h138v-115c55 96 118 124 170 124c78 0 122 -48 122 -142v-270h75v-40h-209v40h70v234c0 49 -6 83 -26 103c-16 17 -37 22 -60 22c-75 0 -140 -87 -140 -144v-215h70v-40h-210zM243 -274l-12 26c48 25 68 51 74 87l-2 2c-6 -4 -12 -6 -21 -6
c-22 0 -39 18 -39 42s19 46 46 46c33 0 51 -25 51 -62c0 -59 -32 -106 -97 -135z" />
    <glyph glyph-name="Ntilde" unicode="&#xd1;" horiz-adv-x="747" 
d="M587 -16l-400 579h-2v-523h97v-40h-248v40h105v568h-105v40h178l365 -529h2v489h-99v40h243v-40h-98v-624h-38zM238 742c12 91 39 122 82 122c53 0 91 -66 128 -66c29 0 39 30 46 69h29c-12 -91 -39 -122 -82 -122c-53 0 -91 66 -128 66c-29 0 -39 -30 -46 -69h-29z" />
    <glyph glyph-name="ntilde" unicode="&#xf1;" horiz-adv-x="556" 
d="M34 0v40h76v363h-76v40h138v-115c55 96 118 124 170 124c78 0 122 -48 122 -142v-270h75v-40h-209v40h70v234c0 49 -6 83 -26 103c-16 17 -37 22 -60 22c-75 0 -140 -87 -140 -144v-215h70v-40h-210zM145 529c12 91 39 122 82 122c53 0 91 -66 128 -66c29 0 39 30 46 69
h29c-12 -91 -39 -122 -82 -122c-53 0 -91 66 -128 66c-29 0 -39 -30 -46 -69h-29z" />
    <glyph glyph-name="Oacute" unicode="&#xd3;" 
d="M352 -16c-168 0 -298 139 -298 340c0 196 135 338 298 338c168 0 298 -137 298 -339c0 -197 -135 -339 -298 -339zM352 27c135 0 222 116 222 296c0 178 -87 296 -222 296s-222 -118 -222 -295c0 -178 87 -297 222 -297zM332 736l51 126c20 50 33 68 56 68
c16 0 30 -12 30 -32c0 -22 -16 -41 -45 -79l-64 -83h-28z" />
    <glyph glyph-name="oacute" unicode="&#xf3;" horiz-adv-x="498" 
d="M249 -9c-117 0 -208 88 -208 226c0 140 96 235 208 235c117 0 208 -89 208 -227c0 -140 -96 -234 -208 -234zM252 27c71 0 136 62 136 195c0 134 -72 194 -142 194c-71 0 -136 -63 -136 -196c0 -134 72 -193 142 -193zM229 523l51 126c20 50 33 68 56 68
c16 0 30 -12 30 -32c0 -22 -16 -41 -45 -79l-64 -83h-28z" />
    <glyph glyph-name="Obreve" unicode="&#x14e;" 
d="M352 -16c-168 0 -298 139 -298 340c0 196 135 338 298 338c168 0 298 -137 298 -339c0 -197 -135 -339 -298 -339zM352 27c135 0 222 116 222 296c0 178 -87 296 -222 296s-222 -118 -222 -295c0 -178 87 -297 222 -297zM352 743c-70 0 -118 54 -122 143h24
c16 -55 46 -89 98 -89s82 34 98 89h24c-4 -89 -52 -143 -122 -143z" />
    <glyph glyph-name="obreve" unicode="&#x14f;" horiz-adv-x="498" 
d="M249 -9c-117 0 -208 88 -208 226c0 140 96 235 208 235c117 0 208 -89 208 -227c0 -140 -96 -234 -208 -234zM252 27c71 0 136 62 136 195c0 134 -72 194 -142 194c-71 0 -136 -63 -136 -196c0 -134 72 -193 142 -193zM249 530c-70 0 -118 54 -122 143h24
c16 -55 46 -89 98 -89s82 34 98 89h24c-4 -89 -52 -143 -122 -143z" />
    <glyph glyph-name="Ocircumflex" unicode="&#xd4;" 
d="M352 -16c-168 0 -298 139 -298 340c0 196 135 338 298 338c168 0 298 -137 298 -339c0 -197 -135 -339 -298 -339zM352 27c135 0 222 116 222 296c0 178 -87 296 -222 296s-222 -118 -222 -295c0 -178 87 -297 222 -297zM229 737l106 179h34l106 -179h-31l-92 108
l-92 -108h-31z" />
    <glyph glyph-name="ocircumflex" unicode="&#xf4;" horiz-adv-x="498" 
d="M249 -9c-117 0 -208 88 -208 226c0 140 96 235 208 235c117 0 208 -89 208 -227c0 -140 -96 -234 -208 -234zM252 27c71 0 136 62 136 195c0 134 -72 194 -142 194c-71 0 -136 -63 -136 -196c0 -134 72 -193 142 -193zM126 524l106 179h34l106 -179h-31l-92 108l-92 -108
h-31z" />
    <glyph glyph-name="Odieresis" unicode="&#xd6;" 
d="M352 -16c-168 0 -298 139 -298 340c0 196 135 338 298 338c168 0 298 -137 298 -339c0 -197 -135 -339 -298 -339zM352 27c135 0 222 116 222 296c0 178 -87 296 -222 296s-222 -118 -222 -295c0 -178 87 -297 222 -297zM435 759c-25 0 -45 21 -45 48s20 48 45 48
s45 -21 45 -48s-20 -48 -45 -48zM269 759c-25 0 -45 21 -45 48s20 48 45 48s45 -21 45 -48s-20 -48 -45 -48z" />
    <glyph glyph-name="odieresis" unicode="&#xf6;" horiz-adv-x="498" 
d="M249 -9c-117 0 -208 88 -208 226c0 140 96 235 208 235c117 0 208 -89 208 -227c0 -140 -96 -234 -208 -234zM252 27c71 0 136 62 136 195c0 134 -72 194 -142 194c-71 0 -136 -63 -136 -196c0 -134 72 -193 142 -193zM332 546c-25 0 -45 21 -45 48s20 48 45 48
s45 -21 45 -48s-20 -48 -45 -48zM166 546c-25 0 -45 21 -45 48s20 48 45 48s45 -21 45 -48s-20 -48 -45 -48z" />
    <glyph glyph-name="OE" unicode="&#x152;" horiz-adv-x="972" 
d="M397 0c-235 0 -345 125 -345 314s104 334 341 334h511v-196h-32c-20 136 -27 156 -79 156h-247v-257h123c48 0 54 10 65 99h31v-238h-31c-10 93 -17 103 -65 103h-123v-275h247c60 0 67 21 88 176h32v-216h-516zM394 40h82v568h-87c-181 0 -261 -102 -261 -294
c0 -170 81 -274 266 -274z" />
    <glyph glyph-name="oe" unicode="&#x153;" horiz-adv-x="810" 
d="M771 219h-316c1 -120 62 -184 146 -184c55 0 103 20 130 91h37c-28 -88 -91 -135 -177 -135c-79 0 -140 40 -173 106c-36 -66 -99 -106 -169 -106c-117 0 -208 88 -208 226c0 140 96 235 208 235c75 0 139 -39 174 -105c36 65 98 105 168 105c126 0 183 -115 180 -233z
M252 27c71 0 136 62 136 195c0 134 -72 194 -142 194c-71 0 -136 -63 -136 -196c0 -134 72 -193 142 -193zM589 416c-70 0 -122 -59 -132 -157h246c-7 101 -47 157 -114 157z" />
    <glyph glyph-name="Ograve" unicode="&#xd2;" 
d="M352 -16c-168 0 -298 139 -298 340c0 196 135 338 298 338c168 0 298 -137 298 -339c0 -197 -135 -339 -298 -339zM352 27c135 0 222 116 222 296c0 178 -87 296 -222 296s-222 -118 -222 -295c0 -178 87 -297 222 -297zM387 736h-28l-64 83c-29 38 -45 57 -45 79
c0 20 14 32 30 32c23 0 36 -18 56 -68z" />
    <glyph glyph-name="ograve" unicode="&#xf2;" horiz-adv-x="498" 
d="M249 -9c-117 0 -208 88 -208 226c0 140 96 235 208 235c117 0 208 -89 208 -227c0 -140 -96 -234 -208 -234zM252 27c71 0 136 62 136 195c0 134 -72 194 -142 194c-71 0 -136 -63 -136 -196c0 -134 72 -193 142 -193zM284 523h-28l-64 83c-29 38 -45 57 -45 79
c0 20 14 32 30 32c23 0 36 -18 56 -68z" />
    <glyph glyph-name="Ohungarumlaut" unicode="&#x150;" 
d="M352 -16c-168 0 -298 139 -298 340c0 196 135 338 298 338c168 0 298 -137 298 -339c0 -197 -135 -339 -298 -339zM352 27c135 0 222 116 222 296c0 178 -87 296 -222 296s-222 -118 -222 -295c0 -178 87 -297 222 -297zM409 736l57 126c22 49 33 68 56 68
c15 0 30 -12 30 -32c0 -19 -16 -40 -46 -77l-69 -85h-28zM269 736l57 126c22 49 33 68 56 68c15 0 30 -12 30 -32c0 -19 -16 -40 -46 -77l-69 -85h-28z" />
    <glyph glyph-name="ohungarumlaut" unicode="&#x151;" horiz-adv-x="498" 
d="M249 -9c-117 0 -208 88 -208 226c0 140 96 235 208 235c117 0 208 -89 208 -227c0 -140 -96 -234 -208 -234zM252 27c71 0 136 62 136 195c0 134 -72 194 -142 194c-71 0 -136 -63 -136 -196c0 -134 72 -193 142 -193zM306 523l57 126c22 49 33 68 56 68
c15 0 30 -12 30 -32c0 -19 -16 -40 -46 -77l-69 -85h-28zM166 523l57 126c22 49 33 68 56 68c15 0 30 -12 30 -32c0 -19 -16 -40 -46 -77l-69 -85h-28z" />
    <glyph glyph-name="Omacron" unicode="&#x14c;" 
d="M352 -16c-168 0 -298 139 -298 340c0 196 135 338 298 338c168 0 298 -137 298 -339c0 -197 -135 -339 -298 -339zM352 27c135 0 222 116 222 296c0 178 -87 296 -222 296s-222 -118 -222 -295c0 -178 87 -297 222 -297zM227 755v53h251v-53h-251z" />
    <glyph glyph-name="omacron" unicode="&#x14d;" horiz-adv-x="498" 
d="M249 -9c-117 0 -208 88 -208 226c0 140 96 235 208 235c117 0 208 -89 208 -227c0 -140 -96 -234 -208 -234zM252 27c71 0 136 62 136 195c0 134 -72 194 -142 194c-71 0 -136 -63 -136 -196c0 -134 72 -193 142 -193zM124 542v53h251v-53h-251z" />
    <glyph glyph-name="Oslash" unicode="&#xd8;" 
d="M109 -34h-49l82 109c-55 60 -88 147 -88 249c0 196 135 338 298 338c69 0 133 -24 183 -66l60 84h49l-83 -109c55 -60 89 -146 89 -248c0 -197 -135 -339 -298 -339c-70 0 -133 24 -183 66zM352 27c135 0 222 116 222 296c0 82 -19 151 -52 202l-318 -433
c38 -42 88 -65 148 -65zM130 324c0 -83 18 -152 52 -203l317 433c-37 41 -87 65 -147 65c-135 0 -222 -118 -222 -295z" />
    <glyph glyph-name="oslash" unicode="&#xf8;" horiz-adv-x="498" 
d="M85 -27h-42l58 79c-37 39 -60 95 -60 165c0 140 96 235 208 235c46 0 88 -14 122 -39l42 57h42l-59 -79c38 -40 61 -97 61 -166c0 -140 -96 -234 -208 -234c-46 0 -89 14 -123 39zM110 220c0 -52 11 -92 28 -123l202 276c-27 29 -61 43 -94 43c-71 0 -136 -63 -136 -196z
M252 27c71 0 136 62 136 195c0 51 -11 92 -28 123l-202 -276c26 -29 60 -42 94 -42z" />
    <glyph glyph-name="Oslashacute" unicode="&#x1fe;" 
d="M109 -34h-49l82 109c-55 60 -88 147 -88 249c0 196 135 338 298 338c69 0 133 -24 183 -66l60 84h49l-83 -109c55 -60 89 -146 89 -248c0 -197 -135 -339 -298 -339c-70 0 -133 24 -183 66zM352 27c135 0 222 116 222 296c0 82 -19 151 -52 202l-318 -433
c38 -42 88 -65 148 -65zM130 324c0 -83 18 -152 52 -203l317 433c-37 41 -87 65 -147 65c-135 0 -222 -118 -222 -295zM332 736l51 126c20 50 33 68 56 68c16 0 30 -12 30 -32c0 -22 -16 -41 -45 -79l-64 -83h-28z" />
    <glyph glyph-name="oslashacute" unicode="&#x1ff;" horiz-adv-x="498" 
d="M85 -27h-42l58 79c-37 39 -60 95 -60 165c0 140 96 235 208 235c46 0 88 -14 122 -39l42 57h42l-59 -79c38 -40 61 -97 61 -166c0 -140 -96 -234 -208 -234c-46 0 -89 14 -123 39zM110 220c0 -52 11 -92 28 -123l202 276c-27 29 -61 43 -94 43c-71 0 -136 -63 -136 -196z
M252 27c71 0 136 62 136 195c0 51 -11 92 -28 123l-202 -276c26 -29 60 -42 94 -42zM229 523l51 126c20 50 33 68 56 68c16 0 30 -12 30 -32c0 -22 -16 -41 -45 -79l-64 -83h-28z" />
    <glyph glyph-name="Otilde" unicode="&#xd5;" 
d="M352 -16c-168 0 -298 139 -298 340c0 196 135 338 298 338c168 0 298 -137 298 -339c0 -197 -135 -339 -298 -339zM352 27c135 0 222 116 222 296c0 178 -87 296 -222 296s-222 -118 -222 -295c0 -178 87 -297 222 -297zM210 742c12 91 39 122 82 122
c53 0 91 -66 128 -66c29 0 39 30 46 69h29c-12 -91 -39 -122 -82 -122c-53 0 -91 66 -128 66c-29 0 -39 -30 -46 -69h-29z" />
    <glyph glyph-name="otilde" unicode="&#xf5;" horiz-adv-x="498" 
d="M249 -9c-117 0 -208 88 -208 226c0 140 96 235 208 235c117 0 208 -89 208 -227c0 -140 -96 -234 -208 -234zM252 27c71 0 136 62 136 195c0 134 -72 194 -142 194c-71 0 -136 -63 -136 -196c0 -134 72 -193 142 -193zM107 529c12 91 39 122 82 122c53 0 91 -66 128 -66
c29 0 39 30 46 69h29c-12 -91 -39 -122 -82 -122c-53 0 -91 66 -128 66c-29 0 -39 -30 -46 -69h-29z" />
    <glyph glyph-name="Racute" unicode="&#x154;" horiz-adv-x="670" 
d="M214 296v-256h111v-40h-291v40h110v568h-110v40h317c145 0 224 -68 224 -168c0 -68 -42 -140 -150 -161v-2c86 -23 118 -64 124 -143l7 -90c3 -32 16 -46 38 -46c23 0 37 16 51 51l25 -13c-20 -55 -47 -87 -99 -87c-53 0 -90 26 -92 116l-2 79c-2 80 -32 112 -131 112
h-132zM214 333h127c111 0 156 61 156 151c0 81 -46 124 -143 124h-140v-275zM325 736l51 126c20 50 33 68 56 68c16 0 30 -12 30 -32c0 -22 -16 -41 -45 -79l-64 -83h-28z" />
    <glyph glyph-name="racute" unicode="&#x155;" horiz-adv-x="391" 
d="M34 0v40h76v363h-76v40h138v-105c34 75 86 112 138 112c42 0 66 -29 66 -63c0 -28 -20 -52 -49 -52c-26 0 -46 19 -46 46c0 8 2 15 5 22c-53 6 -100 -66 -112 -103v-260h90v-40h-230zM197 523l51 126c20 50 33 68 56 68c16 0 30 -12 30 -32c0 -22 -16 -41 -45 -79
l-64 -83h-28z" />
    <glyph glyph-name="Rcaron" unicode="&#x158;" horiz-adv-x="670" 
d="M214 296v-256h111v-40h-291v40h110v568h-110v40h317c145 0 224 -68 224 -168c0 -68 -42 -140 -150 -161v-2c86 -23 118 -64 124 -143l7 -90c3 -32 16 -46 38 -46c23 0 37 16 51 51l25 -13c-20 -55 -47 -87 -99 -87c-53 0 -90 26 -92 116l-2 79c-2 80 -32 112 -131 112
h-132zM214 333h127c111 0 156 61 156 151c0 81 -46 124 -143 124h-140v-275zM328 746l-106 179h31l92 -108l92 108h31l-106 -179h-34z" />
    <glyph glyph-name="rcaron" unicode="&#x159;" horiz-adv-x="391" 
d="M34 0v40h76v363h-76v40h138v-105c34 75 86 112 138 112c42 0 66 -29 66 -63c0 -28 -20 -52 -49 -52c-26 0 -46 19 -46 46c0 8 2 15 5 22c-53 6 -100 -66 -112 -103v-260h90v-40h-230zM200 533l-106 179h31l92 -108l92 108h31l-106 -179h-34z" />
    <glyph glyph-name="Rcommaaccent" unicode="&#x156;" horiz-adv-x="670" 
d="M214 296v-256h111v-40h-291v40h110v568h-110v40h317c145 0 224 -68 224 -168c0 -68 -42 -140 -150 -161v-2c86 -23 118 -64 124 -143l7 -90c3 -32 16 -46 38 -46c23 0 37 16 51 51l25 -13c-20 -55 -47 -87 -99 -87c-53 0 -90 26 -92 116l-2 79c-2 80 -32 112 -131 112
h-132zM214 333h127c111 0 156 61 156 151c0 81 -46 124 -143 124h-140v-275zM301 -274l-12 26c48 25 68 51 74 87l-2 2c-6 -4 -12 -6 -21 -6c-22 0 -39 18 -39 42s19 46 46 46c33 0 51 -25 51 -62c0 -59 -32 -106 -97 -135z" />
    <glyph glyph-name="rcommaaccent" unicode="&#x157;" horiz-adv-x="391" 
d="M34 0v40h76v363h-76v40h138v-105c34 75 86 112 138 112c42 0 66 -29 66 -63c0 -28 -20 -52 -49 -52c-26 0 -46 19 -46 46c0 8 2 15 5 22c-53 6 -100 -66 -112 -103v-260h90v-40h-230zM103 -274l-12 26c48 25 68 51 74 87l-2 2c-6 -4 -12 -6 -21 -6c-22 0 -39 18 -39 42
s19 46 46 46c33 0 51 -25 51 -62c0 -59 -32 -106 -97 -135z" />
    <glyph glyph-name="Sacute" unicode="&#x15a;" horiz-adv-x="561" 
d="M56 -13v218h33c55 -125 133 -184 231 -184c75 0 133 43 133 129c0 94 -65 117 -179 146c-107 27 -209 61 -209 184c0 107 76 182 195 182c73 0 132 -32 171 -75l20 72h35v-206h-33c-44 126 -121 173 -198 173c-67 0 -128 -42 -128 -124c0 -95 72 -116 166 -141
c123 -33 222 -59 222 -183c0 -114 -83 -194 -200 -194c-86 0 -149 34 -202 89l-22 -86h-35zM265 736l51 126c20 50 33 68 56 68c16 0 30 -12 30 -32c0 -22 -16 -41 -45 -79l-64 -83h-28z" />
    <glyph glyph-name="sacute" unicode="&#x15b;" horiz-adv-x="425" 
d="M45 -9v168h33c24 -84 75 -133 153 -133c56 0 97 29 97 75c0 49 -34 69 -123 94c-110 31 -152 66 -152 131c0 66 59 126 146 126c54 0 98 -20 121 -55l12 55h32v-152h-31c-32 78 -64 117 -134 117c-48 0 -88 -27 -88 -70c0 -45 36 -69 119 -92c112 -32 153 -60 153 -133
c0 -67 -57 -131 -149 -131c-65 0 -115 26 -146 65l-11 -65h-32zM200 523l51 126c20 50 33 68 56 68c16 0 30 -12 30 -32c0 -22 -16 -41 -45 -79l-64 -83h-28z" />
    <glyph glyph-name="Scaron" unicode="&#x160;" horiz-adv-x="561" 
d="M56 -13v218h33c55 -125 133 -184 231 -184c75 0 133 43 133 129c0 94 -65 117 -179 146c-107 27 -209 61 -209 184c0 107 76 182 195 182c73 0 132 -32 171 -75l20 72h35v-206h-33c-44 126 -121 173 -198 173c-67 0 -128 -42 -128 -124c0 -95 72 -116 166 -141
c123 -33 222 -59 222 -183c0 -114 -83 -194 -200 -194c-86 0 -149 34 -202 89l-22 -86h-35zM268 746l-106 179h31l92 -108l92 108h31l-106 -179h-34z" />
    <glyph glyph-name="scaron" unicode="&#x161;" horiz-adv-x="425" 
d="M45 -9v168h33c24 -84 75 -133 153 -133c56 0 97 29 97 75c0 49 -34 69 -123 94c-110 31 -152 66 -152 131c0 66 59 126 146 126c54 0 98 -20 121 -55l12 55h32v-152h-31c-32 78 -64 117 -134 117c-48 0 -88 -27 -88 -70c0 -45 36 -69 119 -92c112 -32 153 -60 153 -133
c0 -67 -57 -131 -149 -131c-65 0 -115 26 -146 65l-11 -65h-32zM203 533l-106 179h31l92 -108l92 108h31l-106 -179h-34z" />
    <glyph glyph-name="Scedilla" unicode="&#x15e;" horiz-adv-x="561" 
d="M286 -233c-34 0 -68 11 -97 30l16 28c25 -15 49 -24 78 -24c33 0 58 17 58 48c0 33 -33 48 -70 48c-18 0 -31 -3 -41 -6l-13 17l76 77c-75 6 -132 38 -180 88l-22 -86h-35v218h33c55 -125 133 -184 231 -184c75 0 133 43 133 129c0 94 -65 117 -179 146
c-107 27 -209 61 -209 184c0 107 76 182 195 182c73 0 132 -32 171 -75l20 72h35v-206h-33c-44 126 -121 173 -198 173c-67 0 -128 -42 -128 -124c0 -95 72 -116 166 -141c123 -33 222 -59 222 -183c0 -108 -74 -185 -181 -193l-54 -54l1 -2c64 0 108 -30 108 -78
c0 -50 -42 -84 -103 -84z" />
    <glyph glyph-name="scedilla" unicode="&#x15f;" horiz-adv-x="425" 
d="M202 -233c-34 0 -68 11 -97 30l16 28c25 -15 49 -24 78 -24c33 0 58 17 58 48c0 33 -33 48 -70 48c-18 0 -31 -3 -41 -6l-13 17l83 84c-56 4 -100 28 -128 64l-11 -65h-32v168h33c24 -84 75 -133 153 -133c56 0 97 29 97 75c0 49 -34 69 -123 94
c-110 31 -152 66 -152 131c0 66 59 126 146 126c54 0 98 -20 121 -55l12 55h32v-152h-31c-32 78 -64 117 -134 117c-48 0 -88 -27 -88 -70c0 -45 36 -69 119 -92c112 -32 153 -60 153 -133c0 -61 -47 -120 -125 -129l-62 -62l1 -2c64 0 108 -30 108 -78
c0 -50 -42 -84 -103 -84z" />
    <glyph glyph-name="Scommaaccent" unicode="&#x218;" horiz-adv-x="561" 
d="M56 -13v218h33c55 -125 133 -184 231 -184c75 0 133 43 133 129c0 94 -65 117 -179 146c-107 27 -209 61 -209 184c0 107 76 182 195 182c73 0 132 -32 171 -75l20 72h35v-206h-33c-44 126 -121 173 -198 173c-67 0 -128 -42 -128 -124c0 -95 72 -116 166 -141
c123 -33 222 -59 222 -183c0 -114 -83 -194 -200 -194c-86 0 -149 34 -202 89l-22 -86h-35zM241 -274l-12 26c48 25 68 51 74 87l-2 2c-6 -4 -12 -6 -21 -6c-22 0 -39 18 -39 42s19 46 46 46c33 0 51 -25 51 -62c0 -59 -32 -106 -97 -135z" />
    <glyph glyph-name="scommaaccent" unicode="&#x219;" horiz-adv-x="425" 
d="M45 -9v168h33c24 -84 75 -133 153 -133c56 0 97 29 97 75c0 49 -34 69 -123 94c-110 31 -152 66 -152 131c0 66 59 126 146 126c54 0 98 -20 121 -55l12 55h32v-152h-31c-32 78 -64 117 -134 117c-48 0 -88 -27 -88 -70c0 -45 36 -69 119 -92c112 -32 153 -60 153 -133
c0 -67 -57 -131 -149 -131c-65 0 -115 26 -146 65l-11 -65h-32zM176 -274l-12 26c48 25 68 51 74 87l-2 2c-6 -4 -12 -6 -21 -6c-22 0 -39 18 -39 42s19 46 46 46c33 0 51 -25 51 -62c0 -59 -32 -106 -97 -135z" />
    <glyph glyph-name="Tcaron" unicode="&#x164;" horiz-adv-x="664" 
d="M183 0v40h114v568h-124c-67 0 -70 -30 -91 -180h-31v220h562v-220h-31c-21 150 -24 180 -91 180h-124v-568h114v-40h-298zM315 746l-106 179h31l92 -108l92 108h31l-106 -179h-34z" />
    <glyph glyph-name="tcaron" unicode="&#x165;" horiz-adv-x="341" 
d="M100 567l64 10v-134h145v-40h-145v-294c0 -45 20 -72 58 -72s60 25 78 81l29 -10c-24 -88 -66 -117 -121 -117c-72 0 -108 45 -108 122v290h-92v40h92v124zM261 539h-24l-2 145c-1 55 19 67 36 67c14 0 29 -10 29 -36c0 -16 -4 -36 -11 -65z" />
    <glyph glyph-name="Tcommaaccent" unicode="&#x162;" horiz-adv-x="664" 
d="M183 0v40h114v568h-124c-67 0 -70 -30 -91 -180h-31v220h562v-220h-31c-21 150 -24 180 -91 180h-124v-568h114v-40h-298zM288 -274l-12 26c48 25 68 51 74 87l-2 2c-6 -4 -12 -6 -21 -6c-22 0 -39 18 -39 42s19 46 46 46c33 0 51 -25 51 -62c0 -59 -32 -106 -97 -135z
" />
    <glyph glyph-name="tcommaaccent" unicode="&#x163;" horiz-adv-x="341" 
d="M100 567l64 10v-134h145v-40h-145v-294c0 -45 20 -72 58 -72s60 25 78 81l29 -10c-24 -88 -66 -117 -121 -117c-72 0 -108 45 -108 122v290h-92v40h92v124zM131 -274l-12 26c48 25 68 51 74 87l-2 2c-6 -4 -12 -6 -21 -6c-22 0 -39 18 -39 42s19 46 46 46
c33 0 51 -25 51 -62c0 -59 -32 -106 -97 -135z" />
    <glyph glyph-name="Thorn" unicode="&#xde;" horiz-adv-x="600" 
d="M34 0v40h110v568h-110v40h290v-40h-110v-82h101c193 0 248 -86 248 -180c0 -108 -87 -190 -248 -190h-101v-116h110v-40h-290zM214 196h102c116 0 171 63 171 152c0 82 -46 138 -168 138h-105v-290z" />
    <glyph glyph-name="thorn" unicode="&#xfe;" horiz-adv-x="507" 
d="M8 -147v40h76v754h-76v40h140v-344c36 72 91 109 152 109c43 0 74 -13 104 -43c40 -40 60 -106 60 -179c0 -74 -25 -142 -66 -183c-30 -30 -65 -47 -112 -47c-67 0 -115 44 -138 96v-203h98v-40h-238zM275 44c68 0 120 62 120 186c0 132 -57 178 -115 178
c-75 0 -134 -83 -134 -191c0 -102 56 -173 129 -173z" />
    <glyph glyph-name="Uacute" unicode="&#xda;" horiz-adv-x="720" 
d="M358 -16c-164 0 -239 88 -239 212v412h-95v40h268v-40h-103v-399c0 -126 67 -176 189 -176c53 0 104 18 134 47c33 33 49 78 49 152v376h-99v40h234v-40h-89v-396c0 -132 -81 -228 -249 -228zM355 736l51 126c20 50 33 68 56 68c16 0 30 -12 30 -32
c0 -22 -16 -41 -45 -79l-64 -83h-28z" />
    <glyph glyph-name="uacute" unicode="&#xfa;" horiz-adv-x="540" 
d="M213 -9c-76 0 -121 48 -121 142v270h-75v40h139v-274c0 -49 5 -84 26 -105c15 -16 37 -20 59 -20c74 0 137 87 137 144v215h-79v40h143v-403h76v-40h-138v115c-54 -96 -116 -124 -167 -124zM248 523l51 126c20 50 33 68 56 68c16 0 30 -12 30 -32c0 -22 -16 -41 -45 -79
l-64 -83h-28z" />
    <glyph glyph-name="Ubreve" unicode="&#x16c;" horiz-adv-x="720" 
d="M358 -16c-164 0 -239 88 -239 212v412h-95v40h268v-40h-103v-399c0 -126 67 -176 189 -176c53 0 104 18 134 47c33 33 49 78 49 152v376h-99v40h234v-40h-89v-396c0 -132 -81 -228 -249 -228zM375 743c-70 0 -118 54 -122 143h24c16 -55 46 -89 98 -89s82 34 98 89h24
c-4 -89 -52 -143 -122 -143z" />
    <glyph glyph-name="ubreve" unicode="&#x16d;" horiz-adv-x="540" 
d="M213 -9c-76 0 -121 48 -121 142v270h-75v40h139v-274c0 -49 5 -84 26 -105c15 -16 37 -20 59 -20c74 0 137 87 137 144v215h-79v40h143v-403h76v-40h-138v115c-54 -96 -116 -124 -167 -124zM268 530c-70 0 -118 54 -122 143h24c16 -55 46 -89 98 -89s82 34 98 89h24
c-4 -89 -52 -143 -122 -143z" />
    <glyph glyph-name="Ucircumflex" unicode="&#xdb;" horiz-adv-x="720" 
d="M358 -16c-164 0 -239 88 -239 212v412h-95v40h268v-40h-103v-399c0 -126 67 -176 189 -176c53 0 104 18 134 47c33 33 49 78 49 152v376h-99v40h234v-40h-89v-396c0 -132 -81 -228 -249 -228zM252 737l106 179h34l106 -179h-31l-92 108l-92 -108h-31z" />
    <glyph glyph-name="ucircumflex" unicode="&#xfb;" horiz-adv-x="540" 
d="M213 -9c-76 0 -121 48 -121 142v270h-75v40h139v-274c0 -49 5 -84 26 -105c15 -16 37 -20 59 -20c74 0 137 87 137 144v215h-79v40h143v-403h76v-40h-138v115c-54 -96 -116 -124 -167 -124zM145 524l106 179h34l106 -179h-31l-92 108l-92 -108h-31z" />
    <glyph glyph-name="Udieresis" unicode="&#xdc;" horiz-adv-x="720" 
d="M358 -16c-164 0 -239 88 -239 212v412h-95v40h268v-40h-103v-399c0 -126 67 -176 189 -176c53 0 104 18 134 47c33 33 49 78 49 152v376h-99v40h234v-40h-89v-396c0 -132 -81 -228 -249 -228zM458 759c-25 0 -45 21 -45 48s20 48 45 48s45 -21 45 -48s-20 -48 -45 -48z
M292 759c-25 0 -45 21 -45 48s20 48 45 48s45 -21 45 -48s-20 -48 -45 -48z" />
    <glyph glyph-name="udieresis" unicode="&#xfc;" horiz-adv-x="540" 
d="M213 -9c-76 0 -121 48 -121 142v270h-75v40h139v-274c0 -49 5 -84 26 -105c15 -16 37 -20 59 -20c74 0 137 87 137 144v215h-79v40h143v-403h76v-40h-138v115c-54 -96 -116 -124 -167 -124zM351 546c-25 0 -45 21 -45 48s20 48 45 48s45 -21 45 -48s-20 -48 -45 -48z
M185 546c-25 0 -45 21 -45 48s20 48 45 48s45 -21 45 -48s-20 -48 -45 -48z" />
    <glyph glyph-name="Ugrave" unicode="&#xd9;" horiz-adv-x="720" 
d="M358 -16c-164 0 -239 88 -239 212v412h-95v40h268v-40h-103v-399c0 -126 67 -176 189 -176c53 0 104 18 134 47c33 33 49 78 49 152v376h-99v40h234v-40h-89v-396c0 -132 -81 -228 -249 -228zM410 736h-28l-64 83c-29 38 -45 57 -45 79c0 20 14 32 30 32
c23 0 36 -18 56 -68z" />
    <glyph glyph-name="ugrave" unicode="&#xf9;" horiz-adv-x="540" 
d="M213 -9c-76 0 -121 48 -121 142v270h-75v40h139v-274c0 -49 5 -84 26 -105c15 -16 37 -20 59 -20c74 0 137 87 137 144v215h-79v40h143v-403h76v-40h-138v115c-54 -96 -116 -124 -167 -124zM303 523h-28l-64 83c-29 38 -45 57 -45 79c0 20 14 32 30 32
c23 0 36 -18 56 -68z" />
    <glyph glyph-name="Uhungarumlaut" unicode="&#x170;" horiz-adv-x="720" 
d="M358 -16c-164 0 -239 88 -239 212v412h-95v40h268v-40h-103v-399c0 -126 67 -176 189 -176c53 0 104 18 134 47c33 33 49 78 49 152v376h-99v40h234v-40h-89v-396c0 -132 -81 -228 -249 -228zM432 736l57 126c22 49 33 68 56 68c15 0 30 -12 30 -32
c0 -19 -16 -40 -46 -77l-69 -85h-28zM292 736l57 126c22 49 33 68 56 68c15 0 30 -12 30 -32c0 -19 -16 -40 -46 -77l-69 -85h-28z" />
    <glyph glyph-name="uhungarumlaut" unicode="&#x171;" horiz-adv-x="540" 
d="M213 -9c-76 0 -121 48 -121 142v270h-75v40h139v-274c0 -49 5 -84 26 -105c15 -16 37 -20 59 -20c74 0 137 87 137 144v215h-79v40h143v-403h76v-40h-138v115c-54 -96 -116 -124 -167 -124zM325 523l57 126c22 49 33 68 56 68c15 0 30 -12 30 -32c0 -19 -16 -40 -46 -77
l-69 -85h-28zM185 523l57 126c22 49 33 68 56 68c15 0 30 -12 30 -32c0 -19 -16 -40 -46 -77l-69 -85h-28z" />
    <glyph glyph-name="Umacron" unicode="&#x16a;" horiz-adv-x="720" 
d="M358 -16c-164 0 -239 88 -239 212v412h-95v40h268v-40h-103v-399c0 -126 67 -176 189 -176c53 0 104 18 134 47c33 33 49 78 49 152v376h-99v40h234v-40h-89v-396c0 -132 -81 -228 -249 -228zM250 755v53h251v-53h-251z" />
    <glyph glyph-name="umacron" unicode="&#x16b;" horiz-adv-x="540" 
d="M213 -9c-76 0 -121 48 -121 142v270h-75v40h139v-274c0 -49 5 -84 26 -105c15 -16 37 -20 59 -20c74 0 137 87 137 144v215h-79v40h143v-403h76v-40h-138v115c-54 -96 -116 -124 -167 -124zM143 542v53h251v-53h-251z" />
    <glyph glyph-name="Uogonek" unicode="&#x172;" horiz-adv-x="720" 
d="M361 -233c-55 0 -91 34 -91 83c0 44 27 81 87 134c-163 0 -238 88 -238 212v412h-95v40h268v-40h-103v-399c0 -126 67 -176 189 -176c53 0 104 18 134 47c33 33 49 78 49 152v376h-99v40h234v-40h-89v-396c0 -121 -68 -212 -208 -226l-4 -4c-55 -57 -73 -93 -73 -123
c0 -34 23 -53 53 -53c25 0 45 13 59 23l16 -22c-24 -23 -54 -40 -89 -40z" />
    <glyph glyph-name="uogonek" unicode="&#x173;" horiz-adv-x="540" 
d="M435 -233c-55 0 -91 34 -91 83c0 45 29 83 92 138l14 12h-70v115c-54 -96 -116 -124 -167 -124c-76 0 -121 48 -121 142v270h-75v40h139v-274c0 -49 5 -84 26 -105c15 -16 37 -20 59 -20c74 0 137 87 137 144v215h-79v40h143v-403h76v-40h-32l-17 -18
c-55 -57 -73 -93 -73 -123c0 -34 23 -53 53 -53c25 0 45 13 59 23l16 -22c-24 -23 -54 -40 -89 -40z" />
    <glyph glyph-name="Uring" unicode="&#x16e;" horiz-adv-x="720" 
d="M358 -16c-164 0 -239 88 -239 212v412h-95v40h268v-40h-103v-399c0 -126 67 -176 189 -176c53 0 104 18 134 47c33 33 49 78 49 152v376h-99v40h234v-40h-89v-396c0 -132 -81 -228 -249 -228zM375 730c-69 0 -105 50 -105 100s36 100 105 100s105 -50 105 -100
s-36 -100 -105 -100zM375 760c38 0 60 30 60 70s-22 70 -60 70s-60 -30 -60 -70s22 -70 60 -70z" />
    <glyph glyph-name="uring" unicode="&#x16f;" horiz-adv-x="540" 
d="M213 -9c-76 0 -121 48 -121 142v270h-75v40h139v-274c0 -49 5 -84 26 -105c15 -16 37 -20 59 -20c74 0 137 87 137 144v215h-79v40h143v-403h76v-40h-138v115c-54 -96 -116 -124 -167 -124zM268 517c-69 0 -105 50 -105 100s36 100 105 100s105 -50 105 -100
s-36 -100 -105 -100zM268 547c38 0 60 30 60 70s-22 70 -60 70s-60 -30 -60 -70s22 -70 60 -70z" />
    <glyph glyph-name="Wacute" unicode="&#x1e82;" horiz-adv-x="977" 
d="M624 608h-96l156 -507h2l170 507h-92v40h207v-40h-69l-209 -612h-46l-155 493l-168 -493h-46l-193 612h-79v40h249v-40h-96l156 -507h2l153 458l-15 49h-77v40h246v-40zM480 736l51 126c20 50 33 68 56 68c16 0 30 -12 30 -32c0 -22 -16 -41 -45 -79l-64 -83h-28z" />
    <glyph glyph-name="wacute" unicode="&#x1e83;" horiz-adv-x="740" 
d="M490 403h-78l112 -324h2l118 324h-73v40h166v-40h-51l-153 -409h-42l-113 319l-130 -319h-42l-142 409h-61v40h207v-40h-78l107 -324h2l116 293l-11 31h-61v40h205v-40zM365 523l51 126c20 50 33 68 56 68c16 0 30 -12 30 -32c0 -22 -16 -41 -45 -79l-64 -83h-28z" />
    <glyph glyph-name="Wcircumflex" unicode="&#x174;" horiz-adv-x="977" 
d="M624 608h-96l156 -507h2l170 507h-92v40h207v-40h-69l-209 -612h-46l-155 493l-168 -493h-46l-193 612h-79v40h249v-40h-96l156 -507h2l153 458l-15 49h-77v40h246v-40zM377 737l106 179h34l106 -179h-31l-92 108l-92 -108h-31z" />
    <glyph glyph-name="wcircumflex" unicode="&#x175;" horiz-adv-x="740" 
d="M490 403h-78l112 -324h2l118 324h-73v40h166v-40h-51l-153 -409h-42l-113 319l-130 -319h-42l-142 409h-61v40h207v-40h-78l107 -324h2l116 293l-11 31h-61v40h205v-40zM262 524l106 179h34l106 -179h-31l-92 108l-92 -108h-31z" />
    <glyph glyph-name="Wdieresis" unicode="&#x1e84;" horiz-adv-x="977" 
d="M624 608h-96l156 -507h2l170 507h-92v40h207v-40h-69l-209 -612h-46l-155 493l-168 -493h-46l-193 612h-79v40h249v-40h-96l156 -507h2l153 458l-15 49h-77v40h246v-40zM417 759c-25 0 -45 21 -45 48s20 48 45 48s45 -21 45 -48s-20 -48 -45 -48zM583 759
c-25 0 -45 21 -45 48s20 48 45 48s45 -21 45 -48s-20 -48 -45 -48z" />
    <glyph glyph-name="wdieresis" unicode="&#x1e85;" horiz-adv-x="740" 
d="M490 403h-78l112 -324h2l118 324h-73v40h166v-40h-51l-153 -409h-42l-113 319l-130 -319h-42l-142 409h-61v40h207v-40h-78l107 -324h2l116 293l-11 31h-61v40h205v-40zM302 546c-25 0 -45 21 -45 48s20 48 45 48s45 -21 45 -48s-20 -48 -45 -48zM468 546
c-25 0 -45 21 -45 48s20 48 45 48s45 -21 45 -48s-20 -48 -45 -48z" />
    <glyph glyph-name="Wgrave" unicode="&#x1e80;" horiz-adv-x="977" 
d="M624 608h-96l156 -507h2l170 507h-92v40h207v-40h-69l-209 -612h-46l-155 493l-168 -493h-46l-193 612h-79v40h249v-40h-96l156 -507h2l153 458l-15 49h-77v40h246v-40zM535 736h-28l-64 83c-29 38 -45 57 -45 79c0 20 14 32 30 32c23 0 36 -18 56 -68z" />
    <glyph glyph-name="wgrave" unicode="&#x1e81;" horiz-adv-x="740" 
d="M490 403h-78l112 -324h2l118 324h-73v40h166v-40h-51l-153 -409h-42l-113 319l-130 -319h-42l-142 409h-61v40h207v-40h-78l107 -324h2l116 293l-11 31h-61v40h205v-40zM420 523h-28l-64 83c-29 38 -45 57 -45 79c0 20 14 32 30 32c23 0 36 -18 56 -68z" />
    <glyph glyph-name="Yacute" unicode="&#xdd;" horiz-adv-x="628" 
d="M329 324l170 284h-84v40h213v-40h-77l-204 -333v-235h101v-40h-272v40h101v234l-192 334h-82v40h257v-40h-90zM310 736l51 126c20 50 33 68 56 68c16 0 30 -12 30 -32c0 -22 -16 -41 -45 -79l-64 -83h-28z" />
    <glyph glyph-name="yacute" unicode="&#xfd;" horiz-adv-x="476" 
d="M67 -42c26 0 45 -18 45 -44c0 -16 -5 -28 -12 -37c34 -3 77 17 120 122c-35 89 -160 404 -160 404h-60v40h210v-40h-78l123 -327l125 327h-72v40h168v-40h-51l-151 -380c-56 -141 -113 -183 -178 -183c-52 0 -80 29 -80 63c0 31 21 55 51 55zM235 523l51 126
c20 50 33 68 56 68c16 0 30 -12 30 -32c0 -22 -16 -41 -45 -79l-64 -83h-28z" />
    <glyph glyph-name="Ycircumflex" unicode="&#x176;" horiz-adv-x="628" 
d="M329 324l170 284h-84v40h213v-40h-77l-204 -333v-235h101v-40h-272v40h101v234l-192 334h-82v40h257v-40h-90zM207 737l106 179h34l106 -179h-31l-92 108l-92 -108h-31z" />
    <glyph glyph-name="ycircumflex" unicode="&#x177;" horiz-adv-x="476" 
d="M67 -42c26 0 45 -18 45 -44c0 -16 -5 -28 -12 -37c34 -3 77 17 120 122c-35 89 -160 404 -160 404h-60v40h210v-40h-78l123 -327l125 327h-72v40h168v-40h-51l-151 -380c-56 -141 -113 -183 -178 -183c-52 0 -80 29 -80 63c0 31 21 55 51 55zM132 524l106 179h34
l106 -179h-31l-92 108l-92 -108h-31z" />
    <glyph glyph-name="Ydieresis" unicode="&#x178;" horiz-adv-x="628" 
d="M329 324l170 284h-84v40h213v-40h-77l-204 -333v-235h101v-40h-272v40h101v234l-192 334h-82v40h257v-40h-90zM413 759c-25 0 -45 21 -45 48s20 48 45 48s45 -21 45 -48s-20 -48 -45 -48zM247 759c-25 0 -45 21 -45 48s20 48 45 48s45 -21 45 -48s-20 -48 -45 -48z" />
    <glyph glyph-name="ydieresis" unicode="&#xff;" horiz-adv-x="476" 
d="M67 -42c26 0 45 -18 45 -44c0 -16 -5 -28 -12 -37c34 -3 77 17 120 122c-35 89 -160 404 -160 404h-60v40h210v-40h-78l123 -327l125 327h-72v40h168v-40h-51l-151 -380c-56 -141 -113 -183 -178 -183c-52 0 -80 29 -80 63c0 31 21 55 51 55zM172 546
c-25 0 -45 21 -45 48s20 48 45 48s45 -21 45 -48s-20 -48 -45 -48zM338 546c-25 0 -45 21 -45 48s20 48 45 48s45 -21 45 -48s-20 -48 -45 -48z" />
    <glyph glyph-name="Ygrave" unicode="&#x1ef2;" horiz-adv-x="628" 
d="M329 324l170 284h-84v40h213v-40h-77l-204 -333v-235h101v-40h-272v40h101v234l-192 334h-82v40h257v-40h-90zM365 736h-28l-64 83c-29 38 -45 57 -45 79c0 20 14 32 30 32c23 0 36 -18 56 -68z" />
    <glyph glyph-name="ygrave" unicode="&#x1ef3;" horiz-adv-x="476" 
d="M67 -42c26 0 45 -18 45 -44c0 -16 -5 -28 -12 -37c34 -3 77 17 120 122c-35 89 -160 404 -160 404h-60v40h210v-40h-78l123 -327l125 327h-72v40h168v-40h-51l-151 -380c-56 -141 -113 -183 -178 -183c-52 0 -80 29 -80 63c0 31 21 55 51 55zM290 523h-28l-64 83
c-29 38 -45 57 -45 79c0 20 14 32 30 32c23 0 36 -18 56 -68z" />
    <glyph glyph-name="Zacute" unicode="&#x179;" horiz-adv-x="592" 
d="M37 0v25l419 583h-291c-41 0 -49 -10 -74 -172h-32v212h491v-25l-417 -583h311c41 0 48 17 73 179h32v-219h-512zM280 736l51 126c20 50 33 68 56 68c16 0 30 -12 30 -32c0 -22 -16 -41 -45 -79l-64 -83h-28z" />
    <glyph glyph-name="zacute" unicode="&#x17a;" horiz-adv-x="451" 
d="M32 0v34l300 374h-196c-37 0 -43 -16 -58 -113h-30v148h367v-34l-301 -374h220c35 0 40 19 53 124h30v-159h-385zM215 523l51 126c20 50 33 68 56 68c16 0 30 -12 30 -32c0 -22 -16 -41 -45 -79l-64 -83h-28z" />
    <glyph glyph-name="Zcaron" unicode="&#x17d;" horiz-adv-x="592" 
d="M37 0v25l419 583h-291c-41 0 -49 -10 -74 -172h-32v212h491v-25l-417 -583h311c41 0 48 17 73 179h32v-219h-512zM283 746l-106 179h31l92 -108l92 108h31l-106 -179h-34z" />
    <glyph glyph-name="zcaron" unicode="&#x17e;" horiz-adv-x="451" 
d="M32 0v34l300 374h-196c-37 0 -43 -16 -58 -113h-30v148h367v-34l-301 -374h220c35 0 40 19 53 124h30v-159h-385zM218 533l-106 179h31l92 -108l92 108h31l-106 -179h-34z" />
    <glyph glyph-name="Zdotaccent" unicode="&#x17b;" horiz-adv-x="592" 
d="M37 0v25l419 583h-291c-41 0 -49 -10 -74 -172h-32v212h491v-25l-417 -583h311c41 0 48 17 73 179h32v-219h-512zM301 740c-26 0 -47 18 -47 47c0 27 20 48 47 48c23 0 45 -19 45 -47c0 -29 -21 -48 -45 -48z" />
    <glyph glyph-name="zdotaccent" unicode="&#x17c;" horiz-adv-x="451" 
d="M32 0v34l300 374h-196c-37 0 -43 -16 -58 -113h-30v148h367v-34l-301 -374h220c35 0 40 19 53 124h30v-159h-385zM236 527c-26 0 -47 18 -47 47c0 27 20 48 47 48c23 0 45 -19 45 -47c0 -29 -21 -48 -45 -48z" />
    <glyph glyph-name="schwa" unicode="&#x259;" horiz-adv-x="465" 
d="M219 5c-126 0 -183 115 -180 233h316c-1 120 -63 184 -146 184c-55 0 -103 -20 -130 -91h-37c28 88 91 135 177 135c123 0 205 -91 205 -226c0 -137 -93 -235 -205 -235zM221 41c69 0 121 59 132 157h-246c7 -101 47 -157 114 -157z" />
    <glyph glyph-name="germandbls" unicode="&#xdf;" horiz-adv-x="531" 
d="M361 -9c-61 0 -129 31 -129 91c0 32 22 52 48 52c29 0 47 -20 47 -43s-13 -37 -24 -44c14 -13 39 -19 61 -19c67 0 95 45 95 83c0 27 -10 61 -85 107c-81 50 -115 73 -115 128c0 37 26 60 65 99c47 46 60 73 60 114c0 56 -40 97 -97 97c-71 0 -111 -48 -111 -168v-488
h-140v40h76v363h-92v40h92v35c0 162 87 215 177 215c83 0 157 -63 157 -140c0 -52 -28 -88 -82 -128c-44 -32 -53 -47 -53 -65c0 -24 14 -36 91 -82c67 -40 109 -72 109 -147c0 -68 -50 -140 -150 -140z" />
    <glyph glyph-name="zero" unicode="0" horiz-adv-x="549" 
d="M276 -16c-145 0 -229 140 -229 325c0 187 89 329 226 329c145 0 229 -139 229 -324c0 -187 -89 -330 -226 -330zM278 24c104 0 151 121 151 287s-53 287 -158 287c-104 0 -151 -120 -151 -287c0 -165 55 -287 158 -287z" />
    <glyph glyph-name="one" unicode="1" horiz-adv-x="427" 
d="M48 0v40h148v488c-24 -12 -60 -17 -95 -17c-20 0 -40 2 -53 6v33c78 0 148 28 177 81h38v-591h138v-40h-353z" />
    <glyph glyph-name="two" unicode="2" horiz-adv-x="526" 
d="M46 53c0 73 60 141 206 233c85 53 138 106 138 181c0 73 -51 132 -135 132c-71 0 -119 -38 -138 -76c27 -6 46 -25 46 -54c0 -27 -21 -52 -51 -52c-29 0 -55 24 -55 67c0 72 87 154 207 154c131 0 197 -83 197 -173c0 -91 -63 -151 -185 -214
c-119 -62 -173 -121 -180 -169l2 -1c23 12 51 20 83 20c68 0 111 -54 167 -54c54 0 81 43 105 155l30 -2c-14 -161 -66 -216 -141 -216s-125 82 -185 82c-10 0 -22 -2 -31 -5c5 -9 10 -20 10 -32c0 -26 -14 -45 -39 -45c-34 0 -51 32 -51 69z" />
    <glyph glyph-name="three" unicode="3" horiz-adv-x="505" 
d="M238 -16c-113 0 -200 65 -200 134c0 33 22 60 54 60c30 0 50 -23 50 -49s-16 -46 -33 -56c16 -20 55 -50 125 -50c88 0 148 60 148 137c0 86 -61 140 -178 140h-29v42h24c113 0 174 50 174 136c0 69 -49 121 -133 121c-75 0 -111 -34 -126 -59c25 -8 43 -27 43 -54
c0 -25 -18 -51 -50 -51c-30 0 -54 24 -54 60c0 67 76 143 195 143c121 0 196 -71 196 -160c0 -88 -67 -135 -155 -156v-2c104 -19 164 -68 164 -148c0 -103 -83 -188 -215 -188z" />
    <glyph glyph-name="four" unicode="4" horiz-adv-x="544" 
d="M324 220v338h-2l-244 -338h246zM389 40h98v-40h-263v40h99v138h-298v43l299 412h65v-413h131v-42h-131v-138z" />
    <glyph glyph-name="five" unicode="5" horiz-adv-x="497" 
d="M138 558l-14 -211c34 27 84 46 139 46c112 0 192 -76 192 -187c0 -109 -77 -222 -216 -222c-105 0 -197 66 -197 143c0 37 26 66 58 66c34 0 50 -24 50 -49c0 -28 -21 -51 -46 -58c20 -31 64 -63 130 -63c93 0 150 75 150 177s-48 152 -129 152c-60 0 -106 -27 -142 -62
l-36 12l22 323l11 8c64 -25 114 -37 176 -37c66 0 101 14 143 36l12 -21c-42 -54 -94 -81 -165 -81c-54 0 -105 15 -138 28z" />
    <glyph glyph-name="six" unicode="6" horiz-adv-x="514" 
d="M115 296c34 52 89 93 163 93c120 0 190 -83 190 -190c0 -114 -71 -215 -205 -215c-137 0 -217 116 -217 288c0 209 100 366 263 366c93 0 149 -49 149 -107c0 -39 -24 -66 -57 -66c-34 0 -53 23 -53 50c0 22 14 46 43 54c-16 20 -43 30 -79 30
c-122 0 -191 -113 -197 -303zM121 189c0 -90 56 -165 145 -165c83 0 131 67 131 171c0 77 -41 153 -131 153c-83 0 -145 -68 -145 -159z" />
    <glyph glyph-name="seven" unicode="7" horiz-adv-x="520" 
d="M254 34c-2 -34 -14 -50 -40 -50c-22 0 -39 13 -39 40c-1 96 65 290 192 426c44 47 64 73 77 99l-2 2c-38 -22 -66 -31 -94 -31c-70 0 -107 44 -163 44c-51 0 -84 -35 -94 -170h-38v231h40l4 -89h2c20 58 48 94 103 94c79 0 98 -77 163 -77c12 0 33 3 60 17
c-10 10 -14 20 -14 31c0 22 18 39 40 39c28 0 44 -21 44 -47c0 -44 -26 -75 -98 -161c-93 -111 -134 -217 -143 -398z" />
    <glyph glyph-name="eight" unicode="8" horiz-adv-x="524" 
d="M65 465c0 95 76 173 202 173c119 0 190 -76 190 -156c0 -76 -39 -127 -119 -160c93 -34 140 -84 140 -152c0 -102 -93 -186 -222 -186c-126 0 -210 77 -210 166c0 61 29 129 129 167c-79 36 -110 84 -110 148zM410 152c0 67 -54 102 -191 148c-76 -29 -113 -82 -113 -145
c0 -74 63 -133 156 -133c85 0 148 60 148 130zM133 480c0 -68 42 -107 162 -143c75 34 104 81 104 137c0 69 -51 125 -136 125c-82 0 -130 -58 -130 -119z" />
    <glyph glyph-name="nine" unicode="9" horiz-adv-x="514" 
d="M399 318c-34 -52 -89 -93 -163 -93c-120 0 -190 83 -190 194c0 118 71 219 205 219c137 0 217 -116 217 -288c0 -212 -94 -366 -259 -366c-105 0 -161 52 -161 113c0 37 24 64 57 64c34 0 53 -23 53 -50c0 -22 -14 -46 -43 -54c20 -24 52 -34 91 -34
c121 0 187 110 193 295zM393 429c0 94 -56 169 -145 169c-83 0 -131 -67 -131 -175c0 -81 41 -157 131 -157c83 0 145 68 145 163z" />
    <glyph glyph-name="period" unicode="." horiz-adv-x="200" 
d="M100 -14c-28 0 -50 22 -50 50s22 50 50 50s50 -22 50 -50s-22 -50 -50 -50z" />
    <glyph glyph-name="comma" unicode="," horiz-adv-x="200" 
d="M30 -132l-13 27c69 34 91 65 97 102l-2 2c-8 -4 -13 -5 -20 -5c-24 0 -42 19 -42 44s19 48 47 48c35 0 54 -28 54 -66c0 -62 -34 -113 -121 -152z" />
    <glyph glyph-name="colon" unicode=":" horiz-adv-x="200" 
d="M100 290c-28 0 -50 22 -50 50s22 50 50 50s50 -22 50 -50s-22 -50 -50 -50zM100 -14c-28 0 -50 22 -50 50s22 50 50 50s50 -22 50 -50s-22 -50 -50 -50z" />
    <glyph glyph-name="semicolon" unicode=";" horiz-adv-x="200" 
d="M100 290c-28 0 -50 22 -50 50s22 50 50 50s50 -22 50 -50s-22 -50 -50 -50zM30 -132l-13 27c69 34 91 65 97 102l-2 2c-8 -4 -13 -5 -20 -5c-24 0 -42 19 -42 44s19 48 47 48c35 0 54 -28 54 -66c0 -62 -34 -113 -121 -152z" />
    <glyph glyph-name="ellipsis" unicode="&#x2026;" horiz-adv-x="600" 
d="M500 -14c-28 0 -50 22 -50 50s22 50 50 50s50 -22 50 -50s-22 -50 -50 -50zM300 -14c-28 0 -50 22 -50 50s22 50 50 50s50 -22 50 -50s-22 -50 -50 -50zM100 -14c-28 0 -50 22 -50 50s22 50 50 50s50 -22 50 -50s-22 -50 -50 -50z" />
    <glyph glyph-name="periodcentered" unicode="&#xb7;" horiz-adv-x="200" 
d="M100 274c-28 0 -50 22 -50 50s22 50 50 50s50 -22 50 -50s-22 -50 -50 -50z" />
    <glyph glyph-name="bullet" unicode="&#x2022;" horiz-adv-x="436" 
d="M218 204c-59 0 -106 48 -106 109s47 109 106 109s106 -48 106 -109s-47 -109 -106 -109z" />
    <glyph glyph-name="ampersand" unicode="&#x26;" horiz-adv-x="710" 
d="M480 375h203v-40h-78c-29 -68 -69 -147 -124 -213c39 -63 63 -85 94 -85c27 0 46 21 66 67l30 -13c-23 -64 -56 -107 -114 -107c-46 0 -84 23 -125 90c-56 -59 -120 -90 -197 -90c-111 0 -183 74 -183 163c0 82 52 139 167 186c-43 43 -67 87 -67 141
c0 80 72 146 156 146c87 0 139 -64 139 -123c0 -63 -30 -113 -133 -163c64 -60 107 -116 145 -179c40 49 78 124 101 180h-80v40zM256 34c55 0 107 26 155 73c-38 69 -82 125 -165 201c-81 -38 -123 -83 -123 -153c0 -61 51 -121 133 -121zM213 491c0 -45 16 -79 76 -134
c70 37 97 84 97 137c0 51 -31 89 -81 89c-58 0 -92 -44 -92 -92z" />
    <glyph glyph-name="exclam" unicode="!" horiz-adv-x="256" 
d="M128 674c26 0 42 -17 42 -52c0 -36 -8 -115 -14 -186c-6 -72 -13 -151 -17 -246h-22c-4 95 -11 174 -17 246c-6 70 -14 151 -14 186s16 52 42 52zM128 -14c-28 0 -50 22 -50 50s22 50 50 50s50 -22 50 -50s-22 -50 -50 -50z" />
    <glyph glyph-name="exclamdown" unicode="&#xa1;" horiz-adv-x="256" 
d="M151 -14c-26 0 -42 17 -42 52c0 36 8 115 14 186c6 72 13 151 17 246h22c4 -95 11 -174 17 -246c6 -70 14 -151 14 -186s-16 -52 -42 -52zM151 674c28 0 50 -22 50 -50s-22 -50 -50 -50s-50 22 -50 50s22 50 50 50z" />
    <glyph glyph-name="question" unicode="?" horiz-adv-x="411" 
d="M179 190c-1 79 17 124 63 181c55 67 74 94 74 151c0 64 -46 116 -116 116c-55 0 -95 -30 -111 -61c28 -5 48 -24 48 -53s-21 -53 -52 -53c-33 0 -55 27 -55 61c0 74 80 142 175 142c116 0 182 -67 182 -152c0 -67 -29 -110 -101 -175c-53 -48 -75 -91 -79 -157h-28z
M196 -14c-28 0 -50 22 -50 50s22 50 50 50s50 -22 50 -50s-22 -50 -50 -50z" />
    <glyph glyph-name="questiondown" unicode="&#xbf;" horiz-adv-x="407" 
d="M224 470c1 -79 -17 -124 -63 -181c-55 -67 -74 -94 -74 -151c0 -64 46 -116 116 -116c55 0 95 30 111 61c-28 5 -48 24 -48 53s21 53 52 53c33 0 55 -27 55 -61c0 -74 -80 -142 -175 -142c-116 0 -182 67 -182 152c0 67 29 110 101 175c53 48 75 91 79 157h28zM207 674
c28 0 50 -22 50 -50s-22 -50 -50 -50s-50 22 -50 50s22 50 50 50z" />
    <glyph glyph-name="quotedblleft" unicode="&#x201c;" horiz-adv-x="364" 
d="M267 444c-35 0 -54 28 -54 66c0 62 34 113 121 152l13 -27c-69 -34 -91 -65 -97 -102l2 -2c8 4 13 5 20 5c24 0 42 -19 42 -44s-19 -48 -47 -48zM103 444c-35 0 -54 28 -54 66c0 62 34 113 121 152l13 -27c-69 -34 -91 -65 -97 -102l2 -2c8 4 13 5 20 5
c24 0 42 -19 42 -44s-19 -48 -47 -48z" />
    <glyph glyph-name="quotedblright" unicode="&#x201d;" horiz-adv-x="364" 
d="M194 444l-13 27c69 34 91 65 97 102l-2 2c-8 -4 -13 -5 -20 -5c-24 0 -42 19 -42 44s19 48 47 48c35 0 54 -28 54 -66c0 -62 -34 -113 -121 -152zM30 444l-13 27c69 34 91 65 97 102l-2 2c-8 -4 -13 -5 -20 -5c-24 0 -42 19 -42 44s19 48 47 48c35 0 54 -28 54 -66
c0 -62 -34 -113 -121 -152z" />
    <glyph glyph-name="quoteleft" unicode="&#x2018;" horiz-adv-x="200" 
d="M103 444c-35 0 -54 28 -54 66c0 62 34 113 121 152l13 -27c-69 -34 -91 -65 -97 -102l2 -2c8 4 13 5 20 5c24 0 42 -19 42 -44s-19 -48 -47 -48z" />
    <glyph glyph-name="quoteright" unicode="&#x2019;" horiz-adv-x="200" 
d="M30 444l-13 27c69 34 91 65 97 102l-2 2c-8 -4 -13 -5 -20 -5c-24 0 -42 19 -42 44s19 48 47 48c35 0 54 -28 54 -66c0 -62 -34 -113 -121 -152z" />
    <glyph glyph-name="quotedblbase" unicode="&#x201e;" horiz-adv-x="364" 
d="M194 -132l-13 27c69 34 91 65 97 102l-2 2c-8 -4 -13 -5 -20 -5c-24 0 -42 19 -42 44s19 48 47 48c35 0 54 -28 54 -66c0 -62 -34 -113 -121 -152zM30 -132l-13 27c69 34 91 65 97 102l-2 2c-8 -4 -13 -5 -20 -5c-24 0 -42 19 -42 44s19 48 47 48c35 0 54 -28 54 -66
c0 -62 -34 -113 -121 -152z" />
    <glyph glyph-name="quotesinglbase" unicode="&#x201a;" horiz-adv-x="200" 
d="M30 -132l-13 27c69 34 91 65 97 102l-2 2c-8 -4 -13 -5 -20 -5c-24 0 -42 19 -42 44s19 48 47 48c35 0 54 -28 54 -66c0 -62 -34 -113 -121 -152z" />
    <glyph glyph-name="guillemotleft" unicode="&#xab;" horiz-adv-x="486" 
d="M114 224l131 -173l-25 -18l-147 151c-21 21 -27 31 -27 40s6 19 27 40l147 151l25 -18zM303 224l131 -173l-25 -18l-147 151c-21 21 -27 31 -27 40s6 19 27 40l147 151l25 -18z" />
    <glyph glyph-name="guillemotright" unicode="&#xbb;" horiz-adv-x="486" 
d="M372 224l-131 173l25 18l147 -151c21 -21 27 -31 27 -40s-6 -19 -27 -40l-147 -151l-25 18zM183 224l-131 173l25 18l147 -151c21 -21 27 -31 27 -40s-6 -19 -27 -40l-147 -151l-25 18z" />
    <glyph glyph-name="guilsinglleft" unicode="&#x2039;" horiz-adv-x="297" 
d="M114 224l131 -173l-25 -18l-147 151c-21 21 -27 31 -27 40s6 19 27 40l147 151l25 -18z" />
    <glyph glyph-name="guilsinglright" unicode="&#x203a;" horiz-adv-x="297" 
d="M183 224l-131 173l25 18l147 -151c21 -21 27 -31 27 -40s-6 -19 -27 -40l-147 -151l-25 18z" />
    <glyph glyph-name="hyphen" unicode="-" horiz-adv-x="366" 
d="M55 210v55h256v-55h-256z" />
    <glyph glyph-name="endash" unicode="&#x2013;" horiz-adv-x="540" 
d="M55 211v47h430v-47h-430z" />
    <glyph glyph-name="emdash" unicode="&#x2014;" horiz-adv-x="790" 
d="M55 211v47h680v-47h-680z" />
    <glyph glyph-name="underscore" unicode="_" horiz-adv-x="440" 
d="M-2 0v45h444v-45h-444z" />
    <glyph glyph-name="slash" unicode="/" horiz-adv-x="408" 
d="M-48 -203l386 897h51l-386 -897h-51z" />
    <glyph glyph-name="backslash" unicode="\" horiz-adv-x="408" 
d="M405 -203l-386 897h51l386 -897h-51z" />
    <glyph glyph-name="bar" unicode="|" horiz-adv-x="270" 
d="M112 -203v897h46v-897h-46z" />
    <glyph glyph-name="parenleft" unicode="(" horiz-adv-x="361" 
d="M337 -157c-166 93 -267 234 -267 442s101 349 267 442l19 -30c-146 -95 -217 -229 -217 -412s71 -317 217 -412z" />
    <glyph glyph-name="parenright" unicode=")" horiz-adv-x="361" 
d="M24 727c166 -93 267 -234 267 -442s-101 -349 -267 -442l-19 30c146 95 217 229 217 412s-71 317 -217 412z" />
    <glyph glyph-name="bracketleft" unicode="[" horiz-adv-x="334" 
d="M89 -149v868h236v-38h-171v-792h171v-38h-236z" />
    <glyph glyph-name="bracketright" unicode="]" horiz-adv-x="334" 
d="M245 719v-868h-236v38h171v792h-171v38h236z" />
    <glyph glyph-name="braceleft" unicode="{" horiz-adv-x="388" 
d="M16 305h30c94 0 137 42 137 96c0 47 -14 104 -14 149c0 100 58 166 196 171v-34c-98 -9 -132 -55 -132 -125c0 -48 10 -101 10 -151c0 -64 -46 -111 -120 -125v-1c74 -14 120 -61 120 -125c0 -50 -10 -103 -10 -151c0 -70 34 -116 132 -125v-34c-138 5 -196 71 -196 171
c0 45 14 102 14 149c0 54 -43 96 -137 96h-30v39z" />
    <glyph glyph-name="braceright" unicode="}" horiz-adv-x="388" 
d="M372 266h-30c-94 0 -137 -42 -137 -96c0 -47 14 -104 14 -149c0 -100 -58 -166 -196 -171v34c98 9 132 55 132 125c0 48 -10 101 -10 151c0 64 46 111 120 125v1c-74 14 -120 61 -120 125c0 50 10 103 10 151c0 70 -34 116 -132 125v34c138 -5 196 -71 196 -171
c0 -45 -14 -102 -14 -149c0 -54 43 -96 137 -96h30v-39z" />
    <glyph glyph-name="at" unicode="@" horiz-adv-x="908" 
d="M458 -146c-224 0 -394 139 -394 387s188 433 425 433c193 0 355 -132 355 -344c0 -175 -112 -271 -220 -271c-69 0 -107 36 -101 108l-7 3c-43 -61 -88 -97 -140 -97c-62 0 -108 46 -108 127c0 82 38 165 95 217c36 32 76 53 118 53s83 -24 95 -82l24 77h56l-74 -246
c-33 -109 12 -124 52 -124c89 0 171 88 171 234c0 187 -135 309 -320 309c-222 0 -382 -177 -382 -398c0 -214 140 -350 358 -350c105 0 196 36 263 85l18 -27c-75 -56 -178 -94 -284 -94zM395 117c81 0 163 137 163 224c0 35 -18 93 -74 93c-80 0 -155 -125 -155 -232
c0 -56 27 -85 66 -85z" />
    <glyph glyph-name="copyright" unicode="&#xa9;" horiz-adv-x="787" 
d="M393 -32c-199 0 -357 157 -357 362c0 203 158 360 357 360c200 0 358 -157 358 -360c0 -205 -158 -362 -358 -362zM393 -1c181 0 322 145 322 331c0 184 -141 329 -322 329c-179 0 -321 -145 -321 -329c0 -186 142 -331 321 -331zM394 144c-96 0 -164 74 -164 188
c0 110 72 189 166 189c50 0 84 -19 106 -45l11 43h29v-132h-24c-21 65 -57 104 -119 104c-76 0 -119 -64 -119 -155c0 -103 48 -161 122 -161c63 0 104 43 115 116h28c-12 -94 -67 -147 -151 -147z" />
    <glyph glyph-name="published" unicode="&#x2117;" horiz-adv-x="787" 
d="M393 -32c-199 0 -357 157 -357 362c0 203 158 360 357 360c200 0 358 -157 358 -360c0 -205 -158 -362 -358 -362zM393 -1c181 0 322 145 322 331c0 184 -141 329 -322 329c-179 0 -321 -145 -321 -329c0 -186 142 -331 321 -331zM250 153v26h61v308h-61v26h170
c107 0 137 -48 137 -102c0 -62 -48 -110 -137 -110h-63v-122h67v-26h-174zM357 327h56c65 0 95 37 95 85c0 44 -25 75 -93 75h-58v-160z" />
    <glyph glyph-name="registered.alt" horiz-adv-x="787" 
d="M393 -32c-199 0 -357 157 -357 362c0 203 158 360 357 360c200 0 358 -157 358 -360c0 -205 -158 -362 -358 -362zM393 -1c181 0 322 145 322 331c0 184 -141 329 -322 329c-179 0 -321 -145 -321 -329c0 -186 142 -331 321 -331zM335 315v-136h62v-26h-169v26h61v307
h-61v27h185c81 0 125 -38 125 -94c0 -38 -26 -78 -88 -89v-1c50 -13 68 -36 71 -80l4 -46c2 -18 9 -25 21 -25c11 0 19 5 27 24l18 -7c-11 -31 -29 -49 -61 -49c-33 0 -53 15 -54 65l-2 44c-2 42 -17 60 -72 60h-67zM335 340h66c62 0 87 33 87 80c0 42 -26 66 -80 66h-73
v-146z" />
    <glyph glyph-name="registered" unicode="&#xae;" horiz-adv-x="517" 
d="M258 248c-125 0 -221 95 -221 222s96 220 221 220c126 0 222 -93 222 -220s-96 -222 -222 -222zM258 274c116 0 191 80 191 196c0 115 -75 194 -191 194c-114 0 -190 -79 -190 -194c0 -116 76 -196 190 -196zM225 460v-80h37v-21h-109v21h36v185h-36v22h114
c69 0 89 -31 89 -60c0 -24 -19 -49 -66 -55v-3c38 -6 52 -24 55 -49l2 -25c1 -13 4 -17 11 -17c6 0 10 3 16 20l15 -6c-7 -22 -20 -38 -41 -38c-23 0 -36 13 -39 47l-2 22c-2 25 -13 37 -43 37h-39zM225 480h38c32 0 52 15 52 44c0 28 -18 41 -49 41h-41v-85z" />
    <glyph glyph-name="servicemark" unicode="&#x2120;" horiz-adv-x="773" 
d="M53 349v102h23c26 -56 60 -80 104 -80c33 0 59 18 59 54c0 38 -30 47 -82 59c-53 12 -102 29 -102 86c0 50 38 85 97 85c32 0 59 -15 76 -33l10 32h23v-98h-22c-21 57 -54 76 -89 76c-28 0 -57 -17 -57 -52c0 -39 33 -47 75 -57c61 -15 108 -28 108 -87
c0 -52 -39 -88 -98 -88c-40 0 -67 14 -90 39l-10 -38h-25zM324 355v24h46v245l-45 1v24l115 -1l86 -238h1l93 238h110v-24h-45v-245h45v-24h-126v24h37v237h-5l-105 -261h-28l-98 261h-6v-237h40v-24h-115z" />
    <glyph glyph-name="trademark" unicode="&#x2122;" horiz-adv-x="810" 
d="M361 355v24h46v245h-46v24h116l86 -238h1l93 238h110v-24h-45v-245h45v-24h-126v24h37v237h-5l-105 -261h-28l-98 261h-6v-237h40v-24h-115zM102 355v24h58v245h-49c-32 0 -33 -13 -43 -81h-21v105h270v-105h-21c-10 68 -11 81 -43 81h-49v-245h58v-24h-160z" />
    <glyph glyph-name="asterisk" unicode="*" horiz-adv-x="385" 
d="M205 416c-8 25 -7 81 -10 108l-12 3c-17 -21 -51 -67 -71 -82c-17 -14 -32 -13 -45 4c-12 16 -9 32 9 44c20 14 75 34 100 45v11c-25 10 -80 28 -100 42c-18 13 -23 28 -11 45s29 18 47 4c19 -14 53 -61 71 -81l11 3c3 28 2 85 9 108c7 22 20 30 41 23
c19 -6 23 -21 16 -42c-7 -22 -41 -69 -54 -92l7 -10c25 7 81 25 106 25c21 0 33 -8 33 -30c0 -20 -10 -30 -34 -30c-23 0 -80 18 -106 23l-6 -10c15 -22 48 -69 55 -93c7 -21 3 -34 -17 -41c-18 -6 -32 1 -39 23z" />
    <glyph glyph-name="dagger" unicode="&#x2020;" horiz-adv-x="518" 
d="M245 427c-41 20 -84 30 -99 30c-4 0 -8 0 -11 -1c3 -6 8 -16 8 -29c0 -25 -16 -45 -42 -45c-25 0 -46 17 -46 46c0 26 19 61 80 61c28 0 58 -7 110 -31l-25 181l8 20c8 19 14 38 31 38s23 -19 31 -38l8 -20l-25 -190c41 -20 84 -30 99 -30c4 0 8 0 11 1c-3 6 -8 16 -8 29
c0 25 16 45 42 45c25 0 46 -17 46 -46c0 -26 -19 -61 -80 -61c-28 0 -58 7 -110 31l15 -272v-151c0 -49 -22 -93 -29 -93c-8 0 -30 44 -30 93v151z" />
    <glyph glyph-name="daggerdbl" unicode="&#x2021;" horiz-adv-x="518" 
d="M245 458l-25 181l8 20c8 19 14 38 31 38s23 -19 31 -38l8 -20l-25 -190c41 -20 84 -30 99 -30c4 0 8 0 11 1c-3 6 -8 16 -8 29c0 25 16 45 42 45c25 0 46 -17 46 -46c0 -26 -19 -61 -80 -61c-28 0 -58 7 -110 31l15 -127l-15 -119c41 -20 84 -30 99 -30c4 0 8 0 11 1
c-3 6 -8 16 -8 29c0 25 16 45 42 45c25 0 46 -17 46 -46c0 -26 -19 -61 -80 -61c-28 0 -58 7 -110 31l25 -181l-8 -20c-8 -19 -14 -38 -31 -38s-23 19 -31 38l-8 20l25 190c-41 20 -84 30 -99 30c-4 0 -8 0 -11 -1c3 -6 8 -16 8 -29c0 -25 -16 -45 -42 -45
c-25 0 -46 17 -46 46c0 26 19 61 80 61c28 0 58 -7 110 -31l-15 127l15 119c-41 20 -84 30 -99 30c-4 0 -8 0 -11 -1c3 -6 8 -16 8 -29c0 -25 -16 -45 -42 -45c-25 0 -46 17 -46 46c0 26 19 61 80 61c28 0 58 -7 110 -31z" />
    <glyph glyph-name="asciicircum" unicode="^" horiz-adv-x="333" 
d="M34 508l114 195h36l114 -195h-31l-101 124l-101 -124h-31z" />
    <glyph glyph-name="asciitilde" unicode="~" horiz-adv-x="371" 
d="M45 253c12 91 39 120 82 120c53 0 91 -64 128 -64c29 0 40 30 47 69h28c-12 -91 -39 -120 -82 -120c-53 0 -91 64 -128 64c-29 0 -40 -30 -47 -69h-28z" />
    <glyph glyph-name="dollar" unicode="$" horiz-adv-x="511" 
d="M281 -78h-38v78c-122 6 -204 68 -204 127c0 32 21 58 55 58c31 0 50 -24 50 -50c0 -23 -12 -41 -31 -53c21 -21 65 -42 130 -46v250c-131 39 -182 76 -182 170c0 79 68 155 182 166v69h38v-67c97 -4 181 -58 181 -123c0 -33 -22 -54 -50 -54c-30 0 -49 21 -49 45
s15 41 34 49c-17 19 -55 44 -116 47v-244c144 -40 185 -84 185 -171c0 -83 -72 -164 -185 -173v-78zM406 159c0 55 -32 87 -125 116v-239c75 7 125 59 125 123zM120 470c0 -54 34 -87 123 -115v232c-85 -9 -123 -65 -123 -117z" />
    <glyph glyph-name="sterling" unicode="&#xa3;" horiz-adv-x="567" 
d="M443 288h-177c3 -13 5 -26 5 -40c0 -27 -4 -67 -30 -117c84 -29 144 -81 188 -81c39 0 59 39 73 121l31 -3c-8 -133 -46 -183 -117 -183c-73 0 -128 66 -196 101c-32 -66 -61 -102 -112 -102c-37 0 -72 25 -72 70c0 44 38 93 121 93c18 0 35 -3 50 -6c11 33 12 55 12 69
c0 29 -10 53 -22 78h-141v41h120c-14 28 -26 59 -26 99c0 135 92 210 201 210c108 0 160 -67 160 -127c0 -37 -22 -67 -55 -67c-31 0 -52 22 -52 50c0 29 18 49 46 56c-16 30 -51 49 -101 49c-72 0 -136 -47 -136 -132c0 -51 23 -93 40 -138h190v-41zM111 21
c39 0 55 39 75 80c-14 5 -28 8 -42 8c-46 0 -68 -26 -68 -52s19 -36 35 -36z" />
    <glyph glyph-name="Euro" unicode="&#x20ac;" horiz-adv-x="639" 
d="M43 351v39h92c31 143 137 248 270 248c111 0 186 -68 186 -132c0 -33 -21 -64 -55 -64s-54 23 -54 52c0 24 14 45 36 55c-26 36 -75 47 -115 47c-72 0 -172 -46 -199 -206h207v-39h-212c-1 -15 -2 -31 -2 -48c0 -14 0 -27 1 -40h213v-39h-208c20 -120 89 -188 187 -188
c93 0 155 67 169 161h37c-9 -106 -85 -213 -218 -213c-136 0 -222 105 -246 240h-89v39h84c-1 13 -1 26 -1 40c0 16 1 32 3 48h-86z" />
    <glyph glyph-name="yen" unicode="&#xa5;" horiz-adv-x="651" 
d="M107 302h162l-162 284h-77v38h244v-38h-87l149 -269l160 269h-82v38h207v-38h-72l-173 -284h161v-39h-182v-75h182v-39h-182v-108h117v-41h-300v41h118v108h-183v39h183v75h-183v39z" />
    <glyph glyph-name="cent" unicode="&#xa2;" horiz-adv-x="509" 
d="M266 -102l-37 2l7 94c-98 14 -175 100 -175 217c0 136 82 233 215 240l10 94l37 -2l-9 -92c95 -8 158 -68 158 -124c0 -31 -21 -57 -52 -57c-30 0 -49 23 -49 49c0 22 12 41 38 50c-16 22 -48 42 -99 46l-34 -381h6c70 0 120 39 148 108h38c-27 -98 -102 -149 -194 -151z
M130 219c0 -96 45 -161 111 -180l33 376c-90 -9 -144 -87 -144 -196z" />
    <glyph glyph-name="numbersign" unicode="#" horiz-adv-x="663" 
d="M213 414h-142v44h150l39 195h50l-38 -195h172l39 195h50l-39 -195h134v-44h-142l-41 -208h142v-44h-151l-39 -202h-51l40 202h-172l-39 -202h-51l39 202h-132v44h141zM435 414h-172l-40 -208h171z" />
    <glyph glyph-name="paragraph" unicode="&#xb6;" horiz-adv-x="632" 
d="M334 -104v275c-173 0 -266 92 -266 221c0 106 60 209 266 209h260v-40h-90v-665h-44v665h-82v-665h-44z" />
    <glyph glyph-name="section" unicode="&#xa7;" horiz-adv-x="508" 
d="M257 -118c-109 0 -186 49 -186 110c0 33 21 57 50 57c30 0 50 -22 50 -46c0 -23 -16 -40 -31 -46c9 -10 46 -39 119 -39c78 0 114 43 114 87c0 42 -30 75 -129 107c-125 40 -165 75 -165 145c0 50 43 99 110 126v4c-58 26 -94 59 -94 113c0 71 66 139 172 139
c84 0 159 -48 159 -106c0 -32 -19 -55 -48 -55s-47 21 -47 44s14 39 28 44c-8 10 -36 37 -92 37c-78 0 -115 -44 -115 -87c0 -40 28 -68 125 -100c128 -42 167 -75 167 -145c0 -51 -42 -102 -108 -128v-4c62 -29 94 -63 94 -117c0 -71 -60 -140 -173 -140zM291 156
c56 20 90 60 90 104c0 48 -30 74 -114 100l-33 10c-58 -21 -92 -59 -92 -102c0 -48 27 -74 114 -101z" />
    <glyph glyph-name="ordfeminine" unicode="&#xaa;" horiz-adv-x="398" 
d="M153 306c-61 0 -97 32 -97 86c0 19 8 41 24 57c23 23 58 34 127 46c44 8 50 10 50 22v28c0 50 -27 67 -67 67c-27 0 -53 -8 -66 -19c12 -8 19 -18 19 -33c0 -21 -15 -36 -38 -36c-21 0 -37 14 -37 37c0 44 65 80 129 80c75 0 112 -33 112 -98v-170c0 -26 11 -31 22 -31
s20 8 30 31l21 -10c-16 -34 -30 -55 -65 -55c-28 0 -48 15 -54 55h-2c-27 -34 -64 -57 -108 -57zM171 342c44 0 86 35 86 71v67c-6 -2 -16 -4 -31 -7c-77 -13 -113 -32 -113 -74c0 -39 23 -57 58 -57z" />
    <glyph glyph-name="ordmasculine" unicode="&#xba;" horiz-adv-x="412" 
d="M206 306c-86 0 -158 63 -158 164c0 102 75 171 158 171c87 0 158 -64 158 -165c0 -102 -74 -170 -158 -170zM208 337c52 0 101 44 101 138c0 95 -54 135 -105 135c-52 0 -101 -44 -101 -139c0 -94 54 -134 105 -134z" />
    <glyph glyph-name="degree" unicode="&#xb0;" horiz-adv-x="382" 
d="M190 345c-96 0 -150 71 -150 157s60 160 152 160c96 0 150 -71 150 -157s-60 -160 -152 -160zM193 382c57 0 99 42 99 122c0 77 -45 121 -103 121c-54 0 -99 -45 -99 -122s45 -121 103 -121z" />
    <glyph glyph-name="percent" unicode="%" horiz-adv-x="755" 
d="M162 267c-72 0 -119 50 -119 130c0 117 89 217 187 217c36 0 66 -14 84 -42c36 -21 66 -26 94 -26c60 0 116 24 164 82h36l-420 -654h-57l393 580l-3 3c-28 -22 -67 -45 -124 -45c-20 0 -42 2 -66 11c1 -8 2 -17 2 -26c0 -101 -64 -230 -171 -230zM541 -14
c-72 0 -119 50 -119 130c0 117 89 217 187 217c60 0 103 -37 103 -117c0 -101 -64 -230 -171 -230zM549 24c72 0 125 102 125 192c0 49 -22 78 -64 77c-72 -2 -126 -100 -126 -184c0 -53 25 -85 65 -85zM170 305c72 0 125 102 125 192c0 16 -3 30 -7 41c-16 9 -33 21 -50 36
h-7c-72 -2 -126 -100 -126 -184c0 -53 25 -85 65 -85z" />
    <glyph glyph-name="quotedbl" unicode="&#x22;" horiz-adv-x="367" 
d="M232 413l-22 10l28 103c16 60 21 81 30 101s21 25 33 25c19 0 38 -13 38 -33c0 -10 -5 -23 -8 -30c-10 -22 -29 -55 -47 -86zM82 413l-22 10l28 103c16 60 21 81 30 101s21 25 33 25c19 0 38 -13 38 -33c0 -10 -5 -23 -8 -30c-10 -22 -29 -55 -47 -86z" />
    <glyph glyph-name="quotesingle" unicode="'" horiz-adv-x="221" 
d="M82 413l-22 10l28 103c16 60 21 81 30 101s21 25 33 25c19 0 38 -13 38 -33c0 -10 -5 -23 -8 -30c-10 -22 -29 -55 -47 -86z" />
    <glyph glyph-name="plus" unicode="+" horiz-adv-x="523" 
d="M241 67v189h-184v38h184v189h42v-189h184v-38h-184v-189h-42z" />
    <glyph glyph-name="minus" unicode="&#x2212;" horiz-adv-x="524" 
d="M446 254h-368v42h368v-42z" />
    <glyph glyph-name="divide" unicode="&#xf7;" horiz-adv-x="506" 
d="M253 475c27 0 47 -21 47 -48s-20 -48 -47 -48s-47 21 -47 48s20 48 47 48zM456 256h-406v38h406v-38zM253 171c27 0 47 -21 47 -48s-20 -48 -47 -48s-47 21 -47 48s20 48 47 48z" />
    <glyph glyph-name="equal" unicode="=" horiz-adv-x="526" 
d="M60 343v38h406v-38h-406zM60 169v38h406v-38h-406z" />
    <glyph glyph-name="multiply" unicode="&#xd7;" horiz-adv-x="506" 
d="M282 275l147 -151l-29 -29l-147 151l-145 -149l-29 29l145 149l-147 151l29 29l147 -151l145 149l29 -29z" />
    <glyph glyph-name="less" unicode="&#x3c;" horiz-adv-x="510" 
d="M428 81l-346 179v31l346 178v-43l-296 -151l296 -150v-44z" />
    <glyph glyph-name="greater" unicode="&#x3e;" horiz-adv-x="510" 
d="M82 469l346 -179v-31l-346 -178v43l296 151l-296 150v44z" />
    <glyph glyph-name="plusminus" unicode="&#xb1;" horiz-adv-x="540" 
d="M251 159v166h-161v36h161v166h40v-166h161v-36h-161v-166h-40zM454 32h-368v38h368v-38z" />
    <glyph glyph-name="zero.osf" horiz-adv-x="544" 
d="M273 -16c-142 0 -230 132 -230 284c0 153 93 288 228 288c142 0 230 -132 230 -284c0 -153 -93 -288 -228 -288zM275 24c101 0 153 113 153 246c0 132 -58 246 -159 246s-153 -113 -153 -246c0 -132 58 -246 159 -246z" />
    <glyph glyph-name="one.osf" horiz-adv-x="417" 
d="M48 0v40h143v406c-24 -12 -60 -17 -93 -17c-18 0 -37 2 -50 6v33c78 0 143 28 172 81h38v-509h133v-40h-343z" />
    <glyph glyph-name="two.osf" horiz-adv-x="515" 
d="M442 403c0 -85 -50 -137 -177 -183c-119 -43 -163 -97 -170 -141l2 -1c22 12 51 22 82 22c69 0 111 -53 168 -53c46 0 72 41 95 133l30 -2c-13 -140 -64 -194 -131 -194c-75 0 -124 81 -184 81c-10 0 -21 -3 -32 -7c5 -8 9 -18 9 -30c0 -25 -14 -44 -38 -44
c-33 0 -50 32 -50 68c0 71 55 138 199 204c89 41 126 78 126 145c0 65 -44 116 -124 116c-65 0 -108 -31 -126 -62c26 -6 46 -25 46 -53c0 -27 -22 -51 -52 -51c-31 0 -54 26 -54 63c0 62 79 142 195 142c125 0 186 -75 186 -153z" />
    <glyph glyph-name="three.osf" horiz-adv-x="494" 
d="M233 -86c-109 0 -195 63 -195 132c0 33 22 60 54 60c31 0 50 -23 50 -49c0 -27 -15 -46 -33 -56c15 -20 54 -48 120 -48c85 0 142 58 142 133c0 85 -55 137 -168 137h-24v42h19c109 0 164 50 164 131c0 71 -46 121 -127 121c-71 0 -106 -33 -120 -57c26 -8 44 -27 44 -54
c0 -26 -18 -51 -50 -51c-31 0 -54 23 -54 60c0 66 73 141 188 141s190 -76 190 -156c0 -90 -63 -134 -147 -155v-2c100 -19 156 -67 156 -145c0 -101 -81 -184 -209 -184z" />
    <glyph glyph-name="four.osf" horiz-adv-x="543" 
d="M323 153v321h-2l-239 -321h241zM388 -36h84v-39h-235v39h85v147h-295v42l296 398h65v-398h131v-42h-131v-147z" />
    <glyph glyph-name="five.osf" horiz-adv-x="488" 
d="M143 476l-14 -207c34 26 79 44 131 44c108 0 186 -75 186 -183c0 -106 -75 -216 -210 -216c-101 0 -192 64 -192 141c0 37 26 66 58 66c34 0 50 -24 50 -49c0 -29 -21 -51 -47 -58c20 -30 64 -61 126 -61c90 0 144 73 144 171c0 99 -47 148 -123 148
c-57 0 -99 -27 -134 -61l-36 12l22 320l11 8c61 -25 110 -36 167 -36c61 0 94 13 133 35l12 -21c-38 -53 -89 -80 -154 -80c-50 0 -99 15 -130 27z" />
    <glyph glyph-name="six.osf" horiz-adv-x="510" 
d="M115 290c33 51 88 89 160 89c118 0 189 -81 189 -185c0 -111 -72 -210 -203 -210c-135 0 -215 114 -215 283c0 199 109 359 260 359c91 0 146 -49 146 -106c0 -38 -24 -64 -56 -64c-33 0 -52 22 -52 49c0 21 14 45 42 53c-16 19 -42 29 -77 29
c-111 0 -188 -117 -194 -297zM121 184c0 -86 56 -160 143 -160c80 0 129 66 129 166c0 74 -42 148 -129 148c-81 0 -143 -67 -143 -154z" />
    <glyph glyph-name="seven.osf" horiz-adv-x="494" 
d="M161 -47c0 94 63 285 190 419c33 35 64 71 75 95l-2 2c-38 -22 -65 -31 -93 -31c-67 0 -100 44 -154 44c-48 0 -81 -35 -90 -165h-38v226h40l4 -89h2c19 58 47 94 100 94c75 0 93 -77 155 -77c11 0 30 2 56 16c-8 10 -12 21 -12 32c0 22 18 39 40 39c28 0 44 -21 44 -47
c0 -43 -26 -73 -97 -157c-92 -109 -132 -214 -141 -391c-2 -33 -14 -49 -40 -49c-22 0 -39 13 -39 39z" />
    <glyph glyph-name="eight.osf" horiz-adv-x="515" 
d="M65 457c0 93 76 169 198 169c114 0 186 -74 186 -153c0 -73 -38 -125 -114 -156c89 -34 135 -84 135 -150c0 -100 -92 -183 -218 -183c-124 0 -207 76 -207 163c0 60 28 127 124 165c-73 34 -104 83 -104 145zM402 149c0 66 -53 100 -188 145c-74 -28 -109 -80 -109 -142
c0 -73 62 -129 153 -129c83 0 144 57 144 126zM133 471c0 -66 41 -105 158 -140c72 33 100 80 100 135c0 67 -51 121 -132 121c-79 0 -126 -56 -126 -116z" />
    <glyph glyph-name="nine.osf" horiz-adv-x="510" 
d="M395 244c-34 -57 -88 -91 -159 -91c-113 0 -190 81 -190 188c0 113 89 215 211 215c139 0 207 -122 207 -291c0 -193 -89 -351 -247 -351c-98 0 -163 55 -163 113c0 37 24 66 57 66s51 -23 51 -50c0 -22 -14 -46 -42 -54c15 -20 46 -36 92 -36c115 0 176 99 183 291z
M389 357c0 86 -49 159 -132 159c-90 0 -140 -81 -140 -169c0 -83 42 -154 130 -154c84 0 142 73 142 164z" />
    <glyph glyph-name="dollar.osf" horiz-adv-x="503" 
d="M277 -78h-38v78c-118 6 -200 66 -200 127c0 32 21 58 55 58c31 0 50 -24 50 -50c0 -23 -12 -41 -31 -53c21 -21 65 -42 126 -46v213c-122 32 -178 67 -178 147c0 75 67 143 178 153v68h38v-67c93 -4 177 -59 177 -123c0 -33 -22 -54 -50 -54c-30 0 -49 21 -49 45
s15 41 34 49c-17 19 -55 43 -112 47v-206h1c136 -36 180 -77 180 -152c0 -78 -72 -148 -181 -156v-78zM398 140c0 44 -30 72 -121 99v-202c72 6 121 49 121 103zM120 416c0 -45 32 -71 119 -97v194c-81 -8 -119 -57 -119 -97z" />
    <glyph glyph-name="sterling.osf" horiz-adv-x="556" 
d="M420 243h-162c1 -6 2 -13 2 -19c0 -25 -2 -57 -27 -99c80 -27 136 -75 180 -75c40 0 58 35 72 113l31 -3c-8 -126 -44 -175 -114 -175c-73 0 -125 64 -191 97c-32 -63 -65 -98 -113 -98c-36 0 -70 22 -70 67c0 42 40 89 122 89c17 0 33 -2 48 -5c10 26 10 43 10 55
c0 19 -6 36 -15 53h-142v41h116c-18 28 -34 58 -34 99c0 107 94 173 202 173c115 0 169 -66 169 -123c0 -37 -24 -65 -54 -65c-29 0 -51 21 -51 49c0 26 20 47 45 53c-17 29 -54 47 -110 47c-72 0 -138 -39 -138 -108c0 -48 29 -85 48 -125h176v-41zM101 21
c35 0 57 36 76 75c-13 3 -27 6 -42 6c-45 0 -67 -24 -67 -48s19 -33 33 -33z" />
    <glyph glyph-name="Euro.osf" horiz-adv-x="636" 
d="M43 304v39h94c33 122 137 213 267 213c111 0 185 -67 185 -129c0 -33 -21 -63 -55 -63c-33 0 -54 22 -54 51c0 23 14 43 36 53c-26 35 -74 46 -114 46c-71 0 -171 -39 -198 -171h201v-39h-207c-1 -12 -1 -25 -1 -38s0 -26 1 -38h207v-39h-200c22 -97 88 -153 182 -153
c95 0 156 65 170 157h37c-9 -104 -84 -209 -217 -209c-135 0 -219 91 -244 205h-90v39h84c-1 10 -1 20 -1 31c0 15 1 30 3 45h-86z" />
    <glyph glyph-name="yen.osf" horiz-adv-x="647" 
d="M107 299h126l-126 203h-77v38h244v-38h-87l147 -240l158 240h-82v38h207v-38h-72l-134 -203h122v-39h-148l-32 -48v-27h180v-39h-180v-105h115v-41h-296v41h116v105h-181v39h181v26l-31 49h-150v39z" />
    <glyph glyph-name="space" unicode=" " horiz-adv-x="174" 
 />
    <glyph glyph-name="uni00A0" unicode="&#xa0;" horiz-adv-x="174" 
 />
    <glyph glyph-name="emspace" unicode="&#x2003;" horiz-adv-x="1000" 
 />
    <glyph glyph-name="enspace" unicode="&#x2002;" horiz-adv-x="500" 
 />
    <glyph glyph-name="threeperemspace" unicode="&#x2004;" horiz-adv-x="333" 
 />
    <glyph glyph-name="fourperemspace" unicode="&#x2005;" horiz-adv-x="250" 
 />
    <glyph glyph-name="thinspace" unicode="&#x2009;" horiz-adv-x="133" 
 />
    <glyph glyph-name="hairspace" unicode="&#x200a;" horiz-adv-x="75" 
 />
    <glyph glyph-name="hfjslug" horiz-adv-x="694" 
d="M644 -200h-208l-8 14h-163l-8 -14h-207v303c18 0 32 14 32 32c0 17 -14 32 -32 32v554h100l30 79h334l29 -79h101v-921zM400 563v-172h15v78h38v14h-38v66h43v14h-58zM184 563v-172h15v79h47v-79h15v172h-15v-79h-47v79h-15zM460 394c5 -2 14 -4 21 -4c20 0 31 11 31 36
v137h-16v-137c0 -16 -5 -22 -16 -22c-6 0 -15 3 -20 5v-15zM371 465l-13 3c-2 -9 -5 -21 -8 -30h-1l-16 31c13 12 23 26 23 42c0 17 -9 31 -27 31c-17 0 -28 -14 -28 -31c0 -15 6 -24 14 -39c-15 -12 -23 -28 -23 -47c0 -22 12 -37 29 -37c13 0 23 9 29 24h1l12 -24l12 6
l-17 32c5 12 9 25 13 39zM523 323v-46h8v12l8 8l15 -20h10l-20 26l18 20h-10l-20 -24h-1v24h-8zM488 292l10 -15h9l-12 17c5 2 10 6 10 14c0 9 -7 15 -17 15h-20v-46h8v15h12zM426 276c14 0 24 11 24 24c0 12 -10 24 -24 24s-24 -12 -24 -24c0 -13 10 -24 24 -24zM370 301
l-13 22h-9l18 -29v-17h8v17l18 29h-9zM193 323v-46h34v7h-26v13h23v7h-23v12h26v7h-34zM132 323v-46h8v32l25 -32h7v46h-8v-32l-25 32h-7zM241 323l14 -47h8l11 34h1l11 -34h8l14 47h-8l-10 -35h-1l-11 35h-7l-11 -35h-1l-10 35h-8zM327 479c-7 13 -12 22 -12 32
c0 11 6 19 14 19s13 -8 13 -19c0 -12 -5 -21 -15 -32zM342 423c-5 -13 -12 -21 -20 -21c-9 0 -16 10 -16 25c0 13 7 26 16 35zM487 299h-11v17h11c6 0 10 -3 10 -8s-4 -9 -10 -9zM426 283c-10 0 -16 8 -16 17c0 8 6 17 16 17s16 -9 16 -17c0 -9 -6 -17 -16 -17z" />
    <glyph glyph-name="i.dot" horiz-adv-x="287" 
d="M145 550c-28 0 -49 19 -49 49c0 28 20 50 49 50c25 0 47 -20 47 -49c0 -30 -21 -50 -47 -50zM33 0v40h86v363h-86v40h150v-403h86v-40h-236z" />
    <glyph glyph-name="acute" unicode="&#xb4;" horiz-adv-x="236" 
d="M60 523l51 126c20 50 33 68 56 68c16 0 30 -12 30 -32c0 -22 -16 -41 -45 -79l-64 -83h-28z" />
    <glyph glyph-name="hungarumlaut" unicode="&#x2dd;" horiz-adv-x="288" 
d="M142 523l57 126c22 49 33 68 56 68c15 0 30 -12 30 -32c0 -19 -16 -40 -46 -77l-69 -85h-28zM2 523l57 126c22 49 33 68 56 68c15 0 30 -12 30 -32c0 -19 -16 -40 -46 -77l-69 -85h-28z" />
    <glyph glyph-name="caron.alt" horiz-adv-x="238" 
d="M101 539h-24l-2 145c-1 55 19 67 36 67c14 0 29 -10 29 -36c0 -16 -4 -36 -11 -65z" />
    <glyph glyph-name="grave" unicode="`" horiz-adv-x="238" 
d="M165 523h-28l-64 83c-29 38 -45 57 -45 79c0 20 14 32 30 32c23 0 36 -18 56 -68z" />
    <glyph glyph-name="circumflex" unicode="&#x2c6;" horiz-adv-x="299" 
d="M27 524l106 179h34l106 -179h-31l-92 108l-92 -108h-31z" />
    <glyph glyph-name="caron" unicode="&#x2c7;" horiz-adv-x="299" 
d="M133 533l-106 179h31l92 -108l92 108h31l-106 -179h-34z" />
    <glyph glyph-name="breve" unicode="&#x2d8;" horiz-adv-x="336" 
d="M168 530c-70 0 -118 54 -122 143h24c16 -55 46 -89 98 -89s82 34 98 89h24c-4 -89 -52 -143 -122 -143z" />
    <glyph glyph-name="tilde" unicode="&#x2dc;" horiz-adv-x="331" 
d="M23 529c12 91 39 122 82 122c53 0 91 -66 128 -66c29 0 39 30 46 69h29c-12 -91 -39 -122 -82 -122c-53 0 -91 66 -128 66c-29 0 -39 -30 -46 -69h-29z" />
    <glyph glyph-name="macron" unicode="&#xaf;" horiz-adv-x="321" 
d="M35 542v53h251v-53h-251z" />
    <glyph glyph-name="dieresis" unicode="&#xa8;" horiz-adv-x="322" 
d="M244 546c-25 0 -45 21 -45 48s20 48 45 48s45 -21 45 -48s-20 -48 -45 -48zM78 546c-25 0 -45 21 -45 48s20 48 45 48s45 -21 45 -48s-20 -48 -45 -48z" />
    <glyph glyph-name="dotaccent" unicode="&#x2d9;" horiz-adv-x="192" 
d="M96 527c-26 0 -47 18 -47 47c0 27 20 48 47 48c23 0 45 -19 45 -47c0 -29 -21 -48 -45 -48z" />
    <glyph glyph-name="ring" unicode="&#x2da;" horiz-adv-x="258" 
d="M129 517c-69 0 -105 50 -105 100s36 100 105 100s105 -50 105 -100s-36 -100 -105 -100zM129 547c38 0 60 30 60 70s-22 70 -60 70s-60 -30 -60 -70s22 -70 60 -70z" />
    <glyph glyph-name="commaaccent" unicode="&#x326;" horiz-adv-x="225" 
d="M51 -274l-12 26c48 25 68 51 74 87l-2 2c-6 -4 -12 -6 -21 -6c-22 0 -39 18 -39 42s19 46 46 46c33 0 51 -25 51 -62c0 -59 -32 -106 -97 -135z" />
    <glyph glyph-name="cedilla" unicode="&#xb8;" horiz-adv-x="282" 
d="M113 -233c-34 0 -68 11 -97 30l16 28c25 -15 49 -24 78 -24c33 0 58 17 58 48c0 33 -33 48 -70 48c-18 0 -31 -3 -41 -6l-13 17l96 97h42l-75 -74l1 -2c64 0 108 -30 108 -78c0 -50 -42 -84 -103 -84z" />
    <glyph glyph-name="ogonek" unicode="&#x2db;" horiz-adv-x="269" 
d="M104 -233c-55 0 -91 34 -91 83c0 45 29 83 92 138l30 26h34l-31 -32c-55 -57 -73 -93 -73 -123c0 -34 23 -53 53 -53c25 0 45 13 59 23l16 -22c-24 -23 -54 -40 -89 -40z" />
    </font>
</defs>
</svg>
