<?xml version="1.0" standalone="no"?>
<!DOCTYPE svg PUBLIC "-//W3C//DTD SVG 1.1//EN" "http://www.w3.org/Graphics/SVG/1.1/DTD/svg11.dtd" >
<svg xmlns="http://www.w3.org/2000/svg" xmlns:xlink="http://www.w3.org/1999/xlink" version="1.1">
<metadata>
Created by FontForge 20170812 at Wed Dec  3 17:39:41 2008
 By www-data
Copyright (C) 2004, 2009 Hoefler &#38; Frere-Jones. http://www.typography.com
</metadata>
<defs>
<font id="Sentinel-BoldItalic" horiz-adv-x="593" >
  <font-face 
    font-family="Sentinel Bold"
    font-weight="400"
    font-style="italic"
    font-stretch="normal"
    units-per-em="1000"
    panose-1="0 0 0 0 0 0 0 0 0 0"
    ascent="800"
    descent="-200"
    x-height="478"
    cap-height="658"
    bbox="-155 -364 1214 1122"
    underline-thickness="50"
    underline-position="-100"
    slope="-12"
    stemh="87"
    stemv="129"
    unicode-range="U+0020-FB04"
  />
<missing-glyph horiz-adv-x="500" 
d="M0 -200v1000h500v-1000h-500zM71 750l179 -390l179 390h-358zM50 -76l172 376l-172 376v-752zM450 676l-172 -376l172 -376v752zM250 240l-179 -390h358z" />
    <glyph glyph-name="f_b" unicode="fb" horiz-adv-x="866" 
d="M638 695l-107 -345l8 -3c46 88 104 132 165 132c93 0 139 -71 139 -169c0 -146 -117 -320 -291 -320c-124 0 -187 71 -187 174c0 41 12 101 33 180l11 41h-140l-66 -315c-38 -180 -131 -244 -230 -244c-67 0 -107 37 -107 84c0 39 28 76 72 76c32 0 57 -23 57 -60
c0 -23 -10 -42 -16 -49c34 -1 48 19 67 111l79 397h-87l18 71h84c33 151 119 241 261 241c39 0 71 -6 96 -17zM640 385c-72 0 -135 -153 -135 -248c0 -52 21 -77 52 -77c81 0 134 167 134 247c0 54 -19 78 -51 78zM289 476l-5 -20h144l18 66c-17 11 -28 29 -28 52
c0 22 10 45 27 59c-6 4 -21 8 -40 8c-76 0 -93 -56 -116 -165z" />
    <glyph glyph-name="f_f" unicode="ff" horiz-adv-x="673" 
d="M267 -174c-67 0 -107 37 -107 84c0 39 28 76 72 76c32 0 57 -23 57 -60c0 -23 -10 -42 -16 -49c35 -1 55 19 74 111l79 397h-157l-66 -315c-38 -180 -131 -244 -230 -244c-67 0 -107 37 -107 84c0 39 28 76 72 76c32 0 57 -23 57 -60c0 -23 -10 -42 -16 -49
c34 -1 48 19 67 111l79 397h-87l18 71h84c36 158 126 238 260 238c69 0 116 -20 141 -48c39 33 88 51 148 51c98 0 150 -46 150 -101c0 -43 -29 -84 -78 -84c-40 0 -68 24 -68 62c0 22 10 46 28 60c-7 4 -17 7 -28 7c-68 0 -80 -57 -103 -166l-4 -19h136l-18 -71h-133
l-66 -315c-38 -180 -138 -244 -238 -244zM288 472l-4 -16h157c4 20 10 40 16 58c-24 9 -39 29 -39 57c0 23 10 45 27 59c-6 4 -21 8 -40 8c-76 0 -93 -56 -117 -166z" />
    <glyph glyph-name="f_h" unicode="fh" horiz-adv-x="922" 
d="M654 695l-131 -424l7 -3c69 150 148 211 224 211c59 0 100 -40 100 -104c0 -90 -78 -220 -78 -273c0 -14 7 -19 16 -19c19 0 38 21 69 97l52 -18c-40 -115 -101 -172 -174 -172c-63 0 -99 39 -99 95c0 90 67 198 67 259c0 20 -11 29 -29 29c-40 0 -120 -49 -207 -373
h-147l102 385h-157l-66 -315c-38 -180 -131 -244 -230 -244c-67 0 -107 37 -107 84c0 39 28 76 72 76c32 0 57 -23 57 -60c0 -23 -10 -42 -16 -49c34 -1 48 19 67 111l79 397h-87l18 71h84c33 151 119 241 261 241c41 0 74 -7 99 -19zM289 476l-5 -20h161l16 59
c-26 8 -43 29 -43 59c0 22 10 45 27 59c-6 4 -21 8 -40 8c-76 0 -93 -56 -116 -165z" />
    <glyph glyph-name="fi" unicode="fi" horiz-adv-x="633" 
d="M415 385h-145l-67 -315c-38 -180 -131 -244 -230 -244c-67 0 -107 37 -107 84c0 39 28 76 72 76c32 0 57 -23 57 -60c0 -23 -10 -42 -16 -49c34 -1 48 19 67 111l80 397h-88l18 71h84c34 152 119 241 279 241c117 0 178 -47 178 -106c0 -41 -30 -82 -89 -82
c-49 0 -79 24 -79 63c0 23 11 46 28 60c-9 5 -29 9 -45 9c-81 0 -99 -55 -123 -166l-4 -19h292l-75 -270c-6 -20 -20 -64 -20 -82c0 -17 8 -21 18 -21c18 0 38 18 70 97l51 -18c-40 -115 -99 -172 -174 -172c-62 0 -103 38 -103 99c0 24 7 55 19 99z" />
    <glyph glyph-name="f_j" unicode="fj" horiz-adv-x="586" 
d="M419 697c117 0 178 -47 178 -106c0 -41 -30 -82 -89 -82c-49 0 -79 24 -79 63c0 23 11 46 28 60c-9 5 -29 9 -45 9c-81 0 -99 -55 -123 -166l-4 -19h296l-110 -416c-46 -171 -130 -214 -224 -214c-73 0 -110 38 -110 84v1c-45 -61 -103 -85 -164 -85
c-67 0 -107 37 -107 84c0 39 28 76 72 76c32 0 57 -23 57 -60c0 -23 -10 -42 -16 -49c34 -1 48 19 67 111l80 397h-88l18 71h84c34 152 119 241 279 241zM425 385h-155l-67 -315c-8 -35 -17 -65 -28 -91c9 4 20 7 32 7c33 0 58 -24 58 -60c0 -25 -11 -44 -20 -53
c37 -2 56 19 89 149z" />
    <glyph glyph-name="f_k" unicode="fk" horiz-adv-x="884" 
d="M638 262c77 -7 100 -40 100 -87c0 -29 -8 -52 -8 -70c0 -17 8 -22 18 -22c19 0 37 21 67 97l52 -18c-39 -115 -92 -172 -166 -172c-71 0 -106 45 -106 103c0 30 11 68 11 92c0 31 -10 43 -77 44l-61 -229h-144l102 385h-157l-66 -315c-38 -180 -131 -244 -230 -244
c-67 0 -107 37 -107 84c0 39 28 76 72 76c32 0 57 -23 57 -60c0 -23 -10 -42 -16 -49c34 -1 48 19 67 111l79 397h-87l18 71h84c33 151 119 241 261 241c41 0 74 -7 99 -19l153 17l-111 -415h3c54 0 76 30 124 109c29 48 64 90 124 90c54 0 82 -36 82 -82
c0 -43 -28 -90 -75 -90c-43 0 -65 36 -55 79c-13 -7 -24 -19 -44 -53c-18 -30 -35 -53 -63 -71zM289 476l-5 -20h161l16 59c-26 8 -43 29 -43 59c0 22 10 45 27 59c-6 4 -21 8 -40 8c-76 0 -93 -56 -116 -165z" />
    <glyph glyph-name="fl" unicode="fl" horiz-adv-x="637" 
d="M401 697c40 0 73 -7 98 -18l148 16l-140 -507c-5 -19 -20 -67 -20 -84c0 -16 8 -21 18 -21c18 0 38 18 70 97l51 -18c-40 -115 -98 -172 -174 -172c-63 0 -103 35 -103 98c0 23 7 59 18 101l52 196h-150l-66 -315c-38 -180 -131 -244 -230 -244c-67 0 -107 37 -107 84
c0 39 28 76 72 76c32 0 57 -23 57 -60c0 -23 -10 -42 -16 -49c34 -1 48 19 67 111l79 397h-87l18 71h84c33 151 119 241 261 241zM289 476l-5 -20h154l17 61c-23 10 -37 30 -37 57c0 22 10 45 27 59c-6 4 -21 8 -40 8c-76 0 -93 -56 -116 -165z" />
    <glyph glyph-name="f_f_b" unicode="ffb" horiz-adv-x="1167" 
d="M267 -174c-67 0 -107 37 -107 84c0 39 28 76 72 76c32 0 57 -23 57 -60c0 -23 -10 -42 -16 -49c35 -1 55 19 74 111l79 397h-157l-66 -315c-38 -180 -131 -244 -230 -244c-67 0 -107 37 -107 84c0 39 28 76 72 76c32 0 57 -23 57 -60c0 -23 -10 -42 -16 -49
c34 -1 48 19 67 111l79 397h-87l18 71h84c36 158 126 238 260 238c71 0 119 -21 143 -50c42 34 94 53 159 53c39 0 72 -6 97 -17l140 15l-107 -345l8 -3c47 88 105 132 165 132c93 0 139 -71 139 -169c0 -146 -117 -320 -291 -320c-124 0 -187 71 -187 174
c0 41 13 101 34 180l11 41h-140l-66 -315c-39 -180 -138 -244 -238 -244zM942 385c-72 0 -136 -153 -136 -248c0 -52 21 -77 52 -77c82 0 135 167 135 247c0 54 -19 78 -51 78zM288 472l-4 -16h157c4 20 10 39 16 57c-24 9 -39 30 -39 58c0 23 10 45 27 59c-6 4 -21 8 -40 8
c-76 0 -93 -56 -117 -166zM590 476l-4 -20h144l18 66c-18 10 -29 28 -29 52c0 22 11 45 27 59c-6 4 -20 8 -40 8c-75 0 -92 -56 -116 -165z" />
    <glyph glyph-name="f_f_h" unicode="ffh" horiz-adv-x="1223" 
d="M267 -174c-67 0 -107 37 -107 84c0 39 28 76 72 76c32 0 57 -23 57 -60c0 -23 -10 -42 -16 -49c35 -1 55 19 74 111l79 397h-157l-66 -315c-38 -180 -131 -244 -230 -244c-67 0 -107 37 -107 84c0 39 28 76 72 76c32 0 57 -23 57 -60c0 -23 -10 -42 -16 -49
c34 -1 48 19 67 111l79 397h-87l18 71h84c36 158 126 238 260 238c71 0 119 -21 143 -50c42 34 94 53 159 53c41 0 74 -7 100 -19l153 17l-131 -424l7 -3c69 150 148 211 225 211c58 0 99 -40 99 -104c0 -90 -78 -220 -78 -273c0 -14 7 -19 17 -19c18 0 38 21 68 97l52 -18
c-40 -115 -101 -172 -174 -172c-62 0 -99 39 -99 95c0 90 67 198 67 259c0 20 -11 29 -29 29c-39 0 -119 -49 -207 -373h-147l102 385h-156l-66 -315c-39 -180 -138 -244 -238 -244zM590 476l-4 -20h160l16 59c-26 8 -43 29 -43 59c0 22 11 45 27 59c-6 4 -20 8 -40 8
c-75 0 -92 -56 -116 -165zM288 472l-4 -16h157c4 20 10 39 16 57c-24 9 -39 30 -39 58c0 23 10 45 27 59c-6 4 -21 8 -40 8c-76 0 -93 -56 -117 -166z" />
    <glyph glyph-name="f_f_i" unicode="ffi" horiz-adv-x="934" 
d="M400 694c71 0 119 -22 144 -52c44 36 102 55 176 55c117 0 178 -47 178 -106c0 -41 -30 -82 -89 -82c-49 0 -79 24 -79 63c0 23 11 46 28 60c-9 5 -29 9 -45 9c-81 0 -99 -55 -123 -166l-4 -19h292l-75 -270c-6 -20 -20 -64 -20 -82c0 -17 8 -21 18 -21c18 0 38 18 70 97
l51 -18c-40 -115 -99 -172 -174 -172c-62 0 -103 38 -103 99c0 24 7 55 19 99l52 197h-145l-67 -315c-38 -180 -138 -244 -237 -244c-68 0 -107 37 -107 84c0 39 28 76 72 76c32 0 57 -23 57 -60c0 -23 -10 -42 -16 -49c34 -1 55 19 74 111l80 397h-158l-66 -315
c-38 -180 -131 -244 -230 -244c-67 0 -107 37 -107 84c0 39 28 76 72 76c32 0 57 -23 57 -60c0 -23 -10 -42 -16 -49c34 -1 48 19 67 111l79 397h-87l18 71h84c36 158 126 238 260 238zM288 472l-4 -16h157c5 20 10 39 16 57c-24 9 -39 30 -39 58c0 23 10 45 27 59
c-6 4 -21 8 -40 8c-76 0 -93 -56 -117 -166z" />
    <glyph glyph-name="f_f_j" unicode="ffj" horiz-adv-x="887" 
d="M400 694c71 0 119 -22 144 -52c44 36 102 55 176 55c117 0 178 -47 178 -106c0 -41 -30 -82 -89 -82c-49 0 -79 24 -79 63c0 23 11 46 28 60c-9 5 -29 9 -45 9c-81 0 -99 -55 -123 -166l-4 -19h296l-110 -416c-46 -171 -130 -214 -224 -214c-73 0 -110 38 -110 84v3
c-47 -62 -110 -87 -171 -87c-68 0 -107 37 -107 84c0 39 28 76 72 76c32 0 57 -23 57 -60c0 -23 -10 -42 -16 -49c34 -1 55 19 74 111l80 397h-158l-66 -315c-38 -180 -131 -244 -230 -244c-67 0 -107 37 -107 84c0 39 28 76 72 76c32 0 57 -23 57 -60
c0 -23 -10 -42 -16 -49c34 -1 48 19 67 111l79 397h-87l18 71h84c36 158 126 238 260 238zM726 385h-155l-67 -315c-8 -35 -17 -65 -29 -91c10 5 20 7 33 7c33 0 58 -24 58 -60c0 -25 -11 -44 -20 -53c37 -2 56 19 89 149zM288 472l-4 -16h157c5 20 10 39 16 57
c-24 9 -39 30 -39 58c0 23 10 45 27 59c-6 4 -21 8 -40 8c-76 0 -93 -56 -117 -166z" />
    <glyph glyph-name="f_f_k" unicode="ffk" horiz-adv-x="1185" 
d="M267 -174c-67 0 -107 37 -107 84c0 39 28 76 72 76c32 0 57 -23 57 -60c0 -23 -10 -42 -16 -49c35 -1 55 19 74 111l79 397h-157l-66 -315c-38 -180 -131 -244 -230 -244c-67 0 -107 37 -107 84c0 39 28 76 72 76c32 0 57 -23 57 -60c0 -23 -10 -42 -16 -49
c34 -1 48 19 67 111l79 397h-87l18 71h84c36 158 126 238 260 238c71 0 119 -21 143 -50c42 34 94 53 159 53c41 0 74 -7 100 -19l153 17l-111 -415h2c54 0 76 30 124 109c29 48 64 90 124 90c54 0 82 -36 82 -82c0 -43 -27 -90 -74 -90c-43 0 -66 36 -55 79
c-14 -7 -25 -19 -44 -53c-18 -30 -36 -53 -64 -71c78 -7 101 -40 101 -87c0 -29 -9 -52 -9 -70c0 -17 8 -22 18 -22c19 0 37 21 67 97l52 -18c-39 -115 -92 -172 -166 -172c-70 0 -106 45 -106 103c0 30 12 68 12 92c0 31 -12 43 -77 44l-61 -229h-145l102 385h-156
l-66 -315c-39 -180 -138 -244 -238 -244zM590 476l-4 -20h160l16 59c-26 8 -43 29 -43 59c0 22 11 45 27 59c-6 4 -20 8 -40 8c-75 0 -92 -56 -116 -165zM288 472l-4 -16h157c4 20 10 39 16 57c-24 9 -39 30 -39 58c0 23 10 45 27 59c-6 4 -21 8 -40 8
c-76 0 -93 -56 -117 -166z" />
    <glyph glyph-name="f_f_l" unicode="ffl" horiz-adv-x="938" 
d="M267 -174c-67 0 -107 37 -107 84c0 39 28 76 72 76c32 0 57 -23 57 -60c0 -23 -10 -42 -16 -49c35 -1 55 19 74 111l79 397h-157l-66 -315c-38 -180 -131 -244 -230 -244c-67 0 -107 37 -107 84c0 39 28 76 72 76c32 0 57 -23 57 -60c0 -23 -10 -42 -16 -49
c34 -1 48 19 67 111l79 397h-87l18 71h84c36 158 126 238 260 238c71 0 119 -21 143 -50c42 34 94 53 159 53c40 0 73 -7 99 -18l148 16l-140 -507c-6 -19 -21 -67 -21 -84c0 -16 8 -21 18 -21c19 0 38 18 70 97l52 -18c-40 -115 -99 -172 -175 -172c-63 0 -103 35 -103 98
c0 23 7 59 19 101l52 196h-150l-66 -315c-39 -180 -138 -244 -238 -244zM590 476l-4 -20h154l16 61c-22 9 -37 30 -37 57c0 22 11 45 27 59c-6 4 -20 8 -40 8c-75 0 -92 -56 -116 -165zM288 472l-4 -16h157c4 20 10 39 16 57c-24 9 -39 30 -39 58c0 23 10 45 27 59
c-6 4 -21 8 -40 8c-76 0 -93 -56 -117 -166z" />
    <glyph glyph-name=".notdef" horiz-adv-x="500" 
d="M0 -200v1000h500v-1000h-500zM71 750l179 -390l179 390h-358zM50 -76l172 376l-172 376v-752zM450 676l-172 -376l172 -376v752zM250 240l-179 -390h358z" />
    <glyph glyph-name="A" unicode="A" horiz-adv-x="697" 
d="M344 87h82l-9 123h-211l-70 -123h85l-22 -87h-253l21 87h66l339 575h153l58 -575h82l-21 -87h-322zM250 289h162l-17 249h-4z" />
    <glyph glyph-name="B" unicode="B" horiz-adv-x="660" 
d="M-30 0l22 87h88l121 484h-89l21 87h309c182 0 230 -68 230 -136c0 -80 -57 -159 -213 -175l-2 -7c110 -17 161 -67 161 -138c0 -47 -17 -90 -48 -122c-50 -50 -135 -80 -274 -80h-326zM310 384h62c99 0 141 56 141 114c0 47 -25 73 -103 73h-53zM235 87h66
c112 0 161 50 161 128c0 52 -31 85 -123 85h-50z" />
    <glyph glyph-name="C" unicode="C" horiz-adv-x="682" 
d="M343 -16c-179 0 -285 111 -285 281c0 181 129 409 364 409c82 0 146 -30 182 -84l45 82h91l-65 -262h-95c-8 133 -69 182 -145 182c-161 0 -214 -247 -214 -343c0 -133 76 -171 142 -171c101 0 155 71 202 183l82 -26c-49 -142 -139 -251 -304 -251z" />
    <glyph glyph-name="D" unicode="D" horiz-adv-x="730" 
d="M-30 0l22 87h88l121 484h-89l21 87h265c222 0 334 -110 334 -263c0 -99 -37 -201 -112 -277c-76 -75 -184 -118 -344 -118h-306zM236 85h54c80 0 131 17 180 66c55 55 96 175 96 272c0 102 -52 150 -164 150h-44z" />
    <glyph glyph-name="E" unicode="E" horiz-adv-x="683" 
d="M133 658h601l-59 -234h-79c3 125 -8 149 -93 149h-145l-50 -199h35c56 0 66 11 100 92h78l-66 -267h-76c9 81 3 94 -51 94h-40l-52 -208h142c100 0 119 35 179 175h88l-65 -260h-610l22 87h88l121 484h-89z" />
    <glyph glyph-name="F" unicode="F" horiz-adv-x="651" 
d="M304 363h24c56 0 67 12 99 92h78l-67 -270h-77c11 82 5 96 -51 96h-26l-49 -194h108l-21 -87h-352l22 87h88l121 484h-89l21 87h588l-60 -239h-81c1 135 -19 154 -104 154h-119z" />
    <glyph glyph-name="G" unicode="G" horiz-adv-x="728" 
d="M338 74c88 0 130 79 152 161l5 19h-111l21 87h340l-22 -87h-74l-69 -262h-85l-11 89c-36 -52 -92 -97 -182 -97c-153 0 -244 116 -244 274c0 188 129 416 364 416c82 0 146 -30 182 -84l45 82h91l-64 -256h-108c-7 134 -67 176 -133 176c-161 0 -214 -253 -214 -352
c0 -130 62 -166 117 -166z" />
    <glyph glyph-name="H" unicode="H" horiz-adv-x="791" 
d="M-30 0l22 87h88l121 484h-89l21 87h331l-22 -87h-85l-46 -188h244l47 188h-86l22 87h330l-22 -87h-88l-121 -484h89l-21 -87h-330l21 87h85l53 212h-244l-53 -212h85l-21 -87h-331z" />
    <glyph glyph-name="I" unicode="I" horiz-adv-x="397" 
d="M-27 0l22 87h88l121 484h-89l21 87h334l-21 -87h-89l-120 -484h89l-21 -87h-335z" />
    <glyph glyph-name="J" unicode="J" horiz-adv-x="577" 
d="M563 571l-91 -361c-34 -136 -108 -226 -259 -226c-142 0 -218 73 -218 162c0 68 42 119 104 119c48 0 81 -32 81 -77c0 -43 -25 -75 -66 -89c11 -20 39 -35 77 -35c58 0 97 36 120 130l95 377h-96l22 87h337l-22 -87h-84z" />
    <glyph glyph-name="K" unicode="K" horiz-adv-x="726" 
d="M710 571l-226 -180l141 -304h78l-22 -87h-320l22 86h69l-90 207l-93 -74l-32 -133h77l-21 -86h-323l22 87h88l121 484h-89l21 87h326l-21 -86h-81l-59 -239l285 239h-75l21 86h277l-22 -87h-74z" />
    <glyph glyph-name="L" unicode="L" horiz-adv-x="613" 
d="M133 658h345l-22 -85h-99l-121 -488h99c101 0 118 36 180 183h80l-67 -268h-558l22 87h88l121 484h-89z" />
    <glyph glyph-name="M" unicode="M" horiz-adv-x="928" 
d="M-28 0l21 87h80l121 484h-82l22 87h292l36 -412h4l233 412h306l-21 -87h-86l-120 -484h86l-21 -87h-318l21 87h76l115 463h-10l-320 -551h-67l-54 551h-9l-115 -463h80l-22 -87h-248z" />
    <glyph glyph-name="N" unicode="N" horiz-adv-x="776" 
d="M470 -9l-184 512h-9l-104 -416h89l-21 -87h-263l21 87h84l121 484h-86l22 87h252l167 -462h9l93 375h-90l22 87h264l-21 -87h-86l-144 -580h-136z" />
    <glyph glyph-name="O" unicode="O" horiz-adv-x="735" 
d="M58 275c0 173 125 399 376 399c171 0 292 -117 292 -291c0 -173 -125 -399 -376 -399c-172 0 -292 117 -292 291zM432 592c-152 0 -211 -254 -211 -372c0 -107 53 -154 130 -154c153 0 211 254 211 372c0 107 -52 154 -130 154z" />
    <glyph glyph-name="P" unicode="P" horiz-adv-x="643" 
d="M278 255l-42 -168h96l-22 -87h-340l22 87h88l121 484h-89l21 87h290c193 0 261 -69 261 -172c0 -109 -77 -231 -322 -231h-84zM299 338h61c120 0 154 88 154 153c0 59 -36 84 -118 84h-38z" />
    <glyph glyph-name="Q" unicode="Q" horiz-adv-x="735" 
d="M355 -13c-180 0 -297 114 -297 288c0 173 125 399 376 399c171 0 292 -117 292 -291c0 -124 -64 -273 -190 -348c16 -40 33 -49 56 -49c29 0 48 16 75 80l56 -20c-33 -111 -86 -160 -159 -160c-85 0 -119 43 -142 107c-21 -4 -44 -6 -67 -6zM228 170c21 56 62 99 132 99
c80 0 114 -48 138 -107c50 88 64 208 64 276c0 107 -52 154 -130 154c-152 0 -211 -254 -211 -372c0 -18 3 -39 7 -50zM353 65c14 0 31 1 49 7c-12 65 -32 106 -77 106c-36 0 -59 -29 -59 -57c0 -38 42 -56 87 -56z" />
    <glyph glyph-name="R" unicode="R" horiz-adv-x="705" 
d="M-30 0l22 87h88l121 484h-89l21 87h335c173 0 228 -72 228 -146c0 -97 -73 -173 -241 -184l-2 -7c100 -15 133 -58 133 -111c0 -32 -11 -72 -11 -97c0 -24 13 -30 28 -30s29 10 52 47l43 -33c-37 -67 -81 -111 -158 -111c-75 0 -124 36 -124 100c0 44 20 96 20 144
c0 36 -26 57 -89 57h-61l-50 -200h91l-21 -87h-336zM306 368h69c49 0 91 11 118 38c21 22 34 56 34 95c0 43 -24 74 -96 74h-73z" />
    <glyph glyph-name="S" unicode="S" horiz-adv-x="611" 
d="M-10 -14l60 252h85c14 -111 87 -171 181 -171c65 0 109 36 109 85c0 53 -65 78 -136 108c-87 37 -184 82 -184 195c0 126 108 219 238 219c75 0 142 -28 179 -78l42 76h86l-58 -243h-86c-14 113 -68 162 -154 162c-59 0 -101 -36 -101 -83c0 -58 67 -83 140 -114
c86 -37 180 -80 180 -189c0 -131 -111 -221 -246 -221c-94 0 -161 31 -204 84l-46 -82h-85z" />
    <glyph glyph-name="T" unicode="T" horiz-adv-x="694" 
d="M105 0l21 87h101l125 496h-29c-77 0 -93 -24 -171 -190h-81l66 265h624l-67 -265h-70c-1 163 -8 190 -86 190h-23l-125 -496h105l-21 -87h-369z" />
    <glyph glyph-name="U" unicode="U" horiz-adv-x="731" 
d="M338 -16c-161 0 -244 81 -244 183c0 28 8 66 15 95l77 309h-84l21 87h329l-21 -87h-87l-80 -318c-7 -28 -10 -50 -10 -71c0 -70 54 -99 121 -99c43 0 80 13 109 42c26 26 44 62 56 112l84 334h-85l21 87h259l-22 -87h-80l-89 -357c-15 -60 -39 -114 -81 -156
c-46 -46 -113 -74 -209 -74z" />
    <glyph glyph-name="V" unicode="V" horiz-adv-x="705" 
d="M324 571l39 -433h6l250 433h-84l21 87h254l-22 -87h-66l-347 -575h-142l-67 575h-83l22 87h322l-22 -87h-81z" />
    <glyph glyph-name="W" unicode="W" horiz-adv-x="1023" 
d="M584 -4l-23 366l-214 -366h-141l-36 575h-87l22 87h313l-21 -86h-70l19 -420h6l201 341l-5 79h-77l21 86h305l-21 -86h-77l18 -420h6l216 420h-87l21 86h255l-21 -87h-68l-310 -575h-145z" />
    <glyph glyph-name="X" unicode="X" horiz-adv-x="696" 
d="M413 572h-72l74 -163l159 163h-73l21 86h265l-22 -87h-74l-233 -226l127 -258h80l-22 -87h-323l22 86h73l-77 172l-169 -172h74l-22 -86h-264l21 87h75l242 236l-124 248h-81l22 87h323z" />
    <glyph glyph-name="Y" unicode="Y" horiz-adv-x="653" 
d="M400 355l175 217h-79l22 86h249l-21 -87h-68l-255 -301l-46 -183h89l-21 -87h-335l21 87h89l46 185l-105 299h-76l21 87h325l-21 -86h-80z" />
    <glyph glyph-name="Z" unicode="Z" horiz-adv-x="636" 
d="M-25 0l20 79l489 494h-135c-78 0 -100 -18 -182 -177h-76l66 262h544l-20 -79l-490 -494h157c78 0 99 20 184 187h75l-68 -272h-564z" />
    <glyph glyph-name="a" unicode="a" 
d="M545 469l-83 -314c-5 -22 -8 -36 -8 -48c0 -17 9 -24 20 -24c21 0 40 23 66 97l51 -18c-38 -118 -94 -172 -167 -172c-56 0 -94 31 -94 93c0 7 1 16 2 25l-8 3c-39 -82 -94 -121 -157 -121c-96 0 -143 76 -143 164c0 102 45 202 99 257c45 44 90 68 147 68
c61 0 97 -44 108 -92l23 82h144zM225 82c74 0 132 162 132 244c0 50 -17 75 -50 75c-76 0 -131 -161 -131 -245c0 -54 21 -74 49 -74z" />
    <glyph glyph-name="b" unicode="b" horiz-adv-x="540" 
d="M315 385c-72 0 -136 -153 -136 -248c0 -52 22 -77 53 -77c81 0 134 167 134 247c0 54 -19 78 -51 78zM311 690l-105 -340l7 -3c47 88 105 132 166 132c92 0 138 -71 138 -169c0 -146 -117 -320 -291 -320c-123 0 -187 71 -187 174c0 41 13 101 34 180l71 261h-74l22 85
h219z" />
    <glyph glyph-name="c" unicode="c" horiz-adv-x="491" 
d="M314 479c85 0 159 -46 159 -132c0 -52 -35 -98 -84 -98c-41 0 -66 26 -66 62c0 35 26 60 50 71c-7 18 -24 30 -53 30c-88 0 -146 -127 -146 -226c0 -90 49 -112 89 -112c46 0 90 28 130 85l46 -37c-45 -66 -109 -132 -218 -132c-119 0 -197 73 -197 188
c0 163 137 301 290 301z" />
    <glyph glyph-name="d" unicode="d" 
d="M225 82c74 0 133 162 133 252c0 53 -22 67 -49 67c-81 0 -133 -161 -133 -245c0 -54 21 -74 49 -74zM540 180l51 -18c-38 -118 -94 -172 -167 -172c-56 0 -94 31 -94 94c0 10 1 16 2 24l-8 3c-39 -82 -94 -121 -157 -121c-96 0 -143 76 -143 164c0 102 45 202 99 257
c45 44 90 68 147 68c60 0 96 -41 111 -84l56 210h-74l22 85h218l-141 -535c-5 -22 -8 -36 -8 -48c0 -17 9 -24 20 -24c21 0 40 23 66 97z" />
    <glyph glyph-name="e" unicode="e" horiz-adv-x="492" 
d="M479 363c0 -91 -92 -166 -308 -173v-8c0 -88 48 -114 97 -114c44 0 89 25 134 80l44 -36c-53 -68 -119 -122 -227 -122c-118 0 -196 72 -196 187c0 155 131 302 302 302c99 0 154 -48 154 -116zM305 416c-61 0 -110 -90 -127 -173c130 9 169 68 169 122
c0 31 -15 51 -42 51z" />
    <glyph glyph-name="f" unicode="f" horiz-adv-x="372" 
d="M-27 -174c-67 0 -107 37 -107 84c0 39 28 76 72 76c32 0 57 -23 57 -60c0 -23 -10 -42 -16 -49c34 -1 48 19 67 111l80 397h-88l18 71h84c35 160 120 241 247 241c99 0 150 -46 150 -101c0 -43 -28 -84 -78 -84c-39 0 -67 24 -67 62c0 22 10 46 28 60c-7 4 -17 7 -28 7
c-69 0 -80 -57 -103 -166l-4 -19h136l-19 -71h-132l-67 -315c-38 -180 -131 -244 -230 -244z" />
    <glyph glyph-name="g" unicode="g" horiz-adv-x="550" 
d="M110 -111c12 -4 33 -8 51 -8c35 0 63 11 86 34c27 28 50 74 75 177l-10 4c-30 -45 -74 -72 -133 -72c-100 0 -148 75 -148 165c0 87 33 169 89 225c44 44 88 65 142 65c64 0 108 -43 120 -92l22 82h144l-97 -413c-42 -181 -159 -230 -281 -230c-61 0 -183 15 -183 106
c0 38 27 78 76 78c46 0 70 -32 70 -68c0 -22 -11 -41 -23 -53zM238 108c68 0 120 117 120 213c0 50 -23 80 -57 80c-75 0 -119 -131 -119 -213c0 -57 22 -80 56 -80z" />
    <glyph glyph-name="h" unicode="h" horiz-adv-x="601" 
d="M418 -10c-62 0 -99 39 -99 95c0 90 67 198 67 259c0 20 -11 29 -29 29c-39 0 -119 -49 -207 -373h-147l161 605h-74l22 85h219l-129 -419l7 -3c69 150 148 211 225 211c58 0 99 -40 99 -104c0 -90 -78 -220 -78 -273c0 -14 7 -19 17 -19c18 0 38 21 68 97l52 -18
c-40 -115 -101 -172 -174 -172z" />
    <glyph glyph-name="i" unicode="i" horiz-adv-x="362" 
d="M344 636c0 -44 -35 -95 -97 -95c-43 0 -75 28 -75 74c0 44 35 96 96 96c44 0 76 -29 76 -75zM292 384c0 -81 -82 -229 -82 -281c0 -15 8 -20 18 -20c18 0 38 18 70 97l52 -18c-40 -114 -101 -172 -176 -172c-59 0 -102 37 -102 99c0 82 83 229 83 280c0 15 -6 19 -15 19
c-21 0 -44 -39 -72 -99l-51 20c46 108 101 170 180 170c56 0 95 -38 95 -95z" />
    <glyph glyph-name="j" unicode="j" horiz-adv-x="325" 
d="M344 636c0 -44 -35 -95 -97 -95c-43 0 -75 28 -75 74c0 44 34 96 96 96c44 0 76 -29 76 -75zM292 385c0 -25 -6 -58 -14 -90l-68 -255c-42 -157 -121 -214 -226 -214c-76 0 -114 37 -114 84c0 39 27 76 72 76c33 0 58 -24 58 -59c0 -26 -11 -45 -20 -54
c40 -2 60 24 93 153l61 239c8 29 20 79 20 103c0 16 -7 20 -15 20c-20 0 -44 -38 -71 -99l-52 20c46 108 102 170 181 170c55 0 95 -38 95 -94z" />
    <glyph glyph-name="k" unicode="k" horiz-adv-x="563" 
d="M409 105c0 -17 8 -22 18 -22c19 0 37 21 67 97l52 -18c-39 -115 -92 -172 -166 -172c-70 0 -106 45 -106 103c0 30 11 68 11 92c0 31 -11 43 -76 44l-61 -229h-145l161 605h-74l22 85h219l-109 -410h2c54 0 76 30 124 109c29 48 64 90 124 90c54 0 82 -36 82 -82
c0 -43 -28 -90 -74 -90c-43 0 -66 36 -55 79c-14 -7 -25 -19 -44 -53c-19 -30 -36 -53 -64 -71c78 -7 101 -40 101 -87c0 -29 -9 -52 -9 -70z" />
    <glyph glyph-name="l" unicode="l" horiz-adv-x="322" 
d="M35 88c0 23 7 59 18 101l111 416h-73l22 85h219l-139 -502c-6 -21 -21 -68 -21 -85c0 -16 9 -20 18 -20c20 0 39 21 70 97l52 -18c-40 -115 -99 -172 -174 -172c-63 0 -103 35 -103 98z" />
    <glyph glyph-name="m" unicode="m" horiz-adv-x="927" 
d="M744 -10c-62 0 -99 39 -99 95c0 90 67 198 67 259c0 20 -11 29 -27 29c-39 0 -115 -49 -198 -373h-147l70 255c13 47 16 70 16 85c0 19 -10 33 -30 33c-39 0 -116 -49 -199 -373h-147l85 320c15 58 10 68 -4 68c-20 0 -43 -39 -70 -99l-52 20c46 107 99 169 174 169
c45 0 78 -31 78 -95c0 -26 -3 -60 -18 -111l8 -3c68 151 145 210 213 210c58 0 91 -35 91 -96c0 -27 -7 -60 -22 -111l8 -3c68 151 145 210 220 210c57 0 98 -40 98 -104c0 -90 -78 -220 -78 -273c0 -14 7 -19 17 -19c18 0 38 21 68 97l52 -18c-40 -115 -101 -172 -174 -172
z" />
    <glyph glyph-name="n" unicode="n" horiz-adv-x="640" 
d="M494 102c0 -14 7 -19 17 -19c18 0 38 21 68 97l52 -18c-40 -115 -101 -172 -174 -172c-62 0 -99 39 -99 95c0 90 67 198 67 259c0 20 -11 29 -29 29c-39 0 -116 -49 -199 -373h-147l85 320c15 58 10 68 -4 68c-20 0 -43 -39 -70 -99l-52 20c46 107 99 169 174 169
c45 0 78 -31 78 -95c0 -26 -3 -60 -18 -111l8 -3c68 151 145 210 222 210c58 0 99 -40 99 -104c0 -90 -78 -220 -78 -273z" />
    <glyph glyph-name="o" unicode="o" horiz-adv-x="535" 
d="M305 479c123 0 206 -82 206 -197c0 -159 -134 -292 -281 -292c-123 0 -206 81 -206 196c0 159 134 293 281 293zM363 336c0 62 -25 79 -56 79c-87 0 -135 -199 -135 -283c0 -62 25 -79 55 -79c88 0 136 199 136 283z" />
    <glyph glyph-name="p" unicode="p" horiz-adv-x="592" 
d="M367 385c-72 0 -128 -145 -128 -240c0 -46 17 -76 55 -76c76 0 124 160 124 239c0 53 -19 77 -51 77zM134 315c15 57 5 67 -7 67c-20 0 -38 -31 -66 -93l-52 20c49 114 95 169 165 169c52 0 85 -40 85 -102c0 -9 0 -16 -1 -26l7 -3c41 89 105 132 164 132
c94 0 141 -69 141 -169c0 -142 -97 -310 -234 -310c-56 0 -100 26 -122 75l-39 -153h85l-22 -83h-296l22 83h66z" />
    <glyph glyph-name="q" unicode="q" horiz-adv-x="555" 
d="M548 469l-137 -547h68l-22 -83h-296l22 83h82l48 173l-8 3c-29 -52 -75 -98 -140 -98c-90 0 -139 75 -139 169c0 95 39 184 96 241c42 42 94 69 149 69c63 0 99 -44 111 -92l22 82h144zM228 91c71 0 132 151 132 235c0 50 -18 75 -51 75c-77 0 -131 -152 -131 -233
c0 -58 23 -77 50 -77z" />
    <glyph glyph-name="r" unicode="r" horiz-adv-x="506" 
d="M50 0l85 320c15 58 10 68 -4 68c-20 0 -43 -39 -70 -99l-52 20c46 107 99 169 174 169c45 0 78 -31 78 -95c0 -26 -3 -57 -16 -102l9 -3c56 132 102 201 179 201c48 0 86 -37 86 -89c0 -56 -37 -100 -85 -100c-38 0 -74 26 -71 77c-22 -9 -87 -59 -166 -367h-147z" />
    <glyph glyph-name="s" unicode="s" horiz-adv-x="467" 
d="M420 147c0 -107 -99 -157 -207 -157c-115 0 -206 47 -206 119c0 45 32 77 74 77c47 0 69 -32 69 -64c0 -20 -8 -41 -22 -56c14 -10 40 -20 76 -20c52 0 78 26 78 64s-43 57 -90 79c-65 31 -126 62 -126 132c0 105 106 158 206 158c113 0 187 -51 187 -113
c0 -43 -31 -73 -71 -73c-48 0 -71 32 -71 61c0 22 8 41 20 53c-8 7 -31 15 -58 15c-48 0 -78 -26 -78 -61c0 -40 47 -58 108 -88c51 -26 111 -55 111 -126z" />
    <glyph glyph-name="t" unicode="t" horiz-adv-x="409" 
d="M413 385h-146l-56 -208c-5 -19 -8 -39 -8 -50c0 -30 16 -40 36 -40c36 0 62 38 88 104l54 -17c-46 -141 -123 -184 -196 -184c-71 0 -128 34 -128 114c0 25 7 61 15 91l52 190h-85l18 71h86l32 117l147 17l-36 -134h146z" />
    <glyph glyph-name="u" unicode="u" horiz-adv-x="642" 
d="M472 -10c-57 0 -95 30 -95 96c0 26 6 58 23 117l-8 3c-71 -158 -141 -216 -217 -216c-59 0 -102 39 -102 103c0 89 73 222 73 273c0 14 -7 20 -16 20c-17 0 -34 -18 -68 -97l-52 20c40 106 99 170 176 170c62 0 98 -38 98 -95c0 -86 -64 -195 -64 -254
c0 -25 10 -35 28 -35c40 0 113 48 196 374h147l-82 -314c-5 -22 -8 -37 -8 -48c0 -18 10 -24 20 -24c21 0 40 23 66 97l51 -18c-38 -118 -95 -172 -166 -172z" />
    <glyph glyph-name="v" unicode="v" horiz-adv-x="537" 
d="M190 478c61 0 94 -37 94 -89c0 -83 -67 -182 -67 -242c0 -38 28 -60 64 -60c94 0 166 160 165 245c-8 -5 -21 -9 -36 -9c-38 0 -68 27 -68 71c0 45 35 87 83 87c53 0 96 -35 96 -125c0 -140 -120 -367 -289 -367c-92 0 -157 63 -157 140c0 89 73 193 73 237
c0 14 -6 19 -15 19c-24 0 -43 -31 -74 -96l-52 20c48 107 104 169 183 169z" />
    <glyph glyph-name="w" unicode="w" horiz-adv-x="790" 
d="M191 478c61 0 94 -37 94 -89c0 -99 -83 -203 -83 -265c0 -22 10 -39 35 -39c53 0 113 83 182 384h132l-36 -153c-15 -64 -24 -116 -24 -158c0 -57 25 -71 55 -71c91 0 154 159 153 245c-8 -5 -21 -9 -36 -9c-37 0 -68 27 -68 71c0 45 35 87 84 87c52 0 95 -37 95 -123
c0 -140 -98 -369 -270 -369c-73 0 -129 38 -129 142v14l-5 2c-37 -85 -91 -158 -180 -158c-73 0 -130 48 -130 127c0 95 90 192 90 251c0 13 -7 18 -16 18c-24 0 -42 -31 -74 -96l-52 20c48 107 104 169 183 169z" />
    <glyph glyph-name="x" unicode="x" horiz-adv-x="599" 
d="M367 174c0 -60 18 -87 47 -87c34 0 55 33 81 108l53 -20c-31 -104 -80 -186 -175 -186c-69 0 -116 42 -127 149l-6 -1c-39 -99 -94 -148 -159 -148c-51 0 -87 33 -87 84c0 45 27 86 72 86c48 0 69 -41 61 -85c64 22 104 144 104 220c0 60 -16 87 -46 87
c-33 0 -54 -34 -81 -108l-52 20c30 104 78 186 176 186c65 0 112 -42 124 -149h6c39 100 94 149 158 149c52 0 88 -33 88 -85c0 -44 -28 -85 -72 -85c-48 0 -70 40 -61 84c-65 -21 -104 -143 -104 -219z" />
    <glyph glyph-name="y" unicode="y" horiz-adv-x="578" 
d="M189 478c58 0 92 -37 92 -90c0 -83 -57 -181 -57 -231c0 -23 12 -32 31 -32c42 0 106 37 185 344h136l-98 -412c-44 -184 -159 -231 -277 -231c-58 0 -175 13 -175 102c0 36 28 76 76 76c46 0 71 -32 70 -67c0 -22 -13 -40 -24 -50c10 -3 22 -6 42 -6
c78 0 121 54 151 173l28 106l-6 3c-58 -106 -117 -138 -177 -138c-70 0 -105 46 -105 102c0 78 66 184 66 240c0 13 -7 18 -14 18c-24 0 -47 -37 -75 -96l-52 20c48 107 105 169 183 169z" />
    <glyph glyph-name="z" unicode="z" horiz-adv-x="502" 
d="M176 149c66 -4 117 -28 159 -28s58 15 91 89l51 -15c-41 -137 -80 -206 -173 -206c-56 0 -106 27 -143 83l-21 33l-9 -2c-14 -87 -51 -114 -82 -114c-39 0 -67 30 -67 65c0 43 39 78 125 94c67 80 141 133 219 171c-67 4 -110 28 -150 28s-62 -16 -95 -90l-50 16
c41 137 82 206 177 206c49 0 96 -28 132 -83l22 -33l9 2c14 87 50 114 82 114c39 0 67 -31 67 -66c0 -43 -39 -77 -125 -93c-67 -80 -141 -134 -219 -171z" />
    <glyph glyph-name="Aacute" unicode="&#xc1;" horiz-adv-x="697" 
d="M344 87h82l-9 123h-211l-70 -123h85l-22 -87h-253l21 87h66l339 575h153l58 -575h82l-21 -87h-322zM250 289h162l-17 249h-4zM566 795l-93 -66h-70l83 134c29 48 53 82 92 82c38 0 63 -30 63 -60c0 -39 -29 -58 -75 -90z" />
    <glyph glyph-name="aacute" unicode="&#xe1;" 
d="M545 469l-83 -314c-5 -22 -8 -36 -8 -48c0 -17 9 -24 20 -24c21 0 40 23 66 97l51 -18c-38 -118 -94 -172 -167 -172c-56 0 -94 31 -94 93c0 7 1 16 2 25l-8 3c-39 -82 -94 -121 -157 -121c-96 0 -143 76 -143 164c0 102 45 202 99 257c45 44 90 68 147 68
c61 0 97 -44 108 -92l23 82h144zM225 82c74 0 132 162 132 244c0 50 -17 75 -50 75c-76 0 -131 -161 -131 -245c0 -54 21 -74 49 -74zM454 601l-93 -66h-70l83 134c29 48 53 82 92 82c38 0 63 -30 63 -60c0 -39 -29 -58 -75 -90z" />
    <glyph glyph-name="Abreve" unicode="&#x102;" horiz-adv-x="697" 
d="M344 87h82l-9 123h-211l-70 -123h85l-22 -87h-253l21 87h66l339 575h153l58 -575h82l-21 -87h-322zM250 289h162l-17 249h-4zM464 727c-91 0 -149 59 -122 184h68c-5 -60 25 -85 70 -85c47 0 82 28 103 85h71c-25 -124 -96 -184 -190 -184z" />
    <glyph glyph-name="abreve" unicode="&#x103;" 
d="M545 469l-83 -314c-5 -22 -8 -36 -8 -48c0 -17 9 -24 20 -24c21 0 40 23 66 97l51 -18c-38 -118 -94 -172 -167 -172c-56 0 -94 31 -94 93c0 7 1 16 2 25l-8 3c-39 -82 -94 -121 -157 -121c-96 0 -143 76 -143 164c0 102 45 202 99 257c45 44 90 68 147 68
c61 0 97 -44 108 -92l23 82h144zM225 82c74 0 132 162 132 244c0 50 -17 75 -50 75c-76 0 -131 -161 -131 -245c0 -54 21 -74 49 -74zM351 533c-91 0 -149 59 -122 184h68c-5 -60 25 -85 70 -85c47 0 82 28 103 85h71c-25 -124 -96 -184 -190 -184z" />
    <glyph glyph-name="Acircumflex" unicode="&#xc2;" horiz-adv-x="697" 
d="M344 87h82l-9 123h-211l-70 -123h85l-22 -87h-253l21 87h66l339 575h153l58 -575h82l-21 -87h-322zM250 289h162l-17 249h-4zM290 729l172 197h81l74 -197h-81l-54 86l-102 -86h-90z" />
    <glyph glyph-name="acircumflex" unicode="&#xe2;" 
d="M545 469l-83 -314c-5 -22 -8 -36 -8 -48c0 -17 9 -24 20 -24c21 0 40 23 66 97l51 -18c-38 -118 -94 -172 -167 -172c-56 0 -94 31 -94 93c0 7 1 16 2 25l-8 3c-39 -82 -94 -121 -157 -121c-96 0 -143 76 -143 164c0 102 45 202 99 257c45 44 90 68 147 68
c61 0 97 -44 108 -92l23 82h144zM225 82c74 0 132 162 132 244c0 50 -17 75 -50 75c-76 0 -131 -161 -131 -245c0 -54 21 -74 49 -74zM177 535l172 197h81l74 -197h-81l-54 86l-102 -86h-90z" />
    <glyph glyph-name="Adieresis" unicode="&#xc4;" horiz-adv-x="697" 
d="M344 87h82l-9 123h-211l-70 -123h85l-22 -87h-253l21 87h66l339 575h153l58 -575h82l-21 -87h-322zM250 289h162l-17 249h-4zM459 819c0 -40 -31 -87 -84 -87c-38 0 -66 26 -66 68c0 39 31 86 84 86c38 0 66 -26 66 -67zM655 819c0 -40 -31 -87 -84 -87
c-38 0 -66 26 -66 68c0 39 31 86 84 86c38 0 66 -26 66 -67z" />
    <glyph glyph-name="adieresis" unicode="&#xe4;" 
d="M545 469l-83 -314c-5 -22 -8 -36 -8 -48c0 -17 9 -24 20 -24c21 0 40 23 66 97l51 -18c-38 -118 -94 -172 -167 -172c-56 0 -94 31 -94 93c0 7 1 16 2 25l-8 3c-39 -82 -94 -121 -157 -121c-96 0 -143 76 -143 164c0 102 45 202 99 257c45 44 90 68 147 68
c61 0 97 -44 108 -92l23 82h144zM225 82c74 0 132 162 132 244c0 50 -17 75 -50 75c-76 0 -131 -161 -131 -245c0 -54 21 -74 49 -74zM346 625c0 -40 -31 -87 -84 -87c-38 0 -66 26 -66 68c0 39 31 86 84 86c38 0 66 -26 66 -67zM542 625c0 -40 -31 -87 -84 -87
c-38 0 -66 26 -66 68c0 39 31 86 84 86c38 0 66 -26 66 -67z" />
    <glyph glyph-name="AE" unicode="&#xc6;" horiz-adv-x="1037" 
d="M346 87h89l33 133h-222l-116 -134h79l-21 -86h-261l21 87h65l431 484h-91l22 87h714l-59 -234h-79c3 125 -8 149 -93 149h-145l-50 -199h35c56 0 66 11 100 92h78l-66 -267h-77c10 81 4 94 -50 94h-40l-52 -208h142c100 0 119 35 178 175h88l-65 -260h-609zM313 299h175
l68 270h-11z" />
    <glyph glyph-name="ae" unicode="&#xe6;" horiz-adv-x="761" 
d="M593 479c99 0 154 -48 154 -116c0 -91 -92 -166 -307 -173v-8c0 -88 47 -114 96 -114c44 0 89 25 134 80l44 -36c-53 -68 -119 -122 -224 -122c-82 0 -141 33 -168 91c-60 -71 -128 -90 -181 -90c-90 0 -132 52 -132 114c0 110 123 155 308 163c10 35 14 62 14 72
c0 45 -30 68 -81 68c-17 0 -35 -3 -50 -9c9 -9 14 -26 14 -38c0 -41 -32 -69 -76 -69c-45 0 -66 33 -66 62c0 78 89 124 207 124c74 0 123 -20 148 -54c49 35 106 55 166 55zM574 416c-62 0 -110 -90 -128 -173c130 9 170 68 170 122c0 31 -16 51 -42 51zM303 173
c0 15 0 31 3 47c-88 -10 -155 -31 -155 -93c0 -27 18 -53 51 -53c30 0 67 15 104 59c-2 12 -3 26 -3 40z" />
    <glyph glyph-name="AEacute" unicode="&#x1fc;" horiz-adv-x="1037" 
d="M798 795l-93 -66h-70l83 134c29 48 53 82 92 82c38 0 63 -30 63 -60c0 -39 -29 -58 -75 -90zM346 87h89l33 133h-222l-116 -134h79l-21 -86h-261l21 87h65l431 484h-91l22 87h714l-59 -234h-79c3 125 -8 149 -93 149h-145l-50 -199h35c56 0 66 11 100 92h78l-66 -267h-77
c10 81 4 94 -50 94h-40l-52 -208h142c100 0 119 35 178 175h88l-65 -260h-609zM313 299h175l68 270h-11z" />
    <glyph glyph-name="aeacute" unicode="&#x1fd;" horiz-adv-x="761" 
d="M593 479c99 0 154 -48 154 -116c0 -91 -92 -166 -307 -173v-8c0 -88 47 -114 96 -114c44 0 89 25 134 80l44 -36c-53 -68 -119 -122 -224 -122c-82 0 -141 33 -168 91c-60 -71 -128 -90 -181 -90c-90 0 -132 52 -132 114c0 110 123 155 308 163c10 35 14 62 14 72
c0 45 -30 68 -81 68c-17 0 -35 -3 -50 -9c9 -9 14 -26 14 -38c0 -41 -32 -69 -76 -69c-45 0 -66 33 -66 62c0 78 89 124 207 124c74 0 123 -20 148 -54c49 35 106 55 166 55zM571 601l-93 -66h-70l83 134c29 48 53 82 92 82c38 0 63 -30 63 -60c0 -39 -29 -58 -75 -90z
M574 416c-62 0 -110 -90 -128 -173c130 9 170 68 170 122c0 31 -16 51 -42 51zM303 173c0 15 0 31 3 47c-88 -10 -155 -31 -155 -93c0 -27 18 -53 51 -53c30 0 67 15 104 59c-2 12 -3 26 -3 40z" />
    <glyph glyph-name="Agrave" unicode="&#xc0;" horiz-adv-x="697" 
d="M344 87h82l-9 123h-211l-70 -123h85l-22 -87h-253l21 87h66l339 575h153l58 -575h82l-21 -87h-322zM250 289h162l-17 249h-4zM467 840l25 -111h-63l-53 65c-36 41 -48 65 -48 90c0 30 24 62 64 62c50 0 62 -47 75 -106z" />
    <glyph glyph-name="agrave" unicode="&#xe0;" 
d="M545 469l-83 -314c-5 -22 -8 -36 -8 -48c0 -17 9 -24 20 -24c21 0 40 23 66 97l51 -18c-38 -118 -94 -172 -167 -172c-56 0 -94 31 -94 93c0 7 1 16 2 25l-8 3c-39 -82 -94 -121 -157 -121c-96 0 -143 76 -143 164c0 102 45 202 99 257c45 44 90 68 147 68
c61 0 97 -44 108 -92l23 82h144zM225 82c74 0 132 162 132 244c0 50 -17 75 -50 75c-76 0 -131 -161 -131 -245c0 -54 21 -74 49 -74zM355 646l25 -111h-63l-53 65c-36 41 -48 65 -48 90c0 30 24 62 64 62c50 0 62 -47 75 -106z" />
    <glyph glyph-name="Amacron" unicode="&#x100;" horiz-adv-x="697" 
d="M344 87h82l-9 123h-211l-70 -123h85l-22 -87h-253l21 87h66l339 575h153l58 -575h82l-21 -87h-322zM250 289h162l-17 249h-4zM314 734l25 98h298l-24 -98h-299z" />
    <glyph glyph-name="amacron" unicode="&#x101;" 
d="M545 469l-83 -314c-5 -22 -8 -36 -8 -48c0 -17 9 -24 20 -24c21 0 40 23 66 97l51 -18c-38 -118 -94 -172 -167 -172c-56 0 -94 31 -94 93c0 7 1 16 2 25l-8 3c-39 -82 -94 -121 -157 -121c-96 0 -143 76 -143 164c0 102 45 202 99 257c45 44 90 68 147 68
c61 0 97 -44 108 -92l23 82h144zM225 82c74 0 132 162 132 244c0 50 -17 75 -50 75c-76 0 -131 -161 -131 -245c0 -54 21 -74 49 -74zM202 540l25 98h298l-24 -98h-299z" />
    <glyph glyph-name="Aogonek" unicode="&#x104;" horiz-adv-x="697" 
d="M577 -212c-33 -22 -74 -38 -120 -38c-67 0 -124 30 -124 96c0 60 51 104 139 154h-150l22 87h82l-9 123h-211l-70 -123h85l-22 -87h-253l21 87h66l339 575h153l58 -575h82l-21 -87h-80l-12 -9c-82 -61 -106 -91 -106 -124c0 -23 14 -45 51 -45c19 0 38 6 60 18zM250 289
h162l-17 249h-4z" />
    <glyph glyph-name="aogonek" unicode="&#x105;" 
d="M378 387l23 82h144l-83 -314c-5 -22 -8 -36 -8 -48c0 -17 9 -24 20 -24c21 0 40 23 66 97l51 -18c-23 -68 -46 -119 -115 -169c-84 -61 -106 -94 -106 -126c0 -23 14 -45 50 -45c20 0 39 6 60 18l20 -52c-32 -22 -74 -38 -120 -38c-66 0 -123 30 -123 96
c0 58 46 100 131 149c-34 10 -58 39 -58 88c0 7 1 16 2 25l-8 3c-39 -82 -94 -121 -157 -121c-96 0 -143 76 -143 164c0 102 45 202 99 257c45 44 90 68 147 68c61 0 97 -44 108 -92zM225 82c74 0 132 162 132 244c0 50 -17 75 -50 75c-76 0 -131 -161 -131 -245
c0 -54 21 -74 49 -74z" />
    <glyph glyph-name="Aring" unicode="&#xc5;" horiz-adv-x="697" 
d="M591 760c0 -47 -24 -89 -65 -111l57 -562h82l-21 -87h-322l22 87h82l-9 123h-212l-70 -123h86l-22 -87h-253l21 87h68l337 573c-22 19 -34 47 -34 77c0 67 53 127 135 127c75 0 118 -48 118 -104zM249 289h163l-17 251h-4zM414 733c0 -27 13 -51 44 -51c34 0 58 38 58 81
c0 27 -13 51 -45 51c-33 0 -57 -37 -57 -81z" />
    <glyph glyph-name="aring" unicode="&#xe5;" 
d="M545 469l-83 -314c-5 -22 -8 -36 -8 -48c0 -17 9 -24 20 -24c21 0 40 23 66 97l51 -18c-38 -118 -94 -172 -167 -172c-56 0 -94 31 -94 93c0 7 1 16 2 25l-8 3c-39 -82 -94 -121 -157 -121c-96 0 -143 76 -143 164c0 102 45 202 99 257c45 44 90 68 147 68
c61 0 97 -44 108 -92l23 82h144zM225 82c74 0 132 162 132 244c0 50 -17 75 -50 75c-76 0 -131 -161 -131 -245c0 -54 21 -74 49 -74zM504 657c0 -68 -52 -128 -134 -128c-75 0 -118 48 -118 105c0 67 52 127 134 127c75 0 118 -48 118 -104zM327 630c0 -27 13 -51 45 -51
c33 0 57 38 57 81c0 27 -13 51 -45 51c-33 0 -57 -37 -57 -81z" />
    <glyph glyph-name="Aringacute" unicode="&#x1fa;" horiz-adv-x="697" 
d="M617 972l-93 -66h-70l83 134c29 48 53 82 92 82c38 0 63 -30 63 -60c0 -39 -29 -58 -75 -90zM591 760c0 -47 -24 -89 -65 -111l57 -562h82l-21 -87h-322l22 87h82l-9 123h-212l-70 -123h86l-22 -87h-253l21 87h68l337 573c-22 19 -34 47 -34 77c0 67 53 127 135 127
c75 0 118 -48 118 -104zM249 289h163l-17 251h-4zM414 733c0 -27 13 -51 44 -51c34 0 58 38 58 81c0 27 -13 51 -45 51c-33 0 -57 -37 -57 -81z" />
    <glyph glyph-name="aringacute" unicode="&#x1fb;" 
d="M545 469l-83 -314c-5 -22 -8 -36 -8 -48c0 -17 9 -24 20 -24c21 0 40 23 66 97l51 -18c-38 -118 -94 -172 -167 -172c-56 0 -94 31 -94 93c0 7 1 16 2 25l-8 3c-39 -82 -94 -121 -157 -121c-96 0 -143 76 -143 164c0 102 45 202 99 257c45 44 90 68 147 68
c61 0 97 -44 108 -92l23 82h144zM225 82c74 0 132 162 132 244c0 50 -17 75 -50 75c-76 0 -131 -161 -131 -245c0 -54 21 -74 49 -74zM518 868l-93 -66h-70l83 134c29 48 53 82 92 82c38 0 63 -30 63 -60c0 -39 -29 -58 -75 -90zM501 657c0 -68 -52 -128 -134 -128
c-75 0 -118 48 -118 105c0 67 52 127 134 127c75 0 118 -48 118 -104zM324 630c0 -27 13 -51 45 -51c33 0 57 38 57 81c0 27 -13 51 -45 51c-33 0 -57 -37 -57 -81z" />
    <glyph glyph-name="Atilde" unicode="&#xc3;" horiz-adv-x="697" 
d="M344 87h82l-9 123h-211l-70 -123h85l-22 -87h-253l21 87h66l339 575h153l58 -575h82l-21 -87h-322zM250 289h162l-17 249h-4zM402 783c-22 0 -38 -16 -57 -57h-66c33 103 65 164 138 164c64 0 109 -54 146 -54c22 0 38 16 57 57h66c-33 -104 -65 -164 -138 -164
c-64 0 -108 54 -146 54z" />
    <glyph glyph-name="atilde" unicode="&#xe3;" 
d="M545 469l-83 -314c-5 -22 -8 -36 -8 -48c0 -17 9 -24 20 -24c21 0 40 23 66 97l51 -18c-38 -118 -94 -172 -167 -172c-56 0 -94 31 -94 93c0 7 1 16 2 25l-8 3c-39 -82 -94 -121 -157 -121c-96 0 -143 76 -143 164c0 102 45 202 99 257c45 44 90 68 147 68
c61 0 97 -44 108 -92l23 82h144zM225 82c74 0 132 162 132 244c0 50 -17 75 -50 75c-76 0 -131 -161 -131 -245c0 -54 21 -74 49 -74zM290 589c-22 0 -38 -16 -57 -57h-66c33 103 65 164 138 164c64 0 109 -54 146 -54c22 0 38 16 57 57h66c-33 -104 -65 -164 -138 -164
c-64 0 -108 54 -146 54z" />
    <glyph glyph-name="Cacute" unicode="&#x106;" horiz-adv-x="682" 
d="M555 795l-93 -66h-70l83 134c29 48 53 82 92 82c38 0 63 -30 63 -60c0 -39 -29 -58 -75 -90zM343 -16c-179 0 -285 111 -285 281c0 181 129 409 364 409c82 0 146 -30 182 -84l45 82h91l-65 -262h-95c-8 133 -69 182 -145 182c-161 0 -214 -247 -214 -343
c0 -133 76 -171 142 -171c101 0 155 71 202 183l82 -26c-49 -142 -139 -251 -304 -251z" />
    <glyph glyph-name="cacute" unicode="&#x107;" horiz-adv-x="491" 
d="M423 601l-93 -66h-70l83 134c29 48 53 82 92 82c38 0 63 -30 63 -60c0 -39 -29 -58 -75 -90zM314 479c85 0 159 -46 159 -132c0 -52 -35 -98 -84 -98c-41 0 -66 26 -66 62c0 35 26 60 50 71c-7 18 -24 30 -53 30c-88 0 -146 -127 -146 -226c0 -90 49 -112 89 -112
c46 0 90 28 130 85l46 -37c-45 -66 -109 -132 -218 -132c-119 0 -197 73 -197 188c0 163 137 301 290 301z" />
    <glyph glyph-name="Ccaron" unicode="&#x10c;" horiz-adv-x="682" 
d="M651 929l-171 -197h-81l-74 197h80l54 -86l103 86h89zM343 -16c-179 0 -285 111 -285 281c0 181 129 409 364 409c82 0 146 -30 182 -84l45 82h91l-65 -262h-95c-8 133 -69 182 -145 182c-161 0 -214 -247 -214 -343c0 -133 76 -171 142 -171c101 0 155 71 202 183
l82 -26c-49 -142 -139 -251 -304 -251z" />
    <glyph glyph-name="ccaron" unicode="&#x10d;" horiz-adv-x="491" 
d="M519 735l-171 -197h-81l-74 197h80l54 -86l103 86h89zM314 479c85 0 159 -46 159 -132c0 -52 -35 -98 -84 -98c-41 0 -66 26 -66 62c0 35 26 60 50 71c-7 18 -24 30 -53 30c-88 0 -146 -127 -146 -226c0 -90 49 -112 89 -112c46 0 90 28 130 85l46 -37
c-45 -66 -109 -132 -218 -132c-119 0 -197 73 -197 188c0 163 137 301 290 301z" />
    <glyph glyph-name="Ccedilla" unicode="&#xc7;" horiz-adv-x="682" 
d="M155 -160c24 -15 56 -27 90 -27c28 0 45 11 45 31c0 24 -34 38 -91 34l-14 39l96 72c-141 23 -223 126 -223 276c0 181 129 409 364 409c82 0 146 -30 182 -84l45 82h91l-65 -262h-95c-8 133 -69 182 -145 182c-161 0 -214 -247 -214 -343c0 -133 76 -171 142 -171
c101 0 155 71 202 183l82 -26c-48 -138 -135 -245 -291 -251l-53 -43l1 -4c58 -12 92 -42 92 -84c0 -58 -53 -102 -140 -102c-43 0 -97 14 -135 41z" />
    <glyph glyph-name="ccedilla" unicode="&#xe7;" horiz-adv-x="491" 
d="M54 -160c24 -15 56 -27 90 -27c28 0 45 11 45 31c0 24 -34 38 -91 34l-14 39l101 75c-99 13 -161 83 -161 186c0 163 137 301 290 301c85 0 159 -46 159 -132c0 -52 -35 -98 -84 -98c-41 0 -66 26 -66 62c0 35 26 60 50 71c-7 18 -24 30 -53 30
c-88 0 -146 -127 -146 -226c0 -90 49 -112 89 -112c46 0 90 28 130 85l46 -37c-39 -56 -91 -113 -172 -128l-65 -53l1 -4c58 -12 92 -42 92 -84c0 -58 -53 -102 -140 -102c-43 0 -97 14 -135 41z" />
    <glyph glyph-name="Cdotaccent" unicode="&#x10a;" horiz-adv-x="682" 
d="M343 -16c-179 0 -285 111 -285 281c0 181 129 409 364 409c82 0 146 -30 182 -84l45 82h91l-65 -262h-95c-8 133 -69 182 -145 182c-161 0 -214 -247 -214 -343c0 -133 76 -171 142 -171c101 0 155 71 202 183l82 -26c-49 -142 -139 -251 -304 -251zM553 816
c0 -42 -33 -91 -92 -91c-41 0 -72 27 -72 72c0 41 33 90 92 90c42 0 72 -27 72 -71z" />
    <glyph glyph-name="cdotaccent" unicode="&#x10b;" horiz-adv-x="491" 
d="M314 479c85 0 159 -46 159 -132c0 -52 -35 -98 -84 -98c-41 0 -66 26 -66 62c0 35 26 60 50 71c-7 18 -24 30 -53 30c-88 0 -146 -127 -146 -226c0 -90 49 -112 89 -112c46 0 90 28 130 85l46 -37c-45 -66 -109 -132 -218 -132c-119 0 -197 73 -197 188
c0 163 137 301 290 301zM422 622c0 -42 -33 -91 -92 -91c-41 0 -72 27 -72 72c0 41 33 90 92 90c42 0 72 -27 72 -71z" />
    <glyph glyph-name="Dcaron" unicode="&#x10e;" horiz-adv-x="726" 
d="M675 929l-171 -197h-81l-74 197h80l54 -86l103 86h89zM-34 0l22 87h88l121 484h-89l21 87h265c222 0 334 -110 334 -263c0 -99 -37 -201 -112 -277c-76 -75 -184 -118 -344 -118h-306zM232 85h54c80 0 131 17 180 66c55 55 96 175 96 272c0 102 -52 150 -164 150h-44z
" />
    <glyph glyph-name="dcaron" unicode="&#x10f;" 
d="M752 634l-62 -93h-54l31 162c13 64 35 93 76 93c32 0 61 -25 61 -59c0 -32 -18 -54 -52 -103zM225 82c74 0 133 162 133 252c0 53 -22 67 -49 67c-81 0 -133 -161 -133 -245c0 -54 21 -74 49 -74zM540 180l51 -18c-38 -118 -94 -172 -167 -172c-56 0 -94 31 -94 94
c0 10 1 16 2 24l-8 3c-39 -82 -94 -121 -157 -121c-96 0 -143 76 -143 164c0 102 45 202 99 257c45 44 90 68 147 68c60 0 96 -41 111 -84l56 210h-74l22 85h218l-141 -535c-5 -22 -8 -36 -8 -48c0 -17 9 -24 20 -24c21 0 40 23 66 97z" />
    <glyph glyph-name="Dcroat" unicode="&#x110;" horiz-adv-x="730" 
d="M-30 0l22 87h88l53 213h-88l21 86h88l47 185h-89l21 87h265c222 0 334 -110 334 -263c0 -99 -37 -201 -112 -277c-76 -75 -184 -118 -344 -118h-306zM236 85h54c80 0 131 17 180 66c55 55 96 175 96 272c0 102 -52 150 -164 150h-44l-47 -187h115l-22 -86h-115z" />
    <glyph glyph-name="dcroat" unicode="&#x111;" 
d="M385 690h218l-33 -122h68l-16 -65h-69l-91 -348c-5 -22 -8 -36 -8 -48c0 -17 9 -24 20 -24c21 0 40 23 66 97l51 -18c-38 -118 -94 -172 -167 -172c-56 0 -94 31 -94 94c0 10 1 16 2 24l-8 3c-39 -82 -94 -121 -157 -121c-96 0 -143 76 -143 164c0 102 43 195 98 250
c44 44 89 68 146 68c61 0 97 -41 112 -84l30 115h-117l16 65h118l12 46h-74zM225 82c74 0 132 161 132 245c0 53 -22 67 -49 67c-81 0 -132 -159 -132 -238c0 -54 21 -74 49 -74z" />
    <glyph glyph-name="Eacute" unicode="&#xc9;" horiz-adv-x="683" 
d="M574 795l-93 -66h-70l83 134c29 48 53 82 92 82c38 0 63 -30 63 -60c0 -39 -29 -58 -75 -90zM133 658h601l-59 -234h-79c3 125 -8 149 -93 149h-145l-50 -199h35c56 0 66 11 100 92h78l-66 -267h-76c9 81 3 94 -51 94h-40l-52 -208h142c100 0 119 35 179 175h88l-65 -260
h-610l22 87h88l121 484h-89z" />
    <glyph glyph-name="eacute" unicode="&#xe9;" horiz-adv-x="492" 
d="M479 363c0 -91 -92 -166 -308 -173v-8c0 -88 48 -114 97 -114c44 0 89 25 134 80l44 -36c-53 -68 -119 -122 -227 -122c-118 0 -196 72 -196 187c0 155 131 302 302 302c99 0 154 -48 154 -116zM429 601l-93 -66h-70l83 134c29 48 53 82 92 82c38 0 63 -30 63 -60
c0 -39 -29 -58 -75 -90zM305 416c-61 0 -110 -90 -127 -173c130 9 169 68 169 122c0 31 -15 51 -42 51z" />
    <glyph glyph-name="Ebreve" unicode="&#x114;" horiz-adv-x="683" 
d="M133 658h601l-59 -234h-79c3 125 -8 149 -93 149h-145l-50 -199h35c56 0 66 11 100 92h78l-66 -267h-76c9 81 3 94 -51 94h-40l-52 -208h142c100 0 119 35 179 175h88l-65 -260h-610l22 87h88l121 484h-89zM473 727c-91 0 -149 59 -122 184h68c-5 -60 25 -85 70 -85
c47 0 82 28 103 85h71c-25 -124 -96 -184 -190 -184z" />
    <glyph glyph-name="ebreve" unicode="&#x115;" horiz-adv-x="492" 
d="M479 363c0 -91 -92 -166 -308 -173v-8c0 -88 48 -114 97 -114c44 0 89 25 134 80l44 -36c-53 -68 -119 -122 -227 -122c-118 0 -196 72 -196 187c0 155 131 302 302 302c99 0 154 -48 154 -116zM327 533c-91 0 -149 59 -122 184h68c-5 -60 25 -85 70 -85
c47 0 82 28 103 85h71c-25 -124 -96 -184 -190 -184zM305 416c-61 0 -110 -90 -127 -173c130 9 169 68 169 122c0 31 -15 51 -42 51z" />
    <glyph glyph-name="Ecaron" unicode="&#x11a;" horiz-adv-x="683" 
d="M670 929l-171 -197h-81l-74 197h80l54 -86l103 86h89zM133 658h601l-59 -234h-79c3 125 -8 149 -93 149h-145l-50 -199h35c56 0 66 11 100 92h78l-66 -267h-76c9 81 3 94 -51 94h-40l-52 -208h142c100 0 119 35 179 175h88l-65 -260h-610l22 87h88l121 484h-89z" />
    <glyph glyph-name="ecaron" unicode="&#x11b;" horiz-adv-x="492" 
d="M479 363c0 -91 -92 -166 -308 -173v-8c0 -88 48 -114 97 -114c44 0 89 25 134 80l44 -36c-53 -68 -119 -122 -227 -122c-118 0 -196 72 -196 187c0 155 131 302 302 302c99 0 154 -48 154 -116zM524 735l-171 -197h-81l-74 197h80l54 -86l103 86h89zM305 416
c-61 0 -110 -90 -127 -173c130 9 169 68 169 122c0 31 -15 51 -42 51z" />
    <glyph glyph-name="Ecircumflex" unicode="&#xca;" horiz-adv-x="683" 
d="M299 729l172 197h81l74 -197h-81l-54 86l-102 -86h-90zM133 658h601l-59 -234h-79c3 125 -8 149 -93 149h-145l-50 -199h35c56 0 66 11 100 92h78l-66 -267h-76c9 81 3 94 -51 94h-40l-52 -208h142c100 0 119 35 179 175h88l-65 -260h-610l22 87h88l121 484h-89z" />
    <glyph glyph-name="ecircumflex" unicode="&#xea;" horiz-adv-x="492" 
d="M479 363c0 -91 -92 -166 -308 -173v-8c0 -88 48 -114 97 -114c44 0 89 25 134 80l44 -36c-53 -68 -119 -122 -227 -122c-118 0 -196 72 -196 187c0 155 131 302 302 302c99 0 154 -48 154 -116zM153 535l172 197h81l74 -197h-81l-54 86l-102 -86h-90zM305 416
c-61 0 -110 -90 -127 -173c130 9 169 68 169 122c0 31 -15 51 -42 51z" />
    <glyph glyph-name="Edieresis" unicode="&#xcb;" horiz-adv-x="683" 
d="M468 819c0 -40 -31 -87 -84 -87c-38 0 -66 26 -66 68c0 39 31 86 84 86c38 0 66 -26 66 -67zM664 819c0 -40 -31 -87 -84 -87c-38 0 -66 26 -66 68c0 39 31 86 84 86c38 0 66 -26 66 -67zM133 658h601l-59 -234h-79c3 125 -8 149 -93 149h-145l-50 -199h35
c56 0 66 11 100 92h78l-66 -267h-76c9 81 3 94 -51 94h-40l-52 -208h142c100 0 119 35 179 175h88l-65 -260h-610l22 87h88l121 484h-89z" />
    <glyph glyph-name="edieresis" unicode="&#xeb;" horiz-adv-x="492" 
d="M479 363c0 -91 -92 -166 -308 -173v-8c0 -88 48 -114 97 -114c44 0 89 25 134 80l44 -36c-53 -68 -119 -122 -227 -122c-118 0 -196 72 -196 187c0 155 131 302 302 302c99 0 154 -48 154 -116zM518 625c0 -40 -31 -87 -84 -87c-38 0 -66 26 -66 68c0 39 31 86 84 86
c38 0 66 -26 66 -67zM322 625c0 -40 -31 -87 -84 -87c-38 0 -66 26 -66 68c0 39 31 86 84 86c38 0 66 -26 66 -67zM305 416c-61 0 -110 -90 -127 -173c130 9 169 68 169 122c0 31 -15 51 -42 51z" />
    <glyph glyph-name="Edotaccent" unicode="&#x116;" horiz-adv-x="683" 
d="M133 658h601l-59 -234h-79c3 125 -8 149 -93 149h-145l-50 -199h35c56 0 66 11 100 92h78l-66 -267h-76c9 81 3 94 -51 94h-40l-52 -208h142c100 0 119 35 179 175h88l-65 -260h-610l22 87h88l121 484h-89zM573 816c0 -42 -33 -91 -92 -91c-41 0 -72 27 -72 72
c0 41 33 90 92 90c42 0 72 -27 72 -71z" />
    <glyph glyph-name="edotaccent" unicode="&#x117;" horiz-adv-x="492" 
d="M479 363c0 -91 -92 -166 -308 -173v-8c0 -88 48 -114 97 -114c44 0 89 25 134 80l44 -36c-53 -68 -119 -122 -227 -122c-118 0 -196 72 -196 187c0 155 131 302 302 302c99 0 154 -48 154 -116zM427 622c0 -42 -33 -91 -92 -91c-41 0 -72 27 -72 72c0 41 33 90 92 90
c42 0 72 -27 72 -71zM305 416c-61 0 -110 -90 -127 -173c130 9 169 68 169 122c0 31 -15 51 -42 51z" />
    <glyph glyph-name="Egrave" unicode="&#xc8;" horiz-adv-x="683" 
d="M133 658h601l-59 -234h-79c3 125 -8 149 -93 149h-145l-50 -199h35c56 0 66 11 100 92h78l-66 -267h-76c9 81 3 94 -51 94h-40l-52 -208h142c100 0 119 35 179 175h88l-65 -260h-610l22 87h88l121 484h-89zM475 840l25 -111h-63l-53 65c-36 41 -48 65 -48 90
c0 30 24 62 64 62c50 0 62 -47 75 -106z" />
    <glyph glyph-name="egrave" unicode="&#xe8;" horiz-adv-x="492" 
d="M479 363c0 -91 -92 -166 -308 -173v-8c0 -88 48 -114 97 -114c44 0 89 25 134 80l44 -36c-53 -68 -119 -122 -227 -122c-118 0 -196 72 -196 187c0 155 131 302 302 302c99 0 154 -48 154 -116zM330 646l25 -111h-63l-53 65c-36 41 -48 65 -48 90c0 30 24 62 64 62
c50 0 62 -47 75 -106zM305 416c-61 0 -110 -90 -127 -173c130 9 169 68 169 122c0 31 -15 51 -42 51z" />
    <glyph glyph-name="Emacron" unicode="&#x112;" horiz-adv-x="683" 
d="M133 658h601l-59 -234h-79c3 125 -8 149 -93 149h-145l-50 -199h35c56 0 66 11 100 92h78l-66 -267h-76c9 81 3 94 -51 94h-40l-52 -208h142c100 0 119 35 179 175h88l-65 -260h-610l22 87h88l121 484h-89zM323 734l25 98h298l-24 -98h-299z" />
    <glyph glyph-name="emacron" unicode="&#x113;" horiz-adv-x="492" 
d="M479 363c0 -91 -92 -166 -308 -173v-8c0 -88 48 -114 97 -114c44 0 89 25 134 80l44 -36c-53 -68 -119 -122 -227 -122c-118 0 -196 72 -196 187c0 155 131 302 302 302c99 0 154 -48 154 -116zM177 540l25 98h298l-24 -98h-299zM305 416c-61 0 -110 -90 -127 -173
c130 9 169 68 169 122c0 31 -15 51 -42 51z" />
    <glyph glyph-name="Eogonek" unicode="&#x118;" horiz-adv-x="683" 
d="M133 658h601l-59 -234h-79c3 125 -8 149 -93 149h-145l-50 -199h35c56 0 66 11 100 92h78l-66 -267h-76c9 81 3 94 -51 94h-40l-52 -208h142c100 0 119 35 179 175h88l-65 -260h-53l-12 -9c-82 -61 -106 -91 -106 -124c0 -23 14 -45 51 -45c19 0 38 6 60 18l20 -52
c-33 -22 -74 -38 -120 -38c-67 0 -124 30 -124 96c0 60 51 104 139 154h-465l22 87h88l121 484h-89z" />
    <glyph glyph-name="eogonek" unicode="&#x119;" horiz-adv-x="492" 
d="M402 148l44 -36c-28 -35 -50 -58 -90 -86l-45 -32c-85 -60 -111 -94 -111 -127c0 -23 14 -45 51 -45c19 0 39 6 60 18l20 -52c-33 -22 -74 -38 -120 -38c-66 0 -124 30 -124 96c0 51 34 91 127 144c-116 2 -191 73 -191 187c0 155 131 302 302 302c99 0 154 -48 154 -116
c0 -91 -92 -166 -308 -173v-8c0 -88 48 -114 97 -114c44 0 89 25 134 80zM305 416c-61 0 -110 -90 -127 -173c130 9 169 68 169 122c0 31 -15 51 -42 51z" />
    <glyph glyph-name="Eth" unicode="&#xd0;" horiz-adv-x="730" 
d="M-30 0l22 87h88l53 213h-88l21 86h88l47 185h-89l21 87h265c222 0 334 -110 334 -263c0 -99 -37 -201 -112 -277c-76 -75 -184 -118 -344 -118h-306zM236 85h54c80 0 131 17 180 66c55 55 96 175 96 272c0 102 -52 150 -164 150h-44l-47 -187h115l-22 -86h-115z" />
    <glyph glyph-name="eth" unicode="&#xf0;" horiz-adv-x="543" 
d="M564 606l-93 -30c33 -66 52 -138 52 -217c0 -229 -133 -369 -294 -369c-122 0 -206 80 -206 196c0 160 123 270 241 270c64 0 101 -23 121 -51c0 42 -8 89 -25 135l-123 -39l-19 63l115 37c-12 24 -26 47 -42 70l92 29c19 -21 37 -43 53 -66l108 35zM360 306
c0 62 -26 77 -57 77c-83 0 -132 -165 -132 -251c0 -62 25 -79 55 -79c84 0 134 169 134 253z" />
    <glyph glyph-name="Gbreve" unicode="&#x11e;" horiz-adv-x="728" 
d="M338 74c88 0 130 79 152 161l5 19h-111l21 87h340l-22 -87h-74l-69 -262h-85l-11 89c-36 -52 -92 -97 -182 -97c-153 0 -244 116 -244 274c0 188 129 416 364 416c82 0 146 -30 182 -84l45 82h91l-64 -256h-108c-7 134 -67 176 -133 176c-161 0 -214 -253 -214 -352
c0 -130 62 -166 117 -166zM464 727c-91 0 -149 59 -122 184h68c-5 -60 25 -85 70 -85c47 0 82 28 103 85h71c-25 -124 -96 -184 -190 -184z" />
    <glyph glyph-name="gbreve" unicode="&#x11f;" horiz-adv-x="550" 
d="M110 -111c12 -4 33 -8 51 -8c35 0 63 11 86 34c27 28 50 74 75 177l-10 4c-30 -45 -74 -72 -133 -72c-100 0 -148 75 -148 165c0 87 33 169 89 225c44 44 88 65 142 65c64 0 108 -43 120 -92l22 82h144l-97 -413c-42 -181 -159 -230 -281 -230c-61 0 -183 15 -183 106
c0 38 27 78 76 78c46 0 70 -32 70 -68c0 -22 -11 -41 -23 -53zM238 108c68 0 120 117 120 213c0 50 -23 80 -57 80c-75 0 -119 -131 -119 -213c0 -57 22 -80 56 -80zM362 533c-91 0 -149 59 -122 184h68c-5 -60 25 -85 70 -85c47 0 82 28 103 85h71
c-25 -124 -96 -184 -190 -184z" />
    <glyph glyph-name="Gcommaaccent" unicode="&#x122;" horiz-adv-x="728" 
d="M157 -364l-15 51c72 22 118 55 136 95l-7 5c-7 -4 -15 -6 -25 -6c-38 0 -63 27 -63 65c0 46 33 91 86 91c55 0 91 -41 91 -101c0 -94 -79 -169 -203 -200zM338 74c88 0 130 79 152 161l5 19h-111l21 87h340l-22 -87h-74l-69 -262h-85l-11 89c-36 -52 -92 -97 -182 -97
c-153 0 -244 116 -244 274c0 188 129 416 364 416c82 0 146 -30 182 -84l45 82h91l-64 -256h-108c-7 134 -67 176 -133 176c-161 0 -214 -253 -214 -352c0 -130 62 -166 117 -166z" />
    <glyph glyph-name="gcommaaccent" unicode="&#x123;" horiz-adv-x="550" 
d="M464 832l15 -51c-72 -22 -118 -55 -136 -95l7 -5c7 4 15 6 25 6c38 0 63 -27 63 -65c0 -46 -33 -91 -86 -91c-55 0 -91 41 -91 101c0 94 79 169 203 200zM110 -111c12 -4 33 -8 51 -8c35 0 63 11 86 34c27 28 50 74 75 177l-10 4c-30 -45 -74 -72 -133 -72
c-100 0 -148 75 -148 165c0 87 33 169 89 225c44 44 88 65 142 65c64 0 108 -43 120 -92l22 82h144l-97 -413c-42 -181 -159 -230 -281 -230c-61 0 -183 15 -183 106c0 38 27 78 76 78c46 0 70 -32 70 -68c0 -22 -11 -41 -23 -53zM238 108c68 0 120 117 120 213
c0 50 -23 80 -57 80c-75 0 -119 -131 -119 -213c0 -57 22 -80 56 -80z" />
    <glyph glyph-name="Gdotaccent" unicode="&#x120;" horiz-adv-x="728" 
d="M338 74c88 0 130 79 152 161l5 19h-111l21 87h340l-22 -87h-74l-69 -262h-85l-11 89c-36 -52 -92 -97 -182 -97c-153 0 -244 116 -244 274c0 188 129 416 364 416c82 0 146 -30 182 -84l45 82h91l-64 -256h-108c-7 134 -67 176 -133 176c-161 0 -214 -253 -214 -352
c0 -130 62 -166 117 -166zM564 816c0 -42 -33 -91 -92 -91c-41 0 -72 27 -72 72c0 41 33 90 92 90c42 0 72 -27 72 -71z" />
    <glyph glyph-name="gdotaccent" unicode="&#x121;" horiz-adv-x="550" 
d="M110 -111c12 -4 33 -8 51 -8c35 0 63 11 86 34c27 28 50 74 75 177l-10 4c-30 -45 -74 -72 -133 -72c-100 0 -148 75 -148 165c0 87 33 169 89 225c44 44 88 65 142 65c64 0 108 -43 120 -92l22 82h144l-97 -413c-42 -181 -159 -230 -281 -230c-61 0 -183 15 -183 106
c0 38 27 78 76 78c46 0 70 -32 70 -68c0 -22 -11 -41 -23 -53zM238 108c68 0 120 117 120 213c0 50 -23 80 -57 80c-75 0 -119 -131 -119 -213c0 -57 22 -80 56 -80zM461 622c0 -42 -33 -91 -92 -91c-41 0 -72 27 -72 72c0 41 33 90 92 90c42 0 72 -27 72 -71z" />
    <glyph glyph-name="Hbar" unicode="&#x126;" horiz-adv-x="791" 
d="M76 430l20 78h89l16 63h-89l21 87h331l-22 -87h-85l-17 -69h244l18 69h-86l22 87h330l-22 -87h-88l-16 -63h89l-19 -78h-90l-85 -343h89l-21 -87h-330l21 87h85l49 195h-244l-49 -195h85l-21 -87h-331l22 87h88l85 343h-89zM307 367h244l17 70h-244z" />
    <glyph glyph-name="hbar" unicode="&#x127;" horiz-adv-x="601" 
d="M418 -10c-62 0 -99 39 -99 95c0 87 65 195 65 252c0 20 -11 29 -29 29c-37 0 -117 -42 -205 -366h-147l133 503h-67l17 65h68l12 46h-74l20 76h219l-38 -122h117l-17 -65h-120l-71 -232l7 -3c69 150 148 204 223 204c58 0 99 -40 99 -104c0 -86 -76 -217 -76 -266
c0 -14 7 -19 17 -19c18 0 38 21 68 97l52 -18c-40 -115 -101 -172 -174 -172z" />
    <glyph glyph-name="Iacute" unicode="&#xcd;" horiz-adv-x="397" 
d="M-27 0l22 87h88l121 484h-89l21 87h334l-21 -87h-89l-120 -484h89l-21 -87h-335zM424 795l-93 -66h-70l83 134c29 48 53 82 92 82c38 0 63 -30 63 -60c0 -39 -29 -58 -75 -90z" />
    <glyph glyph-name="iacute" unicode="&#xed;" horiz-adv-x="362" 
d="M314 601l-93 -66h-70l83 134c29 48 53 82 92 82c38 0 63 -30 63 -60c0 -39 -29 -58 -75 -90zM292 384c0 -81 -82 -229 -82 -281c0 -15 8 -20 18 -20c18 0 38 18 70 97l52 -18c-40 -114 -101 -172 -176 -172c-59 0 -102 37 -102 99c0 82 83 229 83 280c0 15 -6 19 -15 19
c-21 0 -44 -39 -72 -99l-51 20c46 108 101 170 180 170c56 0 95 -38 95 -95z" />
    <glyph glyph-name="Ibreve" unicode="&#x12c;" horiz-adv-x="397" 
d="M-27 0l22 87h88l121 484h-89l21 87h334l-21 -87h-89l-120 -484h89l-21 -87h-335zM323 727c-91 0 -149 59 -122 184h68c-5 -60 25 -85 70 -85c47 0 82 28 103 85h71c-25 -124 -96 -184 -190 -184z" />
    <glyph glyph-name="ibreve" unicode="&#x12d;" horiz-adv-x="362" 
d="M292 384c0 -81 -82 -229 -82 -281c0 -15 8 -20 18 -20c18 0 38 18 70 97l52 -18c-40 -114 -101 -172 -176 -172c-59 0 -102 37 -102 99c0 82 83 229 83 280c0 15 -6 19 -15 19c-21 0 -44 -39 -72 -99l-51 20c46 108 101 170 180 170c56 0 95 -38 95 -95zM213 533
c-91 0 -149 59 -122 184h68c-5 -60 25 -85 70 -85c47 0 82 28 103 85h71c-25 -124 -96 -184 -190 -184z" />
    <glyph glyph-name="Icircumflex" unicode="&#xce;" horiz-adv-x="397" 
d="M-27 0l22 87h88l121 484h-89l21 87h334l-21 -87h-89l-120 -484h89l-21 -87h-335zM149 729l172 197h81l74 -197h-81l-54 86l-102 -86h-90z" />
    <glyph glyph-name="icircumflex" unicode="&#xee;" horiz-adv-x="362" 
d="M38 535l172 197h81l74 -197h-81l-54 86l-102 -86h-90zM292 384c0 -81 -82 -229 -82 -281c0 -15 8 -20 18 -20c18 0 38 18 70 97l52 -18c-40 -114 -101 -172 -176 -172c-59 0 -102 37 -102 99c0 82 83 229 83 280c0 15 -6 19 -15 19c-21 0 -44 -39 -72 -99l-51 20
c46 108 101 170 180 170c56 0 95 -38 95 -95z" />
    <glyph glyph-name="Idieresis" unicode="&#xcf;" horiz-adv-x="397" 
d="M-27 0l22 87h88l121 484h-89l21 87h334l-21 -87h-89l-120 -484h89l-21 -87h-335zM318 819c0 -40 -31 -87 -84 -87c-38 0 -66 26 -66 68c0 39 31 86 84 86c38 0 66 -26 66 -67zM514 819c0 -40 -31 -87 -84 -87c-38 0 -66 26 -66 68c0 39 31 86 84 86c38 0 66 -26 66 -67z
" />
    <glyph glyph-name="idieresis" unicode="&#xef;" horiz-adv-x="362" 
d="M208 625c0 -40 -31 -87 -84 -87c-38 0 -66 26 -66 68c0 39 31 86 84 86c38 0 66 -26 66 -67zM404 625c0 -40 -31 -87 -84 -87c-38 0 -66 26 -66 68c0 39 31 86 84 86c38 0 66 -26 66 -67zM292 384c0 -81 -82 -229 -82 -281c0 -15 8 -20 18 -20c18 0 38 18 70 97l52 -18
c-40 -114 -101 -172 -176 -172c-59 0 -102 37 -102 99c0 82 83 229 83 280c0 15 -6 19 -15 19c-21 0 -44 -39 -72 -99l-51 20c46 108 101 170 180 170c56 0 95 -38 95 -95z" />
    <glyph glyph-name="Idotaccent" unicode="&#x130;" horiz-adv-x="397" 
d="M-27 0l22 87h88l121 484h-89l21 87h334l-21 -87h-89l-120 -484h89l-21 -87h-335zM422 816c0 -42 -33 -91 -92 -91c-41 0 -72 27 -72 72c0 41 33 90 92 90c42 0 72 -27 72 -71z" />
    <glyph glyph-name="dotlessi" unicode="&#x131;" horiz-adv-x="362" 
d="M292 384c0 -81 -82 -229 -82 -281c0 -15 8 -20 18 -20c18 0 38 18 70 97l52 -18c-40 -114 -101 -172 -176 -172c-59 0 -102 37 -102 99c0 82 83 229 83 280c0 15 -6 19 -15 19c-21 0 -44 -39 -72 -99l-51 20c46 108 101 170 180 170c56 0 95 -38 95 -95z" />
    <glyph glyph-name="Igrave" unicode="&#xcc;" horiz-adv-x="397" 
d="M-27 0l22 87h88l121 484h-89l21 87h334l-21 -87h-89l-120 -484h89l-21 -87h-335zM325 840l25 -111h-63l-53 65c-36 41 -48 65 -48 90c0 30 24 62 64 62c50 0 62 -47 75 -106z" />
    <glyph glyph-name="igrave" unicode="&#xec;" horiz-adv-x="362" 
d="M292 384c0 -81 -82 -229 -82 -281c0 -15 8 -20 18 -20c18 0 38 18 70 97l52 -18c-40 -114 -101 -172 -176 -172c-59 0 -102 37 -102 99c0 82 83 229 83 280c0 15 -6 19 -15 19c-21 0 -44 -39 -72 -99l-51 20c46 108 101 170 180 170c56 0 95 -38 95 -95zM216 646l25 -111
h-63l-53 65c-36 41 -48 65 -48 90c0 30 24 62 64 62c50 0 62 -47 75 -106z" />
    <glyph glyph-name="Imacron" unicode="&#x12a;" horiz-adv-x="397" 
d="M-27 0l22 87h88l121 484h-89l21 87h334l-21 -87h-89l-120 -484h89l-21 -87h-335zM173 734l25 98h298l-24 -98h-299z" />
    <glyph glyph-name="imacron" unicode="&#x12b;" horiz-adv-x="362" 
d="M292 384c0 -81 -82 -229 -82 -281c0 -15 8 -20 18 -20c18 0 38 18 70 97l52 -18c-40 -114 -101 -172 -176 -172c-59 0 -102 37 -102 99c0 82 83 229 83 280c0 15 -6 19 -15 19c-21 0 -44 -39 -72 -99l-51 20c46 108 101 170 180 170c56 0 95 -38 95 -95zM63 540l25 98
h298l-24 -98h-299z" />
    <glyph glyph-name="Iogonek" unicode="&#x12e;" horiz-adv-x="397" 
d="M-27 0l22 87h88l121 484h-89l21 87h334l-21 -87h-89l-120 -484h89l-21 -87h-100l-12 -9c-82 -61 -106 -91 -106 -124c0 -23 14 -45 51 -45c19 0 38 6 60 18l20 -52c-33 -22 -74 -38 -120 -38c-67 0 -124 30 -124 96c0 60 51 104 139 154h-143z" />
    <glyph glyph-name="iogonek" unicode="&#x12f;" horiz-adv-x="362" 
d="M298 180l51 -18c-23 -67 -53 -118 -112 -162c-96 -72 -111 -101 -111 -133c0 -23 14 -45 51 -45c19 0 39 6 60 18l20 -52c-33 -22 -74 -38 -120 -38c-66 0 -124 30 -124 96c0 58 46 100 128 148c-40 11 -69 43 -69 95c0 82 83 229 83 280c0 15 -7 19 -15 19
c-21 0 -45 -39 -72 -99l-51 20c45 108 101 170 179 170c56 0 96 -38 96 -95c0 -81 -82 -229 -82 -281c0 -15 8 -20 18 -20c17 0 37 18 70 97zM344 636c0 -44 -35 -95 -97 -95c-43 0 -75 28 -75 74c0 44 34 96 96 96c44 0 76 -29 76 -75z" />
    <glyph glyph-name="Kcommaaccent" unicode="&#x136;" horiz-adv-x="726" 
d="M182 -364l-15 51c72 22 118 55 136 95l-7 5c-7 -4 -15 -6 -25 -6c-38 0 -63 27 -63 65c0 46 33 91 86 91c55 0 91 -41 91 -101c0 -94 -79 -169 -203 -200zM710 571l-226 -180l141 -304h78l-22 -87h-320l22 86h69l-90 207l-93 -74l-32 -133h77l-21 -86h-323l22 87h88
l121 484h-89l21 87h326l-21 -86h-81l-59 -239l285 239h-75l21 86h277l-22 -87h-74z" />
    <glyph glyph-name="kcommaaccent" unicode="&#x137;" horiz-adv-x="563" 
d="M409 105c0 -17 8 -22 18 -22c19 0 37 21 67 97l52 -18c-39 -115 -92 -172 -166 -172c-70 0 -106 45 -106 103c0 30 11 68 11 92c0 31 -11 43 -76 44l-61 -229h-145l161 605h-74l22 85h219l-109 -410h2c54 0 76 30 124 109c29 48 64 90 124 90c54 0 82 -36 82 -82
c0 -43 -28 -90 -74 -90c-43 0 -66 36 -55 79c-14 -7 -25 -19 -44 -53c-19 -30 -36 -53 -64 -71c78 -7 101 -40 101 -87c0 -29 -9 -52 -9 -70zM78 -361l-15 51c72 22 118 55 136 95l-7 5c-7 -4 -15 -6 -25 -6c-38 0 -63 27 -63 65c0 46 33 91 86 91c55 0 91 -41 91 -101
c0 -94 -79 -169 -203 -200z" />
    <glyph glyph-name="Lacute" unicode="&#x139;" horiz-adv-x="613" 
d="M422 795l-93 -66h-70l83 134c29 48 53 82 92 82c38 0 63 -30 63 -60c0 -39 -29 -58 -75 -90zM133 658h345l-22 -85h-99l-121 -488h99c101 0 118 36 180 183h80l-67 -268h-558l22 87h88l121 484h-89z" />
    <glyph glyph-name="lacute" unicode="&#x13a;" horiz-adv-x="322" 
d="M357 819l-93 -66h-70l83 134c29 48 53 82 92 82c38 0 63 -30 63 -60c0 -39 -29 -58 -75 -90zM35 88c0 23 7 59 18 101l111 416h-73l22 85h219l-139 -502c-6 -21 -21 -68 -21 -85c0 -16 9 -20 18 -20c20 0 39 21 70 97l52 -18c-40 -115 -99 -172 -174 -172
c-63 0 -103 35 -103 98z" />
    <glyph glyph-name="Lcaron" unicode="&#x13d;" horiz-adv-x="613" 
d="M620 588l-62 -93h-54l31 162c13 64 35 93 76 93c32 0 61 -25 61 -59c0 -32 -18 -54 -52 -103zM133 658h345l-22 -85h-99l-121 -488h99c101 0 118 36 180 183h80l-67 -268h-558l22 87h88l121 484h-89z" />
    <glyph glyph-name="lcaron" unicode="&#x13e;" horiz-adv-x="322" 
d="M481 634l-62 -93h-54l31 162c13 64 35 93 76 93c32 0 61 -25 61 -59c0 -32 -18 -54 -52 -103zM35 88c0 23 7 59 18 101l111 416h-73l22 85h219l-139 -502c-6 -21 -21 -68 -21 -85c0 -16 9 -20 18 -20c20 0 39 21 70 97l52 -18c-40 -115 -99 -172 -174 -172
c-63 0 -103 35 -103 98z" />
    <glyph glyph-name="Lcommaaccent" unicode="&#x13b;" horiz-adv-x="613" 
d="M128 -364l-15 51c72 22 118 55 136 95l-7 5c-7 -4 -15 -6 -25 -6c-38 0 -63 27 -63 65c0 46 33 91 86 91c55 0 91 -41 91 -101c0 -94 -79 -169 -203 -200zM133 658h345l-22 -85h-99l-121 -488h99c101 0 118 36 180 183h80l-67 -268h-558l22 87h88l121 484h-89z" />
    <glyph glyph-name="lcommaaccent" unicode="&#x13c;" horiz-adv-x="322" 
d="M-19 -364l-15 51c72 22 118 55 136 95l-7 5c-7 -4 -15 -6 -25 -6c-38 0 -63 27 -63 65c0 46 33 91 86 91c55 0 91 -41 91 -101c0 -94 -79 -169 -203 -200zM35 88c0 23 7 59 18 101l111 416h-73l22 85h219l-139 -502c-6 -21 -21 -68 -21 -85c0 -16 9 -20 18 -20
c20 0 39 21 70 97l52 -18c-40 -115 -99 -172 -174 -172c-63 0 -103 35 -103 98z" />
    <glyph glyph-name="Ldot" unicode="&#x13f;" horiz-adv-x="613" 
d="M133 658h345l-22 -85h-99l-121 -488h99c101 0 120 36 174 161h80l-61 -246h-558l22 87h88l121 484h-89zM503 308c-42 0 -71 28 -71 69c0 40 31 87 89 87c43 0 72 -28 72 -69s-33 -87 -90 -87z" />
    <glyph glyph-name="ldot" unicode="&#x140;" horiz-adv-x="411" 
d="M449 355c0 -39 -31 -87 -87 -87c-39 0 -68 26 -68 68c0 40 31 87 86 87c41 0 69 -26 69 -68zM35 88c0 23 7 59 18 101l111 416h-73l22 85h219l-139 -502c-6 -21 -21 -68 -21 -85c0 -16 9 -20 18 -20c20 0 39 21 70 97l52 -18c-40 -115 -99 -172 -174 -172
c-63 0 -103 35 -103 98z" />
    <glyph glyph-name="Lslash" unicode="&#x141;" horiz-adv-x="616" 
d="M136 658h345l-22 -85h-99l-46 -186l184 58l-21 -84l-184 -59l-54 -217h99c101 0 118 36 180 183h80l-67 -268h-558l22 87h88l40 161l-88 -28l21 86l89 28l59 237h-89z" />
    <glyph glyph-name="lslash" unicode="&#x142;" horiz-adv-x="346" 
d="M46 88c0 23 7 59 18 101l27 103l-95 -28l17 73l98 29l64 239h-73l22 85h219l-77 -278l105 31l-17 -73l-109 -32l-41 -150c-6 -21 -21 -68 -21 -85c0 -16 9 -20 18 -20c20 0 39 21 70 97l52 -18c-40 -115 -99 -172 -174 -172c-63 0 -103 35 -103 98z" />
    <glyph glyph-name="Nacute" unicode="&#x143;" horiz-adv-x="776" 
d="M612 795l-93 -66h-70l83 134c29 48 53 82 92 82c38 0 63 -30 63 -60c0 -39 -29 -58 -75 -90zM470 -9l-184 512h-9l-104 -416h89l-21 -87h-263l21 87h84l121 484h-86l22 87h252l167 -462h9l93 375h-90l22 87h264l-21 -87h-86l-144 -580h-136z" />
    <glyph glyph-name="nacute" unicode="&#x144;" horiz-adv-x="640" 
d="M488 601l-93 -66h-70l83 134c29 48 53 82 92 82c38 0 63 -30 63 -60c0 -39 -29 -58 -75 -90zM494 102c0 -14 7 -19 17 -19c18 0 38 21 68 97l52 -18c-40 -115 -101 -172 -174 -172c-62 0 -99 39 -99 95c0 90 67 198 67 259c0 20 -11 29 -29 29c-39 0 -116 -49 -199 -373
h-147l85 320c15 58 10 68 -4 68c-20 0 -43 -39 -70 -99l-52 20c46 107 99 169 174 169c45 0 78 -31 78 -95c0 -26 -3 -60 -18 -111l8 -3c68 151 145 210 222 210c58 0 99 -40 99 -104c0 -90 -78 -220 -78 -273z" />
    <glyph glyph-name="Ncaron" unicode="&#x147;" horiz-adv-x="776" 
d="M707 929l-171 -197h-81l-74 197h80l54 -86l103 86h89zM470 -9l-184 512h-9l-104 -416h89l-21 -87h-263l21 87h84l121 484h-86l22 87h252l167 -462h9l93 375h-90l22 87h264l-21 -87h-86l-144 -580h-136z" />
    <glyph glyph-name="ncaron" unicode="&#x148;" horiz-adv-x="640" 
d="M583 735l-171 -197h-81l-74 197h80l54 -86l103 86h89zM494 102c0 -14 7 -19 17 -19c18 0 38 21 68 97l52 -18c-40 -115 -101 -172 -174 -172c-62 0 -99 39 -99 95c0 90 67 198 67 259c0 20 -11 29 -29 29c-39 0 -116 -49 -199 -373h-147l85 320c15 58 10 68 -4 68
c-20 0 -43 -39 -70 -99l-52 20c46 107 99 169 174 169c45 0 78 -31 78 -95c0 -26 -3 -60 -18 -111l8 -3c68 151 145 210 222 210c58 0 99 -40 99 -104c0 -90 -78 -220 -78 -273z" />
    <glyph glyph-name="Ncommaaccent" unicode="&#x145;" horiz-adv-x="776" 
d="M184 -364l-15 51c72 22 118 55 136 95l-7 5c-7 -4 -15 -6 -25 -6c-38 0 -63 27 -63 65c0 46 33 91 86 91c55 0 91 -41 91 -101c0 -94 -79 -169 -203 -200zM470 -9l-184 512h-9l-104 -416h89l-21 -87h-263l21 87h84l121 484h-86l22 87h252l167 -462h9l93 375h-90l22 87
h264l-21 -87h-86l-144 -580h-136z" />
    <glyph glyph-name="ncommaaccent" unicode="&#x146;" horiz-adv-x="640" 
d="M147 -357l-15 51c72 22 118 55 136 95l-7 5c-7 -4 -15 -6 -25 -6c-38 0 -63 27 -63 65c0 46 33 91 86 91c55 0 91 -41 91 -101c0 -94 -79 -169 -203 -200zM494 102c0 -14 7 -19 17 -19c18 0 38 21 68 97l52 -18c-40 -115 -101 -172 -174 -172c-62 0 -99 39 -99 95
c0 90 67 198 67 259c0 20 -11 29 -29 29c-39 0 -116 -49 -199 -373h-147l85 320c15 58 10 68 -4 68c-20 0 -43 -39 -70 -99l-52 20c46 107 99 169 174 169c45 0 78 -31 78 -95c0 -26 -3 -60 -18 -111l8 -3c68 151 145 210 222 210c58 0 99 -40 99 -104
c0 -90 -78 -220 -78 -273z" />
    <glyph glyph-name="Ntilde" unicode="&#xd1;" horiz-adv-x="776" 
d="M470 -9l-184 512h-9l-104 -416h89l-21 -87h-263l21 87h84l121 484h-86l22 87h252l167 -462h9l93 375h-90l22 87h264l-21 -87h-86l-144 -580h-136zM448 783c-22 0 -38 -16 -57 -57h-66c33 103 65 164 138 164c64 0 109 -54 146 -54c22 0 38 16 57 57h66
c-33 -104 -65 -164 -138 -164c-64 0 -108 54 -146 54z" />
    <glyph glyph-name="ntilde" unicode="&#xf1;" horiz-adv-x="640" 
d="M494 102c0 -14 7 -19 17 -19c18 0 38 21 68 97l52 -18c-40 -115 -101 -172 -174 -172c-62 0 -99 39 -99 95c0 90 67 198 67 259c0 20 -11 29 -29 29c-39 0 -116 -49 -199 -373h-147l85 320c15 58 10 68 -4 68c-20 0 -43 -39 -70 -99l-52 20c46 107 99 169 174 169
c45 0 78 -31 78 -95c0 -26 -3 -60 -18 -111l8 -3c68 151 145 210 222 210c58 0 99 -40 99 -104c0 -90 -78 -220 -78 -273zM324 589c-22 0 -38 -16 -57 -57h-66c33 103 65 164 138 164c64 0 109 -54 146 -54c22 0 38 16 57 57h66c-33 -104 -65 -164 -138 -164
c-64 0 -108 54 -146 54z" />
    <glyph glyph-name="Oacute" unicode="&#xd3;" horiz-adv-x="735" 
d="M588 795l-93 -66h-70l83 134c29 48 53 82 92 82c38 0 63 -30 63 -60c0 -39 -29 -58 -75 -90zM58 275c0 173 125 399 376 399c171 0 292 -117 292 -291c0 -173 -125 -399 -376 -399c-172 0 -292 117 -292 291zM432 592c-152 0 -211 -254 -211 -372
c0 -107 53 -154 130 -154c153 0 211 254 211 372c0 107 -52 154 -130 154z" />
    <glyph glyph-name="oacute" unicode="&#xf3;" horiz-adv-x="535" 
d="M435 601l-93 -66h-70l83 134c29 48 53 82 92 82c38 0 63 -30 63 -60c0 -39 -29 -58 -75 -90zM305 479c123 0 206 -82 206 -197c0 -159 -134 -292 -281 -292c-123 0 -206 81 -206 196c0 159 134 293 281 293zM363 336c0 62 -25 79 -56 79c-87 0 -135 -199 -135 -283
c0 -62 25 -79 55 -79c88 0 136 199 136 283z" />
    <glyph glyph-name="Obreve" unicode="&#x14e;" horiz-adv-x="735" 
d="M58 275c0 173 125 399 376 399c171 0 292 -117 292 -291c0 -173 -125 -399 -376 -399c-172 0 -292 117 -292 291zM432 592c-152 0 -211 -254 -211 -372c0 -107 53 -154 130 -154c153 0 211 254 211 372c0 107 -52 154 -130 154zM486 727c-91 0 -149 59 -122 184h68
c-5 -60 25 -85 70 -85c47 0 82 28 103 85h71c-25 -124 -96 -184 -190 -184z" />
    <glyph glyph-name="obreve" unicode="&#x14f;" horiz-adv-x="535" 
d="M305 479c123 0 206 -82 206 -197c0 -159 -134 -292 -281 -292c-123 0 -206 81 -206 196c0 159 134 293 281 293zM363 336c0 62 -25 79 -56 79c-87 0 -135 -199 -135 -283c0 -62 25 -79 55 -79c88 0 136 199 136 283zM333 533c-91 0 -149 59 -122 184h68
c-5 -60 25 -85 70 -85c47 0 82 28 103 85h71c-25 -124 -96 -184 -190 -184z" />
    <glyph glyph-name="Ocircumflex" unicode="&#xd4;" horiz-adv-x="735" 
d="M313 729l172 197h81l74 -197h-81l-54 86l-102 -86h-90zM58 275c0 173 125 399 376 399c171 0 292 -117 292 -291c0 -173 -125 -399 -376 -399c-172 0 -292 117 -292 291zM432 592c-152 0 -211 -254 -211 -372c0 -107 53 -154 130 -154c153 0 211 254 211 372
c0 107 -52 154 -130 154z" />
    <glyph glyph-name="ocircumflex" unicode="&#xf4;" horiz-adv-x="535" 
d="M159 535l172 197h81l74 -197h-81l-54 86l-102 -86h-90zM305 479c123 0 206 -82 206 -197c0 -159 -134 -292 -281 -292c-123 0 -206 81 -206 196c0 159 134 293 281 293zM363 336c0 62 -25 79 -56 79c-87 0 -135 -199 -135 -283c0 -62 25 -79 55 -79c88 0 136 199 136 283
z" />
    <glyph glyph-name="Odieresis" unicode="&#xd6;" horiz-adv-x="735" 
d="M481 819c0 -40 -31 -87 -84 -87c-38 0 -66 26 -66 68c0 39 31 86 84 86c38 0 66 -26 66 -67zM677 819c0 -40 -31 -87 -84 -87c-38 0 -66 26 -66 68c0 39 31 86 84 86c38 0 66 -26 66 -67zM58 275c0 173 125 399 376 399c171 0 292 -117 292 -291
c0 -173 -125 -399 -376 -399c-172 0 -292 117 -292 291zM432 592c-152 0 -211 -254 -211 -372c0 -107 53 -154 130 -154c153 0 211 254 211 372c0 107 -52 154 -130 154z" />
    <glyph glyph-name="odieresis" unicode="&#xf6;" horiz-adv-x="535" 
d="M328 625c0 -40 -31 -87 -84 -87c-38 0 -66 26 -66 68c0 39 31 86 84 86c38 0 66 -26 66 -67zM524 625c0 -40 -31 -87 -84 -87c-38 0 -66 26 -66 68c0 39 31 86 84 86c38 0 66 -26 66 -67zM305 479c123 0 206 -82 206 -197c0 -159 -134 -292 -281 -292
c-123 0 -206 81 -206 196c0 159 134 293 281 293zM363 336c0 62 -25 79 -56 79c-87 0 -135 -199 -135 -283c0 -62 25 -79 55 -79c88 0 136 199 136 283z" />
    <glyph glyph-name="OE" unicode="&#x152;" horiz-adv-x="1023" 
d="M501 658h573l-58 -234h-79c3 125 -9 149 -93 149h-145l-50 -199h35c56 0 65 11 100 92h78l-66 -267h-77c10 81 4 94 -51 94h-39l-52 -208h142c100 0 118 35 178 175h88l-65 -260h-540c-222 0 -334 110 -334 263c0 99 37 201 112 277c75 75 184 118 343 118zM542 573h-54
c-80 0 -131 -17 -180 -66c-55 -55 -96 -175 -96 -272c0 -102 52 -150 164 -150h44z" />
    <glyph glyph-name="oe" unicode="&#x153;" horiz-adv-x="812" 
d="M722 148l43 -36c-53 -68 -118 -122 -224 -122c-60 0 -118 23 -149 74c-48 -50 -103 -74 -164 -74c-120 0 -204 81 -204 196c0 159 134 293 281 293c67 0 122 -23 156 -84c46 49 114 84 186 84c95 0 151 -48 151 -116c0 -91 -91 -166 -307 -173v-8c0 -88 47 -114 96 -114
c44 0 89 25 135 80zM363 336c0 62 -25 79 -56 79c-87 0 -135 -199 -135 -283c0 -62 25 -79 55 -79c88 0 136 199 136 283zM625 416c-62 0 -110 -90 -128 -173c130 9 170 68 170 122c0 31 -15 51 -42 51z" />
    <glyph glyph-name="Ograve" unicode="&#xd2;" horiz-adv-x="735" 
d="M58 275c0 173 125 399 376 399c171 0 292 -117 292 -291c0 -173 -125 -399 -376 -399c-172 0 -292 117 -292 291zM432 592c-152 0 -211 -254 -211 -372c0 -107 53 -154 130 -154c153 0 211 254 211 372c0 107 -52 154 -130 154zM489 840l25 -111h-63l-53 65
c-36 41 -48 65 -48 90c0 30 24 62 64 62c50 0 62 -47 75 -106z" />
    <glyph glyph-name="ograve" unicode="&#xf2;" horiz-adv-x="535" 
d="M305 479c123 0 206 -82 206 -197c0 -159 -134 -292 -281 -292c-123 0 -206 81 -206 196c0 159 134 293 281 293zM363 336c0 62 -25 79 -56 79c-87 0 -135 -199 -135 -283c0 -62 25 -79 55 -79c88 0 136 199 136 283zM336 646l25 -111h-63l-53 65c-36 41 -48 65 -48 90
c0 30 24 62 64 62c50 0 62 -47 75 -106z" />
    <glyph glyph-name="Ohungarumlaut" unicode="&#x150;" horiz-adv-x="735" 
d="M486 795l-84 -66h-69l72 134c27 49 49 82 86 82s63 -30 63 -60c0 -38 -26 -57 -68 -90zM674 795l-86 -66h-71l76 134c28 49 51 82 88 82s62 -29 62 -59c0 -39 -26 -58 -69 -91zM58 275c0 173 125 399 376 399c171 0 292 -117 292 -291c0 -173 -125 -399 -376 -399
c-172 0 -292 117 -292 291zM432 592c-152 0 -211 -254 -211 -372c0 -107 53 -154 130 -154c153 0 211 254 211 372c0 107 -52 154 -130 154z" />
    <glyph glyph-name="ohungarumlaut" unicode="&#x151;" horiz-adv-x="535" 
d="M333 601l-84 -66h-69l72 134c27 49 49 82 86 82s63 -30 63 -60c0 -38 -26 -57 -68 -90zM521 601l-86 -66h-71l76 134c28 49 51 82 88 82s62 -29 62 -59c0 -39 -26 -58 -69 -91zM305 479c123 0 206 -82 206 -197c0 -159 -134 -292 -281 -292c-123 0 -206 81 -206 196
c0 159 134 293 281 293zM363 336c0 62 -25 79 -56 79c-87 0 -135 -199 -135 -283c0 -62 25 -79 55 -79c88 0 136 199 136 283z" />
    <glyph glyph-name="Omacron" unicode="&#x14c;" horiz-adv-x="735" 
d="M337 734l25 98h298l-24 -98h-299zM58 275c0 173 125 399 376 399c171 0 292 -117 292 -291c0 -173 -125 -399 -376 -399c-172 0 -292 117 -292 291zM432 592c-152 0 -211 -254 -211 -372c0 -107 53 -154 130 -154c153 0 211 254 211 372c0 107 -52 154 -130 154z" />
    <glyph glyph-name="omacron" unicode="&#x14d;" horiz-adv-x="535" 
d="M183 540l25 98h298l-24 -98h-299zM305 479c123 0 206 -82 206 -197c0 -159 -134 -292 -281 -292c-123 0 -206 81 -206 196c0 159 134 293 281 293zM363 336c0 62 -25 79 -56 79c-87 0 -135 -199 -135 -283c0 -62 25 -79 55 -79c88 0 136 199 136 283z" />
    <glyph glyph-name="Oslash" unicode="&#xd8;" horiz-adv-x="735" 
d="M58 275c0 173 125 399 376 399c71 0 133 -21 182 -57l93 101l58 -52l-97 -103c35 -48 56 -109 56 -180c0 -173 -125 -399 -376 -399c-72 0 -134 20 -183 56l-93 -100l-58 52l97 102c-35 48 -55 110 -55 181zM562 438c0 7 -1 14 -1 21l-318 -338c23 -38 61 -55 108 -55
c153 0 211 254 211 372zM432 592c-152 0 -211 -254 -211 -372c0 -8 0 -14 1 -21l317 338c-22 37 -60 55 -107 55z" />
    <glyph glyph-name="oslash" unicode="&#xf8;" horiz-adv-x="535" 
d="M49 -50l-46 42l63 68c-27 33 -42 76 -42 126c0 159 134 293 281 293c45 0 84 -11 116 -31l65 70l46 -42l-63 -69c27 -33 42 -76 42 -125c0 -159 -134 -292 -281 -292c-45 0 -84 10 -116 29zM307 415c-77 0 -124 -152 -134 -248l187 210c-9 30 -29 38 -53 38zM227 53
c78 0 125 150 135 246l-187 -210c9 -29 28 -36 52 -36z" />
    <glyph glyph-name="Oslashacute" unicode="&#x1fe;" horiz-adv-x="735" 
d="M58 275c0 173 125 399 376 399c71 0 133 -21 182 -57l93 101l58 -52l-97 -103c35 -48 56 -109 56 -180c0 -173 -125 -399 -376 -399c-72 0 -134 20 -183 56l-93 -100l-58 52l97 102c-35 48 -55 110 -55 181zM562 438c0 7 -1 14 -1 21l-318 -338c23 -38 61 -55 108 -55
c153 0 211 254 211 372zM432 592c-152 0 -211 -254 -211 -372c0 -8 0 -14 1 -21l317 338c-22 37 -60 55 -107 55zM577 795l-93 -66h-70l83 134c29 48 53 82 92 82c38 0 63 -30 63 -60c0 -39 -29 -58 -75 -90z" />
    <glyph glyph-name="oslashacute" unicode="&#x1ff;" horiz-adv-x="537" 
d="M49 -50l-46 42l63 68c-27 33 -42 76 -42 126c0 159 134 293 281 293c45 0 84 -11 116 -31l65 70l46 -42l-63 -69c27 -33 42 -76 42 -125c0 -159 -134 -292 -281 -292c-45 0 -84 10 -116 29zM432 601l-93 -66h-70l83 134c29 48 53 82 92 82c38 0 63 -30 63 -60
c0 -39 -29 -58 -75 -90zM307 415c-77 0 -124 -152 -134 -248l187 210c-9 30 -29 38 -53 38zM227 53c78 0 125 150 135 246l-187 -210c9 -29 28 -36 52 -36z" />
    <glyph glyph-name="Otilde" unicode="&#xd5;" horiz-adv-x="735" 
d="M58 275c0 173 125 399 376 399c171 0 292 -117 292 -291c0 -173 -125 -399 -376 -399c-172 0 -292 117 -292 291zM432 592c-152 0 -211 -254 -211 -372c0 -107 53 -154 130 -154c153 0 211 254 211 372c0 107 -52 154 -130 154zM424 783c-22 0 -38 -16 -57 -57h-66
c33 103 65 164 138 164c64 0 109 -54 146 -54c22 0 38 16 57 57h66c-33 -104 -65 -164 -138 -164c-64 0 -108 54 -146 54z" />
    <glyph glyph-name="otilde" unicode="&#xf5;" horiz-adv-x="535" 
d="M305 479c123 0 206 -82 206 -197c0 -159 -134 -292 -281 -292c-123 0 -206 81 -206 196c0 159 134 293 281 293zM363 336c0 62 -25 79 -56 79c-87 0 -135 -199 -135 -283c0 -62 25 -79 55 -79c88 0 136 199 136 283zM271 589c-22 0 -38 -16 -57 -57h-66
c33 103 65 164 138 164c64 0 109 -54 146 -54c22 0 38 16 57 57h66c-33 -104 -65 -164 -138 -164c-64 0 -108 54 -146 54z" />
    <glyph glyph-name="Racute" unicode="&#x154;" horiz-adv-x="705" 
d="M553 795l-93 -66h-70l83 134c29 48 53 82 92 82c38 0 63 -30 63 -60c0 -39 -29 -58 -75 -90zM-30 0l22 87h88l121 484h-89l21 87h335c173 0 228 -72 228 -146c0 -97 -73 -173 -241 -184l-2 -7c100 -15 133 -58 133 -111c0 -32 -11 -72 -11 -97c0 -24 13 -30 28 -30
s29 10 52 47l43 -33c-37 -67 -81 -111 -158 -111c-75 0 -124 36 -124 100c0 44 20 96 20 144c0 36 -26 57 -89 57h-61l-50 -200h91l-21 -87h-336zM306 368h69c49 0 91 11 118 38c21 22 34 56 34 95c0 43 -24 74 -96 74h-73z" />
    <glyph glyph-name="racute" unicode="&#x155;" horiz-adv-x="506" 
d="M421 601l-93 -66h-70l83 134c29 48 53 82 92 82c38 0 63 -30 63 -60c0 -39 -29 -58 -75 -90zM50 0l85 320c15 58 10 68 -4 68c-20 0 -43 -39 -70 -99l-52 20c46 107 99 169 174 169c45 0 78 -31 78 -95c0 -26 -3 -57 -16 -102l9 -3c56 132 102 201 179 201
c48 0 86 -37 86 -89c0 -56 -37 -100 -85 -100c-38 0 -74 26 -71 77c-22 -9 -87 -59 -166 -367h-147z" />
    <glyph glyph-name="Rcaron" unicode="&#x158;" horiz-adv-x="705" 
d="M648 929l-171 -197h-81l-74 197h80l54 -86l103 86h89zM-30 0l22 87h88l121 484h-89l21 87h335c173 0 228 -72 228 -146c0 -97 -73 -173 -241 -184l-2 -7c100 -15 133 -58 133 -111c0 -32 -11 -72 -11 -97c0 -24 13 -30 28 -30s29 10 52 47l43 -33
c-37 -67 -81 -111 -158 -111c-75 0 -124 36 -124 100c0 44 20 96 20 144c0 36 -26 57 -89 57h-61l-50 -200h91l-21 -87h-336zM306 368h69c49 0 91 11 118 38c21 22 34 56 34 95c0 43 -24 74 -96 74h-73z" />
    <glyph glyph-name="rcaron" unicode="&#x159;" horiz-adv-x="506" 
d="M516 735l-171 -197h-81l-74 197h80l54 -86l103 86h89zM50 0l85 320c15 58 10 68 -4 68c-20 0 -43 -39 -70 -99l-52 20c46 107 99 169 174 169c45 0 78 -31 78 -95c0 -26 -3 -57 -16 -102l9 -3c56 132 102 201 179 201c48 0 86 -37 86 -89c0 -56 -37 -100 -85 -100
c-38 0 -74 26 -71 77c-22 -9 -87 -59 -166 -367h-147z" />
    <glyph glyph-name="Rcommaaccent" unicode="&#x156;" horiz-adv-x="705" 
d="M175 -364l-15 51c72 22 118 55 136 95l-7 5c-7 -4 -15 -6 -25 -6c-38 0 -63 27 -63 65c0 46 33 91 86 91c55 0 91 -41 91 -101c0 -94 -79 -169 -203 -200zM-30 0l22 87h88l121 484h-89l21 87h335c173 0 228 -72 228 -146c0 -97 -73 -173 -241 -184l-2 -7
c100 -15 133 -58 133 -111c0 -32 -11 -72 -11 -97c0 -24 13 -30 28 -30s29 10 52 47l43 -33c-37 -67 -81 -111 -158 -111c-75 0 -124 36 -124 100c0 44 20 96 20 144c0 36 -26 57 -89 57h-61l-50 -200h91l-21 -87h-336zM306 368h69c49 0 91 11 118 38c21 22 34 56 34 95
c0 43 -24 74 -96 74h-73z" />
    <glyph glyph-name="rcommaaccent" unicode="&#x157;" horiz-adv-x="506" 
d="M-15 -364l-15 51c72 22 118 55 136 95l-7 5c-7 -4 -15 -6 -25 -6c-38 0 -63 27 -63 65c0 46 33 91 86 91c55 0 91 -41 91 -101c0 -94 -79 -169 -203 -200zM50 0l85 320c15 58 10 68 -4 68c-20 0 -43 -39 -70 -99l-52 20c46 107 99 169 174 169c45 0 78 -31 78 -95
c0 -26 -3 -57 -16 -102l9 -3c56 132 102 201 179 201c48 0 86 -37 86 -89c0 -56 -37 -100 -85 -100c-38 0 -74 26 -71 77c-22 -9 -87 -59 -166 -367h-147z" />
    <glyph glyph-name="Sacute" unicode="&#x15a;" horiz-adv-x="611" 
d="M522 795l-93 -66h-70l83 134c29 48 53 82 92 82c38 0 63 -30 63 -60c0 -39 -29 -58 -75 -90zM-10 -14l60 252h85c14 -111 87 -171 181 -171c65 0 109 36 109 85c0 53 -65 78 -136 108c-87 37 -184 82 -184 195c0 126 108 219 238 219c75 0 142 -28 179 -78l42 76h86
l-58 -243h-86c-14 113 -68 162 -154 162c-59 0 -101 -36 -101 -83c0 -58 67 -83 140 -114c86 -37 180 -80 180 -189c0 -131 -111 -221 -246 -221c-94 0 -161 31 -204 84l-46 -82h-85z" />
    <glyph glyph-name="sacute" unicode="&#x15b;" horiz-adv-x="467" 
d="M412 601l-93 -66h-70l83 134c29 48 53 82 92 82c38 0 63 -30 63 -60c0 -39 -29 -58 -75 -90zM420 147c0 -107 -99 -157 -207 -157c-115 0 -206 47 -206 119c0 45 32 77 74 77c47 0 69 -32 69 -64c0 -20 -8 -41 -22 -56c14 -10 40 -20 76 -20c52 0 78 26 78 64
s-43 57 -90 79c-65 31 -126 62 -126 132c0 105 106 158 206 158c113 0 187 -51 187 -113c0 -43 -31 -73 -71 -73c-48 0 -71 32 -71 61c0 22 8 41 20 53c-8 7 -31 15 -58 15c-48 0 -78 -26 -78 -61c0 -40 47 -58 108 -88c51 -26 111 -55 111 -126z" />
    <glyph glyph-name="Scaron" unicode="&#x160;" horiz-adv-x="611" 
d="M618 929l-171 -197h-81l-74 197h80l54 -86l103 86h89zM-10 -14l60 252h85c14 -111 87 -171 181 -171c65 0 109 36 109 85c0 53 -65 78 -136 108c-87 37 -184 82 -184 195c0 126 108 219 238 219c75 0 142 -28 179 -78l42 76h86l-58 -243h-86c-14 113 -68 162 -154 162
c-59 0 -101 -36 -101 -83c0 -58 67 -83 140 -114c86 -37 180 -80 180 -189c0 -131 -111 -221 -246 -221c-94 0 -161 31 -204 84l-46 -82h-85z" />
    <glyph glyph-name="scaron" unicode="&#x161;" horiz-adv-x="467" 
d="M508 735l-171 -197h-81l-74 197h80l54 -86l103 86h89zM420 147c0 -107 -99 -157 -207 -157c-115 0 -206 47 -206 119c0 45 32 77 74 77c47 0 69 -32 69 -64c0 -20 -8 -41 -22 -56c14 -10 40 -20 76 -20c52 0 78 26 78 64s-43 57 -90 79c-65 31 -126 62 -126 132
c0 105 106 158 206 158c113 0 187 -51 187 -113c0 -43 -31 -73 -71 -73c-48 0 -71 32 -71 61c0 22 8 41 20 53c-8 7 -31 15 -58 15c-48 0 -78 -26 -78 -61c0 -40 47 -58 108 -88c51 -26 111 -55 111 -126z" />
    <glyph glyph-name="Scedilla" unicode="&#x15e;" horiz-adv-x="611" 
d="M127 -160c24 -15 56 -27 90 -27c28 0 45 11 45 31c0 24 -34 38 -91 34l-14 39l98 74c-58 11 -103 38 -134 77l-46 -82h-85l60 252h85c14 -111 87 -171 181 -171c65 0 109 36 109 85c0 53 -65 78 -136 108c-87 37 -184 82 -184 195c0 126 108 219 238 219
c75 0 142 -28 179 -78l42 76h86l-58 -243h-86c-14 113 -68 162 -154 162c-59 0 -101 -36 -101 -83c0 -58 67 -83 140 -114c86 -37 180 -80 180 -189c0 -130 -110 -219 -243 -221l-53 -43l1 -4c58 -12 92 -42 92 -84c0 -58 -53 -102 -140 -102c-43 0 -97 14 -135 41z" />
    <glyph glyph-name="scedilla" unicode="&#x15f;" horiz-adv-x="467" 
d="M40 -160c24 -15 56 -27 90 -27c28 0 45 11 45 31c0 24 -34 38 -91 34l-14 39l101 75c-95 10 -164 54 -164 117c0 45 32 77 74 77c47 0 69 -32 69 -64c0 -20 -8 -41 -22 -56c14 -10 40 -20 76 -20c52 0 78 26 78 64s-43 57 -90 79c-65 31 -126 62 -126 132
c0 105 106 158 206 158c113 0 187 -51 187 -113c0 -43 -31 -73 -71 -73c-48 0 -71 32 -71 61c0 22 8 41 20 53c-8 7 -31 15 -58 15c-48 0 -78 -26 -78 -61c0 -40 47 -58 108 -88c51 -26 111 -55 111 -126c0 -95 -77 -145 -169 -155l-63 -51l1 -4c58 -12 92 -42 92 -84
c0 -58 -53 -102 -140 -102c-43 0 -97 14 -135 41z" />
    <glyph glyph-name="Scommaaccent" unicode="&#x218;" horiz-adv-x="611" 
d="M114 -364l-15 51c72 22 118 55 136 95l-7 5c-7 -4 -15 -6 -25 -6c-38 0 -63 27 -63 65c0 46 33 91 86 91c55 0 91 -41 91 -101c0 -94 -79 -169 -203 -200zM-10 -14l60 252h85c14 -111 87 -171 181 -171c65 0 109 36 109 85c0 53 -65 78 -136 108c-87 37 -184 82 -184 195
c0 126 108 219 238 219c75 0 142 -28 179 -78l42 76h86l-58 -243h-86c-14 113 -68 162 -154 162c-59 0 -101 -36 -101 -83c0 -58 67 -83 140 -114c86 -37 180 -80 180 -189c0 -131 -111 -221 -246 -221c-94 0 -161 31 -204 84l-46 -82h-85z" />
    <glyph glyph-name="scommaaccent" unicode="&#x219;" horiz-adv-x="467" 
d="M35 -364l-15 51c72 22 118 55 136 95l-7 5c-7 -4 -15 -6 -25 -6c-38 0 -63 27 -63 65c0 46 33 91 86 91c55 0 91 -41 91 -101c0 -94 -79 -169 -203 -200zM420 147c0 -107 -99 -157 -207 -157c-115 0 -206 47 -206 119c0 45 32 77 74 77c47 0 69 -32 69 -64
c0 -20 -8 -41 -22 -56c14 -10 40 -20 76 -20c52 0 78 26 78 64s-43 57 -90 79c-65 31 -126 62 -126 132c0 105 106 158 206 158c113 0 187 -51 187 -113c0 -43 -31 -73 -71 -73c-48 0 -71 32 -71 61c0 22 8 41 20 53c-8 7 -31 15 -58 15c-48 0 -78 -26 -78 -61
c0 -40 47 -58 108 -88c51 -26 111 -55 111 -126z" />
    <glyph glyph-name="Tcaron" unicode="&#x164;" horiz-adv-x="694" 
d="M669 929l-171 -197h-81l-74 197h80l54 -86l103 86h89zM105 0l21 87h101l125 496h-29c-77 0 -93 -24 -171 -190h-81l66 265h624l-67 -265h-70c-1 163 -8 190 -86 190h-23l-125 -496h105l-21 -87h-369z" />
    <glyph glyph-name="tcaron" unicode="&#x165;" horiz-adv-x="409" 
d="M481 634l-62 -93h-54l31 162c13 64 35 93 76 93c32 0 61 -25 61 -59c0 -32 -18 -54 -52 -103zM413 385h-146l-56 -208c-5 -19 -8 -39 -8 -50c0 -30 16 -40 36 -40c36 0 62 38 88 104l54 -17c-46 -141 -123 -184 -196 -184c-71 0 -128 34 -128 114c0 25 7 61 15 91l52 190
h-85l18 71h86l32 117l147 17l-36 -134h146z" />
    <glyph glyph-name="Tcommaaccent" unicode="&#x162;" horiz-adv-x="694" 
d="M147 -364l-15 51c72 22 118 55 136 95l-7 5c-7 -4 -15 -6 -25 -6c-38 0 -63 27 -63 65c0 46 33 91 86 91c55 0 91 -41 91 -101c0 -94 -79 -169 -203 -200zM105 0l21 87h101l125 496h-29c-77 0 -93 -24 -171 -190h-81l66 265h624l-67 -265h-70c-1 163 -8 190 -86 190h-23
l-125 -496h105l-21 -87h-369z" />
    <glyph glyph-name="tcommaaccent" unicode="&#x163;" horiz-adv-x="409" 
d="M28 -364l-15 51c72 22 118 55 136 95l-7 5c-7 -4 -15 -6 -25 -6c-38 0 -63 27 -63 65c0 46 33 91 86 91c55 0 91 -41 91 -101c0 -94 -79 -169 -203 -200zM413 385h-146l-56 -208c-5 -19 -8 -39 -8 -50c0 -30 16 -40 36 -40c36 0 62 38 88 104l54 -17
c-46 -141 -123 -184 -196 -184c-71 0 -128 34 -128 114c0 25 7 61 15 91l52 190h-85l18 71h86l32 117l147 17l-36 -134h146z" />
    <glyph glyph-name="Thorn" unicode="&#xde;" horiz-adv-x="663" 
d="M-27 0l21 87h86l121 484h-87l21 87h333l-22 -87h-89l-13 -52h46c201 0 272 -60 272 -161c0 -92 -71 -209 -316 -209h-94l-15 -62h89l-21 -87h-332zM367 436h-44l-50 -204h66c119 0 150 71 150 125c0 57 -38 79 -122 79z" />
    <glyph glyph-name="thorn" unicode="&#xfe;" horiz-adv-x="550" 
d="M325 385c-72 0 -128 -142 -128 -240c0 -46 17 -75 55 -75c76 0 124 159 124 238c0 53 -19 77 -51 77zM329 690l-95 -312l8 -3c35 63 88 104 145 104c94 0 140 -69 140 -168c0 -143 -96 -311 -233 -311c-56 0 -99 26 -121 74l-39 -152h86l-22 -83h-296l22 83h65l173 683
h-74l22 85h219z" />
    <glyph glyph-name="Uacute" unicode="&#xda;" horiz-adv-x="731" 
d="M636 795l-93 -66h-70l83 134c29 48 53 82 92 82c38 0 63 -30 63 -60c0 -39 -29 -58 -75 -90zM338 -16c-161 0 -244 81 -244 183c0 28 8 66 15 95l77 309h-84l21 87h329l-21 -87h-87l-80 -318c-7 -28 -10 -50 -10 -71c0 -70 54 -99 121 -99c43 0 80 13 109 42
c26 26 44 62 56 112l84 334h-85l21 87h259l-22 -87h-80l-89 -357c-15 -60 -39 -114 -81 -156c-46 -46 -113 -74 -209 -74z" />
    <glyph glyph-name="uacute" unicode="&#xfa;" horiz-adv-x="642" 
d="M471 601l-93 -66h-70l83 134c29 48 53 82 92 82c38 0 63 -30 63 -60c0 -39 -29 -58 -75 -90zM472 -10c-57 0 -95 30 -95 96c0 26 6 58 23 117l-8 3c-71 -158 -141 -216 -217 -216c-59 0 -102 39 -102 103c0 89 73 222 73 273c0 14 -7 20 -16 20c-17 0 -34 -18 -68 -97
l-52 20c40 106 99 170 176 170c62 0 98 -38 98 -95c0 -86 -64 -195 -64 -254c0 -25 10 -35 28 -35c40 0 113 48 196 374h147l-82 -314c-5 -22 -8 -37 -8 -48c0 -18 10 -24 20 -24c21 0 40 23 66 97l51 -18c-38 -118 -95 -172 -166 -172z" />
    <glyph glyph-name="Ubreve" unicode="&#x16c;" horiz-adv-x="731" 
d="M338 -16c-161 0 -244 81 -244 183c0 28 8 66 15 95l77 309h-84l21 87h329l-21 -87h-87l-80 -318c-7 -28 -10 -50 -10 -71c0 -70 54 -99 121 -99c43 0 80 13 109 42c26 26 44 62 56 112l84 334h-85l21 87h259l-22 -87h-80l-89 -357c-15 -60 -39 -114 -81 -156
c-46 -46 -113 -74 -209 -74zM534 727c-91 0 -149 59 -122 184h68c-5 -60 25 -85 70 -85c47 0 82 28 103 85h71c-25 -124 -96 -184 -190 -184z" />
    <glyph glyph-name="ubreve" unicode="&#x16d;" horiz-adv-x="642" 
d="M472 -10c-57 0 -95 30 -95 96c0 26 6 58 23 117l-8 3c-71 -158 -141 -216 -217 -216c-59 0 -102 39 -102 103c0 89 73 222 73 273c0 14 -7 20 -16 20c-17 0 -34 -18 -68 -97l-52 20c40 106 99 170 176 170c62 0 98 -38 98 -95c0 -86 -64 -195 -64 -254
c0 -25 10 -35 28 -35c40 0 113 48 196 374h147l-82 -314c-5 -22 -8 -37 -8 -48c0 -18 10 -24 20 -24c21 0 40 23 66 97l51 -18c-38 -118 -95 -172 -166 -172zM368 526c-91 0 -149 59 -122 184h68c-5 -60 25 -85 70 -85c47 0 82 28 103 85h71c-25 -124 -96 -184 -190 -184z
" />
    <glyph glyph-name="Ucircumflex" unicode="&#xdb;" horiz-adv-x="731" 
d="M360 729l172 197h81l74 -197h-81l-54 86l-102 -86h-90zM338 -16c-161 0 -244 81 -244 183c0 28 8 66 15 95l77 309h-84l21 87h329l-21 -87h-87l-80 -318c-7 -28 -10 -50 -10 -71c0 -70 54 -99 121 -99c43 0 80 13 109 42c26 26 44 62 56 112l84 334h-85l21 87h259
l-22 -87h-80l-89 -357c-15 -60 -39 -114 -81 -156c-46 -46 -113 -74 -209 -74z" />
    <glyph glyph-name="ucircumflex" unicode="&#xfb;" horiz-adv-x="642" 
d="M195 535l172 197h81l74 -197h-81l-54 86l-102 -86h-90zM472 -10c-57 0 -95 30 -95 96c0 26 6 58 23 117l-8 3c-71 -158 -141 -216 -217 -216c-59 0 -102 39 -102 103c0 89 73 222 73 273c0 14 -7 20 -16 20c-17 0 -34 -18 -68 -97l-52 20c40 106 99 170 176 170
c62 0 98 -38 98 -95c0 -86 -64 -195 -64 -254c0 -25 10 -35 28 -35c40 0 113 48 196 374h147l-82 -314c-5 -22 -8 -37 -8 -48c0 -18 10 -24 20 -24c21 0 40 23 66 97l51 -18c-38 -118 -95 -172 -166 -172z" />
    <glyph glyph-name="Udieresis" unicode="&#xdc;" horiz-adv-x="731" 
d="M529 819c0 -40 -31 -87 -84 -87c-38 0 -66 26 -66 68c0 39 31 86 84 86c38 0 66 -26 66 -67zM725 819c0 -40 -31 -87 -84 -87c-38 0 -66 26 -66 68c0 39 31 86 84 86c38 0 66 -26 66 -67zM338 -16c-161 0 -244 81 -244 183c0 28 8 66 15 95l77 309h-84l21 87h329l-21 -87
h-87l-80 -318c-7 -28 -10 -50 -10 -71c0 -70 54 -99 121 -99c43 0 80 13 109 42c26 26 44 62 56 112l84 334h-85l21 87h259l-22 -87h-80l-89 -357c-15 -60 -39 -114 -81 -156c-46 -46 -113 -74 -209 -74z" />
    <glyph glyph-name="udieresis" unicode="&#xfc;" horiz-adv-x="642" 
d="M364 625c0 -40 -31 -87 -84 -87c-38 0 -66 26 -66 68c0 39 31 86 84 86c38 0 66 -26 66 -67zM560 625c0 -40 -31 -87 -84 -87c-38 0 -66 26 -66 68c0 39 31 86 84 86c38 0 66 -26 66 -67zM472 -10c-57 0 -95 30 -95 96c0 26 6 58 23 117l-8 3
c-71 -158 -141 -216 -217 -216c-59 0 -102 39 -102 103c0 89 73 222 73 273c0 14 -7 20 -16 20c-17 0 -34 -18 -68 -97l-52 20c40 106 99 170 176 170c62 0 98 -38 98 -95c0 -86 -64 -195 -64 -254c0 -25 10 -35 28 -35c40 0 113 48 196 374h147l-82 -314
c-5 -22 -8 -37 -8 -48c0 -18 10 -24 20 -24c21 0 40 23 66 97l51 -18c-38 -118 -95 -172 -166 -172z" />
    <glyph glyph-name="Ugrave" unicode="&#xd9;" horiz-adv-x="731" 
d="M338 -16c-161 0 -244 81 -244 183c0 28 8 66 15 95l77 309h-84l21 87h329l-21 -87h-87l-80 -318c-7 -28 -10 -50 -10 -71c0 -70 54 -99 121 -99c43 0 80 13 109 42c26 26 44 62 56 112l84 334h-85l21 87h259l-22 -87h-80l-89 -357c-15 -60 -39 -114 -81 -156
c-46 -46 -113 -74 -209 -74zM537 840l25 -111h-63l-53 65c-36 41 -48 65 -48 90c0 30 24 62 64 62c50 0 62 -47 75 -106z" />
    <glyph glyph-name="ugrave" unicode="&#xf9;" horiz-adv-x="642" 
d="M472 -10c-57 0 -95 30 -95 96c0 26 6 58 23 117l-8 3c-71 -158 -141 -216 -217 -216c-59 0 -102 39 -102 103c0 89 73 222 73 273c0 14 -7 20 -16 20c-17 0 -34 -18 -68 -97l-52 20c40 106 99 170 176 170c62 0 98 -38 98 -95c0 -86 -64 -195 -64 -254
c0 -25 10 -35 28 -35c40 0 113 48 196 374h147l-82 -314c-5 -22 -8 -37 -8 -48c0 -18 10 -24 20 -24c21 0 40 23 66 97l51 -18c-38 -118 -95 -172 -166 -172zM372 646l25 -111h-63l-53 65c-36 41 -48 65 -48 90c0 30 24 62 64 62c50 0 62 -47 75 -106z" />
    <glyph glyph-name="Uhungarumlaut" unicode="&#x170;" horiz-adv-x="731" 
d="M338 -16c-161 0 -244 81 -244 183c0 28 8 66 15 95l77 309h-84l21 87h329l-21 -87h-87l-80 -318c-7 -28 -10 -50 -10 -71c0 -70 54 -99 121 -99c43 0 80 13 109 42c26 26 44 62 56 112l84 334h-85l21 87h259l-22 -87h-80l-89 -357c-15 -60 -39 -114 -81 -156
c-46 -46 -113 -74 -209 -74zM534 795l-84 -66h-69l72 134c27 49 49 82 86 82s63 -30 63 -60c0 -38 -26 -57 -68 -90zM722 795l-86 -66h-71l76 134c28 49 51 82 88 82s62 -29 62 -59c0 -39 -26 -58 -69 -91z" />
    <glyph glyph-name="uhungarumlaut" unicode="&#x171;" horiz-adv-x="642" 
d="M472 -10c-57 0 -95 30 -95 96c0 26 6 58 23 117l-8 3c-71 -158 -141 -216 -217 -216c-59 0 -102 39 -102 103c0 89 73 222 73 273c0 14 -7 20 -16 20c-17 0 -34 -18 -68 -97l-52 20c40 106 99 170 176 170c62 0 98 -38 98 -95c0 -86 -64 -195 -64 -254
c0 -25 10 -35 28 -35c40 0 113 48 196 374h147l-82 -314c-5 -22 -8 -37 -8 -48c0 -18 10 -24 20 -24c21 0 40 23 66 97l51 -18c-38 -118 -95 -172 -166 -172zM369 601l-84 -66h-69l72 134c27 49 49 82 86 82s63 -30 63 -60c0 -38 -26 -57 -68 -90zM557 601l-86 -66h-71
l76 134c28 49 51 82 88 82s62 -29 62 -59c0 -39 -26 -58 -69 -91z" />
    <glyph glyph-name="Umacron" unicode="&#x16a;" horiz-adv-x="731" 
d="M338 -16c-161 0 -244 81 -244 183c0 28 8 66 15 95l77 309h-84l21 87h329l-21 -87h-87l-80 -318c-7 -28 -10 -50 -10 -71c0 -70 54 -99 121 -99c43 0 80 13 109 42c26 26 44 62 56 112l84 334h-85l21 87h259l-22 -87h-80l-89 -357c-15 -60 -39 -114 -81 -156
c-46 -46 -113 -74 -209 -74zM384 734l25 98h298l-24 -98h-299z" />
    <glyph glyph-name="umacron" unicode="&#x16b;" horiz-adv-x="642" 
d="M472 -10c-57 0 -95 30 -95 96c0 26 6 58 23 117l-8 3c-71 -158 -141 -216 -217 -216c-59 0 -102 39 -102 103c0 89 73 222 73 273c0 14 -7 20 -16 20c-17 0 -34 -18 -68 -97l-52 20c40 106 99 170 176 170c62 0 98 -38 98 -95c0 -86 -64 -195 -64 -254
c0 -25 10 -35 28 -35c40 0 113 48 196 374h147l-82 -314c-5 -22 -8 -37 -8 -48c0 -18 10 -24 20 -24c21 0 40 23 66 97l51 -18c-38 -118 -95 -172 -166 -172zM219 540l25 98h298l-24 -98h-299z" />
    <glyph glyph-name="Uogonek" unicode="&#x172;" horiz-adv-x="731" 
d="M411 -212c-33 -22 -74 -38 -120 -38c-67 0 -124 30 -124 96c0 55 43 96 118 141c-126 16 -191 90 -191 180c0 28 8 66 15 95l77 309h-84l21 87h329l-21 -87h-87l-80 -318c-7 -28 -10 -50 -10 -71c0 -70 54 -99 121 -99c43 0 80 13 109 42c26 26 44 62 56 112l84 334h-85
l21 87h259l-22 -87h-80l-89 -357c-15 -60 -39 -114 -81 -156c-39 -39 -94 -65 -168 -72c-77 -57 -99 -87 -99 -119c0 -23 14 -45 51 -45c19 0 38 6 60 18z" />
    <glyph glyph-name="uogonek" unicode="&#x173;" horiz-adv-x="642" 
d="M587 180l51 -18c-23 -68 -46 -119 -115 -169c-84 -61 -106 -94 -106 -126c0 -23 14 -45 50 -45c20 0 39 6 60 18l20 -52c-32 -22 -74 -38 -120 -38c-66 0 -123 30 -123 96c0 58 46 100 131 149c-34 11 -58 39 -58 91c0 26 6 58 23 117l-8 3c-71 -158 -141 -216 -217 -216
c-59 0 -102 39 -102 103c0 89 73 222 73 273c0 14 -7 20 -16 20c-17 0 -34 -18 -68 -97l-52 20c40 106 99 170 176 170c62 0 98 -38 98 -95c0 -86 -64 -195 -64 -254c0 -25 10 -35 28 -35c40 0 113 48 196 374h147l-82 -314c-5 -22 -8 -37 -8 -48c0 -18 10 -24 20 -24
c21 0 40 23 66 97z" />
    <glyph glyph-name="Uring" unicode="&#x16e;" horiz-adv-x="731" 
d="M687 851c0 -68 -52 -128 -134 -128c-75 0 -118 48 -118 105c0 67 52 127 134 127c75 0 118 -48 118 -104zM510 824c0 -27 13 -51 45 -51c33 0 57 38 57 81c0 27 -13 51 -45 51c-33 0 -57 -37 -57 -81zM338 -16c-161 0 -244 81 -244 183c0 28 8 66 15 95l77 309h-84l21 87
h329l-21 -87h-87l-80 -318c-7 -28 -10 -50 -10 -71c0 -70 54 -99 121 -99c43 0 80 13 109 42c26 26 44 62 56 112l84 334h-85l21 87h259l-22 -87h-80l-89 -357c-15 -60 -39 -114 -81 -156c-46 -46 -113 -74 -209 -74z" />
    <glyph glyph-name="uring" unicode="&#x16f;" horiz-adv-x="642" 
d="M523 657c0 -68 -52 -128 -134 -128c-75 0 -118 48 -118 105c0 67 52 127 134 127c75 0 118 -48 118 -104zM346 630c0 -27 13 -51 45 -51c33 0 57 38 57 81c0 27 -13 51 -45 51c-33 0 -57 -37 -57 -81zM472 -10c-57 0 -95 30 -95 96c0 26 6 58 23 117l-8 3
c-71 -158 -141 -216 -217 -216c-59 0 -102 39 -102 103c0 89 73 222 73 273c0 14 -7 20 -16 20c-17 0 -34 -18 -68 -97l-52 20c40 106 99 170 176 170c62 0 98 -38 98 -95c0 -86 -64 -195 -64 -254c0 -25 10 -35 28 -35c40 0 113 48 196 374h147l-82 -314
c-5 -22 -8 -37 -8 -48c0 -18 10 -24 20 -24c21 0 40 23 66 97l51 -18c-38 -118 -95 -172 -166 -172z" />
    <glyph glyph-name="Wacute" unicode="&#x1e82;" horiz-adv-x="1023" 
d="M754 795l-93 -66h-70l83 134c29 48 53 82 92 82c38 0 63 -30 63 -60c0 -39 -29 -58 -75 -90zM584 -4l-23 366l-214 -366h-141l-36 575h-87l22 87h313l-21 -86h-70l19 -420h6l201 341l-5 79h-77l21 86h305l-21 -86h-77l18 -420h6l216 420h-87l21 86h255l-21 -87h-68
l-310 -575h-145z" />
    <glyph glyph-name="wacute" unicode="&#x1e83;" horiz-adv-x="790" 
d="M191 478c61 0 94 -37 94 -89c0 -99 -83 -203 -83 -265c0 -22 10 -39 35 -39c53 0 113 83 182 384h132l-36 -153c-15 -64 -24 -116 -24 -158c0 -57 25 -71 55 -71c91 0 154 159 153 245c-8 -5 -21 -9 -36 -9c-37 0 -68 27 -68 71c0 45 35 87 84 87c52 0 95 -37 95 -123
c0 -140 -98 -369 -270 -369c-73 0 -129 38 -129 142v14l-5 2c-37 -85 -91 -158 -180 -158c-73 0 -130 48 -130 127c0 95 90 192 90 251c0 13 -7 18 -16 18c-24 0 -42 -31 -74 -96l-52 20c48 107 104 169 183 169zM573 601l-93 -66h-70l83 134c29 48 53 82 92 82
c38 0 63 -30 63 -60c0 -39 -29 -58 -75 -90z" />
    <glyph glyph-name="Wcircumflex" unicode="&#x174;" horiz-adv-x="1023" 
d="M478 729l172 197h81l74 -197h-81l-54 86l-102 -86h-90zM584 -4l-23 366l-214 -366h-141l-36 575h-87l22 87h313l-21 -86h-70l19 -420h6l201 341l-5 79h-77l21 86h305l-21 -86h-77l18 -420h6l216 420h-87l21 86h255l-21 -87h-68l-310 -575h-145z" />
    <glyph glyph-name="wcircumflex" unicode="&#x175;" horiz-adv-x="790" 
d="M191 478c61 0 94 -37 94 -89c0 -99 -83 -203 -83 -265c0 -22 10 -39 35 -39c53 0 113 83 182 384h132l-36 -153c-15 -64 -24 -116 -24 -158c0 -57 25 -71 55 -71c91 0 154 159 153 245c-8 -5 -21 -9 -36 -9c-37 0 -68 27 -68 71c0 45 35 87 84 87c52 0 95 -37 95 -123
c0 -140 -98 -369 -270 -369c-73 0 -129 38 -129 142v14l-5 2c-37 -85 -91 -158 -180 -158c-73 0 -130 48 -130 127c0 95 90 192 90 251c0 13 -7 18 -16 18c-24 0 -42 -31 -74 -96l-52 20c48 107 104 169 183 169zM297 535l172 197h81l74 -197h-81l-54 86l-102 -86h-90z" />
    <glyph glyph-name="Wdieresis" unicode="&#x1e84;" horiz-adv-x="1023" 
d="M647 819c0 -40 -31 -87 -84 -87c-38 0 -66 26 -66 68c0 39 31 86 84 86c38 0 66 -26 66 -67zM843 819c0 -40 -31 -87 -84 -87c-38 0 -66 26 -66 68c0 39 31 86 84 86c38 0 66 -26 66 -67zM584 -4l-23 366l-214 -366h-141l-36 575h-87l22 87h313l-21 -86h-70l19 -420h6
l201 341l-5 79h-77l21 86h305l-21 -86h-77l18 -420h6l216 420h-87l21 86h255l-21 -87h-68l-310 -575h-145z" />
    <glyph glyph-name="wdieresis" unicode="&#x1e85;" horiz-adv-x="790" 
d="M191 478c61 0 94 -37 94 -89c0 -99 -83 -203 -83 -265c0 -22 10 -39 35 -39c53 0 113 83 182 384h132l-36 -153c-15 -64 -24 -116 -24 -158c0 -57 25 -71 55 -71c91 0 154 159 153 245c-8 -5 -21 -9 -36 -9c-37 0 -68 27 -68 71c0 45 35 87 84 87c52 0 95 -37 95 -123
c0 -140 -98 -369 -270 -369c-73 0 -129 38 -129 142v14l-5 2c-37 -85 -91 -158 -180 -158c-73 0 -130 48 -130 127c0 95 90 192 90 251c0 13 -7 18 -16 18c-24 0 -42 -31 -74 -96l-52 20c48 107 104 169 183 169zM662 625c0 -40 -31 -87 -84 -87c-38 0 -66 26 -66 68
c0 39 31 86 84 86c38 0 66 -26 66 -67zM466 625c0 -40 -31 -87 -84 -87c-38 0 -66 26 -66 68c0 39 31 86 84 86c38 0 66 -26 66 -67z" />
    <glyph glyph-name="Wgrave" unicode="&#x1e80;" horiz-adv-x="1023" 
d="M584 -4l-23 366l-214 -366h-141l-36 575h-87l22 87h313l-21 -86h-70l19 -420h6l201 341l-5 79h-77l21 86h305l-21 -86h-77l18 -420h6l216 420h-87l21 86h255l-21 -87h-68l-310 -575h-145zM655 840l25 -111h-63l-53 65c-36 41 -48 65 -48 90c0 30 24 62 64 62
c50 0 62 -47 75 -106z" />
    <glyph glyph-name="wgrave" unicode="&#x1e81;" horiz-adv-x="790" 
d="M191 478c61 0 94 -37 94 -89c0 -99 -83 -203 -83 -265c0 -22 10 -39 35 -39c53 0 113 83 182 384h132l-36 -153c-15 -64 -24 -116 -24 -158c0 -57 25 -71 55 -71c91 0 154 159 153 245c-8 -5 -21 -9 -36 -9c-37 0 -68 27 -68 71c0 45 35 87 84 87c52 0 95 -37 95 -123
c0 -140 -98 -369 -270 -369c-73 0 -129 38 -129 142v14l-5 2c-37 -85 -91 -158 -180 -158c-73 0 -130 48 -130 127c0 95 90 192 90 251c0 13 -7 18 -16 18c-24 0 -42 -31 -74 -96l-52 20c48 107 104 169 183 169zM474 646l25 -111h-63l-53 65c-36 41 -48 65 -48 90
c0 30 24 62 64 62c50 0 62 -47 75 -106z" />
    <glyph glyph-name="Yacute" unicode="&#xdd;" horiz-adv-x="653" 
d="M400 355l175 217h-79l22 86h249l-21 -87h-68l-255 -301l-46 -183h89l-21 -87h-335l21 87h89l46 185l-105 299h-76l21 87h325l-21 -86h-80zM565 795l-93 -66h-70l83 134c29 48 53 82 92 82c38 0 63 -30 63 -60c0 -39 -29 -58 -75 -90z" />
    <glyph glyph-name="yacute" unicode="&#xfd;" horiz-adv-x="578" 
d="M189 478c58 0 92 -37 92 -90c0 -83 -57 -181 -57 -231c0 -23 12 -32 31 -32c42 0 106 37 185 344h136l-98 -412c-44 -184 -159 -231 -277 -231c-58 0 -175 13 -175 102c0 36 28 76 76 76c46 0 71 -32 70 -67c0 -22 -13 -40 -24 -50c10 -3 22 -6 42 -6
c78 0 121 54 151 173l28 106l-6 3c-58 -106 -117 -138 -177 -138c-70 0 -105 46 -105 102c0 78 66 184 66 240c0 13 -7 18 -14 18c-24 0 -47 -37 -75 -96l-52 20c48 107 105 169 183 169zM465 601l-93 -66h-70l83 134c29 48 53 82 92 82c38 0 63 -30 63 -60
c0 -39 -29 -58 -75 -90z" />
    <glyph glyph-name="Ycircumflex" unicode="&#x176;" horiz-adv-x="653" 
d="M400 355l175 217h-79l22 86h249l-21 -87h-68l-255 -301l-46 -183h89l-21 -87h-335l21 87h89l46 185l-105 299h-76l21 87h325l-21 -86h-80zM290 729l172 197h81l74 -197h-81l-54 86l-102 -86h-90z" />
    <glyph glyph-name="ycircumflex" unicode="&#x177;" horiz-adv-x="578" 
d="M189 478c58 0 92 -37 92 -90c0 -83 -57 -181 -57 -231c0 -23 12 -32 31 -32c42 0 106 37 185 344h136l-98 -412c-44 -184 -159 -231 -277 -231c-58 0 -175 13 -175 102c0 36 28 76 76 76c46 0 71 -32 70 -67c0 -22 -13 -40 -24 -50c10 -3 22 -6 42 -6
c78 0 121 54 151 173l28 106l-6 3c-58 -106 -117 -138 -177 -138c-70 0 -105 46 -105 102c0 78 66 184 66 240c0 13 -7 18 -14 18c-24 0 -47 -37 -75 -96l-52 20c48 107 105 169 183 169zM189 535l172 197h81l74 -197h-81l-54 86l-102 -86h-90z" />
    <glyph glyph-name="Ydieresis" unicode="&#x178;" horiz-adv-x="653" 
d="M400 355l175 217h-79l22 86h249l-21 -87h-68l-255 -301l-46 -183h89l-21 -87h-335l21 87h89l46 185l-105 299h-76l21 87h325l-21 -86h-80zM458 819c0 -40 -31 -87 -84 -87c-38 0 -66 26 -66 68c0 39 31 86 84 86c38 0 66 -26 66 -67zM654 819c0 -40 -31 -87 -84 -87
c-38 0 -66 26 -66 68c0 39 31 86 84 86c38 0 66 -26 66 -67z" />
    <glyph glyph-name="ydieresis" unicode="&#xff;" horiz-adv-x="578" 
d="M189 478c58 0 92 -37 92 -90c0 -83 -57 -181 -57 -231c0 -23 12 -32 31 -32c42 0 106 37 185 344h136l-98 -412c-44 -184 -159 -231 -277 -231c-58 0 -175 13 -175 102c0 36 28 76 76 76c46 0 71 -32 70 -67c0 -22 -13 -40 -24 -50c10 -3 22 -6 42 -6
c78 0 121 54 151 173l28 106l-6 3c-58 -106 -117 -138 -177 -138c-70 0 -105 46 -105 102c0 78 66 184 66 240c0 13 -7 18 -14 18c-24 0 -47 -37 -75 -96l-52 20c48 107 105 169 183 169zM358 625c0 -40 -31 -87 -84 -87c-38 0 -66 26 -66 68c0 39 31 86 84 86
c38 0 66 -26 66 -67zM554 625c0 -40 -31 -87 -84 -87c-38 0 -66 26 -66 68c0 39 31 86 84 86c38 0 66 -26 66 -67z" />
    <glyph glyph-name="Ygrave" unicode="&#x1ef2;" horiz-adv-x="653" 
d="M400 355l175 217h-79l22 86h249l-21 -87h-68l-255 -301l-46 -183h89l-21 -87h-335l21 87h89l46 185l-105 299h-76l21 87h325l-21 -86h-80zM466 840l25 -111h-63l-53 65c-36 41 -48 65 -48 90c0 30 24 62 64 62c50 0 62 -47 75 -106z" />
    <glyph glyph-name="ygrave" unicode="&#x1ef3;" horiz-adv-x="578" 
d="M189 478c58 0 92 -37 92 -90c0 -83 -57 -181 -57 -231c0 -23 12 -32 31 -32c42 0 106 37 185 344h136l-98 -412c-44 -184 -159 -231 -277 -231c-58 0 -175 13 -175 102c0 36 28 76 76 76c46 0 71 -32 70 -67c0 -22 -13 -40 -24 -50c10 -3 22 -6 42 -6
c78 0 121 54 151 173l28 106l-6 3c-58 -106 -117 -138 -177 -138c-70 0 -105 46 -105 102c0 78 66 184 66 240c0 13 -7 18 -14 18c-24 0 -47 -37 -75 -96l-52 20c48 107 105 169 183 169zM366 646l25 -111h-63l-53 65c-36 41 -48 65 -48 90c0 30 24 62 64 62
c50 0 62 -47 75 -106z" />
    <glyph glyph-name="Zacute" unicode="&#x179;" horiz-adv-x="636" 
d="M543 795l-93 -66h-70l83 134c29 48 53 82 92 82c38 0 63 -30 63 -60c0 -39 -29 -58 -75 -90zM-25 0l20 79l489 494h-135c-78 0 -100 -18 -182 -177h-76l66 262h544l-20 -79l-490 -494h157c78 0 99 20 184 187h75l-68 -272h-564z" />
    <glyph glyph-name="zacute" unicode="&#x17a;" horiz-adv-x="502" 
d="M426 601l-93 -66h-70l83 134c29 48 53 82 92 82c38 0 63 -30 63 -60c0 -39 -29 -58 -75 -90zM176 149c66 -4 117 -28 159 -28s58 15 91 89l51 -15c-41 -137 -80 -206 -173 -206c-56 0 -106 27 -143 83l-21 33l-9 -2c-14 -87 -51 -114 -82 -114c-39 0 -67 30 -67 65
c0 43 39 78 125 94c67 80 141 133 219 171c-67 4 -110 28 -150 28s-62 -16 -95 -90l-50 16c41 137 82 206 177 206c49 0 96 -28 132 -83l22 -33l9 2c14 87 50 114 82 114c39 0 67 -31 67 -66c0 -43 -39 -77 -125 -93c-67 -80 -141 -134 -219 -171z" />
    <glyph glyph-name="Zcaron" unicode="&#x17d;" horiz-adv-x="636" 
d="M639 929l-171 -197h-81l-74 197h80l54 -86l103 86h89zM-25 0l20 79l489 494h-135c-78 0 -100 -18 -182 -177h-76l66 262h544l-20 -79l-490 -494h157c78 0 99 20 184 187h75l-68 -272h-564z" />
    <glyph glyph-name="zcaron" unicode="&#x17e;" horiz-adv-x="502" 
d="M521 735l-171 -197h-81l-74 197h80l54 -86l103 86h89zM176 149c66 -4 117 -28 159 -28s58 15 91 89l51 -15c-41 -137 -80 -206 -173 -206c-56 0 -106 27 -143 83l-21 33l-9 -2c-14 -87 -51 -114 -82 -114c-39 0 -67 30 -67 65c0 43 39 78 125 94c67 80 141 133 219 171
c-67 4 -110 28 -150 28s-62 -16 -95 -90l-50 16c41 137 82 206 177 206c49 0 96 -28 132 -83l22 -33l9 2c14 87 50 114 82 114c39 0 67 -31 67 -66c0 -43 -39 -77 -125 -93c-67 -80 -141 -134 -219 -171z" />
    <glyph glyph-name="Zdotaccent" unicode="&#x17b;" horiz-adv-x="636" 
d="M-25 0l20 79l489 494h-135c-78 0 -100 -18 -182 -177h-76l66 262h544l-20 -79l-490 -494h157c78 0 99 20 184 187h75l-68 -272h-564zM542 816c0 -42 -33 -91 -92 -91c-41 0 -72 27 -72 72c0 41 33 90 92 90c42 0 72 -27 72 -71z" />
    <glyph glyph-name="zdotaccent" unicode="&#x17c;" horiz-adv-x="502" 
d="M176 149c66 -4 117 -28 159 -28s58 15 91 89l51 -15c-41 -137 -80 -206 -173 -206c-56 0 -106 27 -143 83l-21 33l-9 -2c-14 -87 -51 -114 -82 -114c-39 0 -67 30 -67 65c0 43 39 78 125 94c67 80 141 133 219 171c-67 4 -110 28 -150 28s-62 -16 -95 -90l-50 16
c41 137 82 206 177 206c49 0 96 -28 132 -83l22 -33l9 2c14 87 50 114 82 114c39 0 67 -31 67 -66c0 -43 -39 -77 -125 -93c-67 -80 -141 -134 -219 -171zM424 622c0 -42 -33 -91 -92 -91c-41 0 -72 27 -72 72c0 41 33 90 92 90c42 0 72 -27 72 -71z" />
    <glyph glyph-name="schwa" unicode="&#x259;" horiz-adv-x="492" 
d="M13 105c0 90 92 165 308 172v9c0 88 -48 114 -97 114c-44 0 -89 -25 -134 -80l-44 36c53 68 119 122 227 122c118 0 196 -72 196 -187c0 -155 -131 -302 -302 -302c-99 0 -154 48 -154 116zM187 52c60 0 109 90 127 173c-130 -10 -169 -68 -169 -122c0 -31 15 -51 42 -51
z" />
    <glyph glyph-name="germandbls" unicode="&#xdf;" horiz-adv-x="625" 
d="M449 369c0 -27 25 -46 64 -77c40 -32 87 -72 87 -137c0 -96 -81 -165 -190 -165c-106 0 -155 45 -155 97c0 40 27 75 73 75c38 0 63 -26 63 -62c0 -23 -10 -39 -23 -52c9 -5 21 -9 39 -9c38 0 67 29 67 71c0 38 -33 66 -71 96c-40 32 -77 62 -77 109s23 69 84 117
c45 36 80 65 80 131c0 47 -28 78 -73 78c-71 0 -105 -55 -128 -166l-86 -406c-38 -181 -131 -244 -230 -244c-67 0 -107 37 -107 83c0 40 28 77 72 77c32 0 57 -23 57 -60c0 -23 -10 -42 -16 -49c34 0 48 17 67 111l80 398h-88l18 71h84c36 158 129 241 278 241
c130 0 206 -55 206 -128c0 -70 -52 -99 -104 -127c-51 -28 -71 -44 -71 -73z" />
    <glyph glyph-name="zero" unicode="0" horiz-adv-x="597" 
d="M272 -16c-141 0 -223 97 -223 263c0 176 112 403 314 403c141 0 223 -97 223 -263c0 -176 -112 -403 -314 -403zM365 574c-112 0 -166 -295 -166 -398c0 -92 32 -116 71 -116c112 0 166 295 166 398c0 92 -32 116 -71 116z" />
    <glyph glyph-name="one" unicode="1" horiz-adv-x="477" 
d="M-11 0l21 83h133l101 406c-16 -5 -37 -8 -61 -8c-28 0 -59 5 -81 12l18 70c90 -4 167 25 215 79h96l-140 -559h131l-19 -83h-414z" />
    <glyph glyph-name="two" unicode="2" horiz-adv-x="582" 
d="M224 537c23 -12 40 -38 40 -70c0 -44 -32 -83 -83 -84c-51 0 -85 35 -85 89c0 92 97 178 244 178c154 0 234 -82 234 -174c0 -139 -113 -184 -239 -214c-142 -38 -196 -76 -226 -132l3 -5c31 21 69 34 111 34c79 0 116 -35 168 -35c37 0 59 24 86 87l57 -12
c-37 -155 -87 -215 -172 -215c-109 0 -133 104 -197 104c-8 0 -17 -1 -29 -4c6 -12 8 -23 8 -32c0 -42 -28 -69 -67 -69c-32 0 -68 25 -68 85c0 116 125 191 231 243c103 51 175 94 175 178c0 54 -33 90 -94 90c-39 0 -78 -16 -97 -42z" />
    <glyph glyph-name="three" unicode="3" horiz-adv-x="552" 
d="M126 91c13 -19 50 -37 99 -37c86 0 120 66 120 142c0 57 -35 87 -135 87h-19l20 78h26c59 0 94 13 118 37c28 28 39 66 39 102c0 54 -29 81 -88 81c-32 0 -62 -10 -74 -19c15 -15 25 -36 25 -60c0 -44 -30 -80 -79 -80s-82 32 -82 76c0 91 107 153 233 153
c153 0 226 -72 226 -155c0 -92 -65 -162 -213 -173l-1 -4c117 -19 163 -69 163 -141c0 -103 -93 -194 -258 -194c-148 0 -235 71 -235 159c0 56 40 101 93 101c51 0 75 -37 75 -73c0 -37 -21 -66 -53 -80z" />
    <glyph glyph-name="four" unicode="4" horiz-adv-x="582" 
d="M322 266l65 264h-5l-258 -264h198zM414 85h92l-22 -85h-328l22 85h99l23 95h-293l20 86l377 379h150l-95 -379h120l-21 -86h-120z" />
    <glyph glyph-name="five" unicode="5" horiz-adv-x="547" 
d="M221 509l-49 -151c38 25 87 43 144 43c128 0 193 -74 193 -168c0 -120 -94 -249 -273 -249c-127 0 -218 69 -218 151c0 54 35 100 91 100c45 0 72 -31 72 -69c0 -32 -21 -59 -49 -73c12 -19 42 -39 84 -39c97 0 134 98 134 172c0 77 -54 94 -98 94
c-50 0 -84 -17 -114 -37l-60 21l100 320l32 22c57 -23 131 -33 191 -33c67 0 110 12 159 33l22 -46c-57 -80 -126 -118 -218 -118c-59 0 -108 12 -143 27z" />
    <glyph glyph-name="six" unicode="6" horiz-adv-x="568" 
d="M270 54c69 0 107 91 107 177c0 69 -31 96 -73 96c-70 0 -111 -78 -111 -169c0 -65 30 -104 77 -104zM581 518c0 -49 -31 -95 -88 -95c-47 0 -75 32 -75 69c0 28 12 52 36 70c-8 10 -25 19 -56 19c-94 0 -155 -93 -181 -239c27 28 75 55 139 55c98 0 175 -64 175 -166
c0 -121 -89 -247 -249 -247c-149 0 -233 97 -233 249c0 214 131 417 344 417c113 0 188 -55 188 -132z" />
    <glyph glyph-name="seven" unicode="7" horiz-adv-x="556" 
d="M277 73c-20 -53 -44 -91 -96 -91c-47 0 -83 35 -83 76c0 93 115 216 326 376l76 60l-6 6c-44 -26 -78 -36 -113 -36c-63 0 -95 37 -136 37c-34 0 -53 -25 -92 -115h-81l64 255h86l-11 -83h7c36 63 68 89 111 89c84 0 84 -101 147 -101c5 0 9 1 12 3c-3 10 -5 21 -5 30
c0 41 27 71 72 71c40 0 69 -26 69 -61c0 -41 -24 -73 -76 -114c-106 -81 -189 -182 -271 -402z" />
    <glyph glyph-name="eight" unicode="8" horiz-adv-x="563" 
d="M566 494c0 -83 -66 -135 -152 -152c55 -31 103 -73 103 -151c0 -114 -98 -206 -258 -206c-158 0 -240 71 -240 158s66 143 166 159c-50 29 -89 71 -89 142c0 108 97 206 249 206c147 0 221 -78 221 -156zM373 146c0 60 -62 90 -150 129c-53 -32 -84 -74 -84 -124
c0 -51 39 -98 121 -98c68 0 113 38 113 93zM242 492c0 -56 50 -87 132 -123c48 33 74 77 74 123c0 45 -32 90 -101 90c-63 0 -105 -39 -105 -90z" />
    <glyph glyph-name="nine" unicode="9" horiz-adv-x="568" 
d="M337 580c-68 0 -107 -91 -107 -182c0 -72 30 -99 71 -99c70 0 112 78 112 173c0 69 -28 108 -76 108zM19 122c0 46 30 92 87 92c47 0 75 -32 75 -69c0 -28 -12 -53 -36 -70c15 -13 34 -22 65 -22c95 0 154 93 179 231c-28 -28 -75 -55 -139 -55c-98 0 -175 64 -175 170
c0 125 90 251 251 251c148 0 232 -97 232 -249c0 -215 -128 -417 -342 -417c-120 0 -197 59 -197 138z" />
    <glyph glyph-name="period" unicode="." horiz-adv-x="256" 
d="M82 -17c-46 0 -79 36 -79 84c0 53 40 101 92 101c46 0 79 -36 79 -84c0 -53 -40 -101 -92 -101z" />
    <glyph glyph-name="comma" unicode="," horiz-adv-x="256" 
d="M-55 -162l-15 53c87 23 141 64 159 108l-6 6c-7 -5 -17 -9 -28 -9c-37 0 -63 30 -63 71c0 50 36 97 90 97c58 0 94 -43 94 -108c0 -105 -90 -188 -231 -218z" />
    <glyph glyph-name="colon" unicode=":" horiz-adv-x="270" 
d="M89 -17c-46 0 -79 36 -79 84c0 53 40 101 92 101c46 0 79 -36 79 -84c0 -53 -40 -101 -92 -101zM161 267c-46 0 -79 36 -79 84c0 53 40 101 92 101c46 0 79 -36 79 -84c0 -53 -40 -101 -92 -101z" />
    <glyph glyph-name="semicolon" unicode=";" horiz-adv-x="270" 
d="M-48 -162l-15 53c87 23 141 64 159 108l-6 6c-7 -5 -17 -9 -28 -9c-37 0 -63 30 -63 71c0 50 36 97 90 97c58 0 94 -43 94 -108c0 -105 -90 -188 -231 -218zM161 267c-46 0 -79 36 -79 84c0 53 40 101 92 101c46 0 79 -36 79 -84c0 -53 -40 -101 -92 -101z" />
    <glyph glyph-name="ellipsis" unicode="&#x2026;" horiz-adv-x="755" 
d="M82 -17c-46 0 -79 36 -79 84c0 53 40 101 92 101c46 0 79 -36 79 -84c0 -53 -40 -101 -92 -101zM332 -17c-46 0 -79 36 -79 84c0 53 40 101 92 101c46 0 79 -36 79 -84c0 -53 -40 -101 -92 -101zM583 -17c-46 0 -79 36 -79 84c0 53 40 101 92 101c46 0 79 -36 79 -84
c0 -53 -40 -101 -92 -101z" />
    <glyph glyph-name="periodcentered" unicode="&#xb7;" horiz-adv-x="259" 
d="M145 229c-46 0 -79 36 -79 84c0 53 40 101 92 101c46 0 79 -36 79 -84c0 -53 -40 -101 -92 -101z" />
    <glyph glyph-name="bullet" unicode="&#x2022;" horiz-adv-x="479" 
d="M250 164c-79 0 -135 61 -135 141c0 97 74 175 162 175c79 0 135 -61 135 -141c0 -97 -74 -175 -162 -175z" />
    <glyph glyph-name="ampersand" unicode="&#x26;" horiz-adv-x="714" 
d="M630 393c43 0 82 -26 82 -77c0 -43 -32 -90 -78 -90c-40 0 -63 28 -58 62c-36 -24 -66 -71 -99 -122c26 -58 49 -81 72 -81c22 0 43 13 74 71l48 -27c-46 -98 -88 -144 -162 -144c-67 0 -101 28 -136 88c-48 -54 -101 -89 -185 -89c-102 0 -174 60 -174 158
c0 88 57 160 205 202c-34 52 -45 84 -45 126c0 101 88 167 202 167c105 0 170 -59 170 -134c0 -46 -24 -113 -164 -161c28 -44 51 -86 67 -127c54 87 98 178 181 178zM245 77c41 0 69 14 98 43c-24 68 -51 118 -91 178c-73 -39 -90 -92 -90 -132c0 -54 31 -89 83 -89z
M309 496c0 -25 11 -54 43 -107c66 37 83 80 83 117s-20 66 -59 66s-67 -30 -67 -76z" />
    <glyph glyph-name="exclam" unicode="!" horiz-adv-x="301" 
d="M109 209c15 102 22 200 34 331c7 79 19 144 98 144c55 0 92 -34 92 -78c0 -36 -18 -73 -48 -148c-36 -85 -69 -162 -110 -262zM110 -17c-46 0 -79 31 -81 74c0 47 35 90 89 90c46 0 79 -31 81 -75c0 -46 -36 -89 -89 -89z" />
    <glyph glyph-name="exclamdown" unicode="&#xa1;" horiz-adv-x="301" 
d="M246 458c-15 -102 -22 -200 -34 -331c-7 -79 -19 -144 -98 -144c-55 0 -92 34 -92 78c0 36 18 73 48 148c36 85 69 162 110 262zM245 684c46 0 79 -31 81 -74c0 -47 -35 -90 -89 -90c-46 0 -79 31 -81 75c0 46 36 89 89 89z" />
    <glyph glyph-name="question" unicode="?" horiz-adv-x="492" 
d="M388 245c-35 -33 -84 -56 -146 -56s-126 33 -126 107c0 73 59 110 152 141c77 27 137 50 137 111c0 46 -37 66 -83 66c-26 0 -53 -6 -67 -16c11 -15 19 -31 19 -52c0 -37 -28 -78 -83 -78c-45 0 -79 31 -79 78c0 80 94 138 213 138c150 0 214 -78 214 -161
c0 -112 -89 -151 -207 -182c-66 -18 -98 -30 -98 -59c0 -17 13 -28 36 -28s50 7 88 33zM182 -17c-48 0 -81 33 -81 78c0 44 38 86 89 86c48 0 81 -34 81 -78c0 -45 -38 -86 -89 -86z" />
    <glyph glyph-name="questiondown" unicode="&#xbf;" horiz-adv-x="492" 
d="M152 422c35 33 84 56 146 56s126 -33 126 -107c0 -73 -59 -110 -152 -141c-77 -27 -137 -50 -137 -111c0 -46 37 -66 83 -66c26 0 53 6 67 16c-11 15 -19 31 -19 52c0 37 28 78 83 78c45 0 79 -31 79 -78c0 -80 -94 -138 -213 -138c-150 0 -214 78 -214 161
c0 112 89 151 207 182c66 18 98 30 98 59c0 17 -13 28 -36 28s-50 -7 -88 -33zM358 684c48 0 81 -33 81 -78c0 -44 -38 -86 -89 -86c-48 0 -81 34 -81 78c0 45 38 86 89 86z" />
    <glyph glyph-name="quotedblleft" unicode="&#x201c;" horiz-adv-x="491" 
d="M319 682l15 -54c-87 -22 -140 -63 -159 -108l6 -5c8 5 17 8 28 8c38 0 63 -30 63 -71c0 -49 -36 -97 -90 -97c-58 0 -94 44 -94 108c0 106 90 189 231 219zM545 682l15 -54c-87 -22 -140 -63 -159 -108l6 -5c8 5 17 8 28 8c38 0 63 -30 63 -71c0 -49 -36 -97 -90 -97
c-58 0 -94 44 -94 108c0 106 90 189 231 219z" />
    <glyph glyph-name="quotedblright" unicode="&#x201d;" horiz-adv-x="491" 
d="M84 348l-15 53c87 22 140 64 159 108l-7 5c-7 -5 -16 -8 -27 -8c-38 0 -63 30 -63 71c0 50 36 97 90 97c58 0 94 -43 94 -108c0 -105 -90 -188 -231 -218zM310 348l-15 53c86 22 140 64 159 108l-7 5c-7 -5 -16 -8 -28 -8c-37 0 -62 30 -62 71c0 50 36 97 90 97
c58 0 94 -43 94 -108c0 -105 -90 -188 -231 -218z" />
    <glyph glyph-name="quoteleft" unicode="&#x2018;" horiz-adv-x="256" 
d="M310 682l15 -54c-87 -22 -141 -63 -159 -108l6 -5c7 5 17 8 28 8c37 0 63 -30 63 -71c0 -49 -36 -97 -90 -97c-58 0 -94 44 -94 108c0 106 90 189 231 219z" />
    <glyph glyph-name="quoteright" unicode="&#x2019;" horiz-adv-x="256" 
d="M84 348l-15 53c87 22 140 64 159 108l-7 5c-7 -5 -16 -8 -27 -8c-38 0 -63 30 -63 71c0 50 36 97 90 97c58 0 94 -43 94 -108c0 -105 -90 -188 -231 -218z" />
    <glyph glyph-name="quotedblbase" unicode="&#x201e;" horiz-adv-x="482" 
d="M-54 -164l-15 53c87 22 140 64 159 108l-7 5c-7 -5 -16 -8 -27 -8c-38 0 -63 30 -63 71c0 50 36 97 90 97c58 0 94 -43 94 -108c0 -105 -90 -188 -231 -218zM172 -164l-15 53c86 22 140 64 159 108l-7 5c-7 -5 -16 -8 -28 -8c-37 0 -62 30 -62 71c0 50 36 97 90 97
c58 0 94 -43 94 -108c0 -105 -90 -188 -231 -218z" />
    <glyph glyph-name="quotesinglbase" unicode="&#x201a;" horiz-adv-x="256" 
d="M-54 -164l-15 53c87 22 140 64 159 108l-7 5c-7 -5 -16 -8 -27 -8c-38 0 -63 30 -63 71c0 50 36 97 90 97c58 0 94 -43 94 -108c0 -105 -90 -188 -231 -218z" />
    <glyph glyph-name="guillemotleft" unicode="&#xab;" horiz-adv-x="521" 
d="M184 31l-143 161c-14 17 -17 31 -17 40c0 18 12 31 34 46l214 145l33 -41l-154 -160l79 -159zM400 31l-143 161c-15 17 -18 31 -18 40c0 18 12 31 34 46l215 145l33 -41l-154 -160l78 -159z" />
    <glyph glyph-name="guillemotright" unicode="&#xbb;" horiz-adv-x="521" 
d="M336 424l143 -161c14 -17 17 -31 17 -40c0 -18 -12 -31 -34 -46l-214 -145l-33 41l154 160l-79 159zM120 424l143 -161c15 -17 18 -31 18 -40c0 -18 -12 -31 -34 -46l-215 -145l-33 41l154 160l-78 159z" />
    <glyph glyph-name="guilsinglleft" unicode="&#x2039;" horiz-adv-x="310" 
d="M190 31l-149 161c-14 17 -17 31 -17 40c0 18 12 31 34 46l220 145l33 -43l-156 -158l81 -157z" />
    <glyph glyph-name="guilsinglright" unicode="&#x203a;" horiz-adv-x="310" 
d="M119 424l149 -161c14 -17 17 -31 17 -40c0 -18 -12 -31 -34 -46l-220 -145l-33 43l156 158l-81 157z" />
    <glyph glyph-name="hyphen" unicode="-" horiz-adv-x="354" 
d="M41 203l24 100h258l-24 -100h-258z" />
    <glyph glyph-name="endash" unicode="&#x2013;" horiz-adv-x="530" 
d="M41 204l22 92h434l-23 -92h-433z" />
    <glyph glyph-name="emdash" unicode="&#x2014;" horiz-adv-x="780" 
d="M41 204l22 92h684l-23 -92h-683z" />
    <glyph glyph-name="underscore" unicode="_" horiz-adv-x="447" 
d="M-59 0l22 87h450l-21 -87h-451z" />
    <glyph glyph-name="slash" unicode="/" horiz-adv-x="427" 
d="M-155 -184l611 914l79 -37l-610 -914z" />
    <glyph glyph-name="backslash" unicode="\" horiz-adv-x="427" 
d="M371 -194l-87 -17l-161 913l88 17z" />
    <glyph glyph-name="bar" unicode="|" horiz-adv-x="289" 
d="M-9 -198l229 916l88 -12l-228 -916z" />
    <glyph glyph-name="parenleft" unicode="(" horiz-adv-x="389" 
d="M276 -159c-131 87 -215 217 -215 377c0 237 172 429 414 506l25 -62c-165 -82 -296 -253 -296 -468c0 -126 49 -231 121 -301z" />
    <glyph glyph-name="parenright" unicode=")" horiz-adv-x="389" 
d="M137 723c131 -87 215 -217 215 -377c0 -237 -172 -429 -414 -506l-25 62c165 82 296 253 296 468c0 126 -49 231 -121 301z" />
    <glyph glyph-name="bracketleft" unicode="[" horiz-adv-x="366" 
d="M-19 -159l220 883h294l-19 -77h-154l-182 -729h155l-20 -77h-294z" />
    <glyph glyph-name="bracketright" unicode="]" horiz-adv-x="366" 
d="M410 724l-220 -883h-294l19 77h154l182 729h-155l20 77h294z" />
    <glyph glyph-name="braceleft" unicode="{" horiz-adv-x="397" 
d="M315 -159c-155 12 -220 59 -220 141c0 69 56 152 56 203c0 28 -28 54 -108 54h-23l21 87h27c54 0 88 8 110 31c69 69 16 222 103 309c55 54 146 63 246 58l-18 -75c-54 -1 -85 -8 -105 -28c-56 -55 -28 -212 -103 -288c-35 -34 -83 -44 -148 -50l-1 -8
c86 -14 131 -40 131 -95c0 -53 -47 -143 -47 -192c0 -39 24 -59 96 -72z" />
    <glyph glyph-name="braceright" unicode="}" horiz-adv-x="397" 
d="M107 724c155 -12 220 -59 220 -141c0 -69 -56 -152 -56 -203c0 -28 28 -54 108 -54h23l-21 -87h-27c-54 0 -88 -8 -110 -31c-69 -69 -16 -222 -103 -309c-55 -54 -146 -63 -246 -58l18 75c54 1 85 8 105 28c56 55 28 212 103 288c35 34 83 44 148 50l1 8
c-86 14 -131 40 -131 95c0 53 47 143 47 192c0 39 -24 59 -96 72z" />
    <glyph glyph-name="at" unicode="@" horiz-adv-x="893" 
d="M632 -48l22 -46c-67 -36 -145 -58 -242 -58c-217 0 -375 134 -375 352c0 279 227 489 494 489c194 0 343 -117 343 -309c0 -187 -104 -327 -243 -327c-63 0 -126 32 -125 112l-7 3c-34 -73 -83 -108 -134 -108c-88 0 -132 64 -132 151c0 145 99 269 213 269
c52 0 90 -36 99 -83l21 76h122l-70 -234c-25 -83 -10 -119 44 -119c73 0 149 112 149 259c0 159 -116 257 -286 257c-227 0 -424 -192 -424 -435c0 -183 126 -300 318 -300c84 0 155 19 213 51zM411 141c71 0 116 130 116 199c0 43 -16 71 -52 71c-75 0 -113 -142 -113 -203
c0 -42 15 -67 49 -67z" />
    <glyph glyph-name="copyright" unicode="&#xa9;" horiz-adv-x="787" 
d="M401 -34c-209 0 -366 153 -366 363c0 209 157 362 366 362c210 0 367 -153 367 -362c0 -210 -157 -363 -367 -363zM401 15c182 0 308 132 308 314c0 181 -126 313 -308 313c-181 0 -307 -132 -307 -313c0 -182 126 -314 307 -314zM409 140c-113 0 -188 77 -188 189
c0 114 83 192 178 192c46 0 80 -15 102 -43l12 42h51v-143h-56c-22 66 -52 97 -98 97c-52 0 -88 -37 -88 -139c0 -99 37 -141 100 -141c55 0 84 40 94 101h54c-9 -94 -62 -155 -161 -155z" />
    <glyph glyph-name="published" unicode="&#x2117;" horiz-adv-x="787" 
d="M401 -34c-209 0 -366 153 -366 363c0 209 157 362 366 362c210 0 367 -153 367 -362c0 -210 -157 -363 -367 -363zM401 15c182 0 308 132 308 314c0 181 -126 313 -308 313c-181 0 -307 -132 -307 -313c0 -182 126 -314 307 -314zM250 145v49h50v266h-50v49h183
c115 0 159 -46 159 -112c0 -63 -44 -113 -158 -113h-42v-90h53v-49h-195zM392 331h35c52 0 67 21 67 67c0 43 -15 64 -67 64h-35v-131z" />
    <glyph glyph-name="registered.alt" horiz-adv-x="787" 
d="M401 -34c-209 0 -366 153 -366 363c0 209 157 362 366 362c210 0 367 -153 367 -362c0 -210 -157 -363 -367 -363zM401 15c182 0 308 132 308 314c0 181 -126 313 -308 313c-181 0 -307 -132 -307 -313c0 -182 126 -314 307 -314zM365 305v-107h51v-49h-192v49h48v266
h-48v50h201c110 0 148 -47 148 -94c0 -46 -28 -82 -114 -92v-3c70 -6 91 -35 95 -79l1 -20c2 -23 7 -29 17 -29c8 0 15 8 22 34l33 -10c-10 -46 -32 -79 -83 -79c-59 0 -84 31 -84 92v17c0 38 -10 54 -50 54h-45zM365 351h47c42 0 62 16 62 59c0 39 -13 57 -60 57h-49v-116z
" />
    <glyph glyph-name="registered" unicode="&#xae;" horiz-adv-x="505" 
d="M316 247c-129 0 -224 93 -224 222c0 128 95 221 224 221c128 0 224 -93 224 -221c0 -129 -96 -222 -224 -222zM316 284c109 0 181 75 181 185c0 109 -72 185 -181 185c-110 0 -182 -76 -182 -185c0 -110 72 -185 182 -185zM294 455v-65h31v-30h-118v30h30v162h-30v30h124
c67 0 90 -29 90 -58c0 -27 -17 -49 -70 -55v-2c43 -4 55 -21 58 -48l2 -12c1 -15 3 -18 10 -18c5 0 9 5 13 20l21 -6c-6 -27 -20 -48 -51 -48c-37 0 -53 19 -53 56v11c0 23 -6 33 -30 33h-27zM294 483h29c25 0 37 9 37 35c0 24 -8 35 -36 35h-30v-70z" />
    <glyph glyph-name="servicemark" unicode="&#x2120;" horiz-adv-x="832" 
d="M70 342l28 120h45c10 -52 41 -80 88 -80c31 0 48 15 48 38c0 25 -29 35 -63 50c-43 18 -92 39 -92 92c0 60 57 104 126 104c40 0 70 -14 89 -37l19 36h45l-28 -116h-44c-9 56 -37 75 -74 75c-29 0 -48 -15 -48 -37c0 -25 30 -36 63 -49c43 -18 92 -38 92 -94
c0 -60 -55 -103 -130 -103c-43 0 -79 16 -99 39l-21 -38h-44zM373 347l11 49h43l52 213h-41l12 49h168l11 -177h7l95 177h170l-13 -49h-43l-53 -213h43l-12 -49h-167l12 48h38l52 208h-9l-146 -256h-43l-22 256h-9l-52 -208h38l-12 -48h-130z" />
    <glyph glyph-name="trademark" unicode="&#x2122;" horiz-adv-x="870" 
d="M410 347l13 49h41l53 213h-42l13 49h167l12 -177h7l95 177h169l-12 -49h-44l-53 -213h44l-13 -49h-167l12 48h38l52 208h-9l-145 -256h-44l-21 256h-10l-52 -208h38l-11 -48h-131zM122 347l12 49h55l54 220h-15c-36 0 -48 -14 -82 -90h-42l33 132h320l-34 -132h-37
c0 76 -7 90 -40 90h-17l-55 -220h55l-13 -49h-194z" />
    <glyph glyph-name="asterisk" unicode="*" horiz-adv-x="430" 
d="M300 352c-8 25 -5 71 0 121l-13 3c-25 -44 -48 -84 -69 -100c-26 -19 -55 -14 -73 10c-19 26 -15 53 12 73c21 16 65 28 115 38l-1 14c-50 9 -95 20 -116 35c-27 19 -32 46 -13 72c18 25 45 30 73 11c21 -15 46 -53 71 -97l13 4c-7 50 -11 97 -3 122c10 31 35 44 64 34
c31 -9 44 -33 34 -66c-8 -24 -36 -60 -71 -97l8 -11c47 22 89 40 116 40c33 1 52 -18 53 -50c-1 -32 -19 -52 -52 -53c-27 0 -70 16 -116 37l-8 -11c35 -37 66 -71 73 -96c11 -32 -1 -55 -30 -66c-31 -11 -56 2 -67 33z" />
    <glyph glyph-name="dagger" unicode="&#x2020;" horiz-adv-x="540" 
d="M439 621l-94 -175c30 -12 76 -25 102 -25h6c-10 54 21 93 64 93c34 0 59 -23 59 -62c0 -42 -36 -91 -101 -91c-47 0 -76 12 -141 35l-34 -303l-34 -138c-10 -38 -62 -67 -78 -66c-13 1 -50 56 -41 96l35 138l111 288c-30 12 -75 25 -101 25c-2 0 -5 0 -6 -1
c10 -53 -21 -93 -64 -93c-34 0 -59 24 -59 63c0 42 35 90 101 90c47 0 76 -11 141 -35v195l12 17c14 18 35 32 58 32c38 0 56 -32 61 -62z" />
    <glyph glyph-name="daggerdbl" unicode="&#x2021;" horiz-adv-x="540" 
d="M278 177c29 -11 74 -23 98 -23h7c-10 53 21 93 64 93c33 0 59 -24 59 -63c0 -41 -36 -90 -102 -90c-47 0 -75 11 -141 35l3 -190l-12 -16c-14 -19 -35 -33 -58 -33c-38 0 -57 32 -61 62l-3 21l91 171c-30 12 -76 24 -101 24h-7c10 -53 -20 -93 -63 -93
c-34 0 -59 24 -59 63c0 41 35 90 101 90c46 0 75 -11 138 -34v118l61 105c-29 11 -74 24 -99 24c-2 0 -5 0 -6 -1c10 -53 -21 -93 -64 -93c-34 0 -59 24 -59 63c0 41 35 90 101 90c47 0 76 -11 141 -35l-2 190l12 17c14 18 35 32 58 32c38 0 56 -32 61 -62l3 -21l-92 -170
c31 -12 76 -25 101 -25h7c-10 53 21 93 64 93c34 0 59 -24 59 -63c0 -41 -35 -90 -101 -90c-47 0 -76 11 -139 34v-118z" />
    <glyph glyph-name="asciicircum" unicode="^" horiz-adv-x="372" 
d="M76 491l188 226h82l74 -226h-80l-55 114l-119 -114h-90z" />
    <glyph glyph-name="asciitilde" unicode="~" horiz-adv-x="413" 
d="M155 296c-23 0 -38 -16 -57 -56h-66c32 103 64 164 138 164c58 0 100 -54 131 -54c22 0 38 15 57 56h66c-32 -103 -65 -164 -138 -164c-58 0 -100 54 -131 54z" />
    <glyph glyph-name="dollar" unicode="$" horiz-adv-x="558" 
d="M358 714l75 -9l-19 -75c95 -17 163 -68 163 -133c0 -46 -29 -88 -78 -88c-42 0 -73 28 -73 66c0 25 13 50 32 64c-8 10 -28 24 -59 32l-48 -195c97 -39 167 -81 167 -174c0 -114 -93 -202 -247 -202h-13l-23 -91l-74 9l22 89c-102 19 -177 69 -177 139c0 46 30 89 81 89
c41 0 74 -30 74 -68c0 -25 -14 -52 -35 -65c12 -14 38 -27 72 -35l49 199c-91 38 -156 77 -156 166c0 121 110 202 248 204zM389 152c0 41 -31 65 -75 86l-44 -178c88 1 119 42 119 92zM223 483c0 -38 23 -60 61 -79l43 172c-70 -7 -104 -48 -104 -93z" />
    <glyph glyph-name="sterling" unicode="&#xa3;" horiz-adv-x="622" 
d="M490 269h-144c-7 -43 -28 -85 -63 -119l10 -3c71 -25 119 -37 145 -37c44 0 61 21 91 89l56 -12c-35 -142 -78 -203 -172 -203c-72 0 -126 33 -189 87c-38 -59 -80 -85 -129 -85c-62 0 -101 36 -101 87c0 64 58 110 137 110c26 0 51 -4 76 -9c2 12 3 22 3 30
c0 21 -3 43 -8 65h-140l20 80h100c-4 21 -7 43 -7 64c0 146 124 237 266 237c133 0 194 -67 194 -132c0 -56 -36 -99 -89 -99c-47 0 -76 27 -76 69c0 37 26 63 53 74c-12 11 -33 26 -74 26c-78 0 -118 -55 -118 -150c0 -31 7 -59 12 -89h167zM105 44c31 0 56 23 76 56
c-20 10 -42 17 -64 17c-27 0 -50 -16 -50 -40c0 -20 14 -33 38 -33z" />
    <glyph glyph-name="Euro" unicode="&#x20ac;" horiz-adv-x="660" 
d="M444 341h-166c-4 -24 -6 -46 -7 -67h156l-18 -76h-136c14 -94 69 -121 122 -121c60 0 114 37 163 133l67 -40c-51 -109 -135 -186 -258 -186c-132 0 -230 70 -249 212h-101l19 78h80c1 23 3 45 8 67h-72l20 78h76c55 134 173 231 322 231c137 0 207 -81 207 -160
c0 -59 -37 -103 -87 -103c-45 0 -72 30 -72 70c0 41 23 68 45 79c-9 17 -39 36 -84 36c-96 0 -151 -72 -181 -154h165z" />
    <glyph glyph-name="yen" unicode="&#xa5;" horiz-adv-x="640" 
d="M106 344h139l-78 204h-76l21 86h301l-21 -84h-70l65 -195l159 195h-74l21 84h235l-22 -86h-65l-179 -204h135l-19 -75h-176l-13 -52h177l-19 -75h-176l-15 -59h95l-21 -83h-327l20 83h95l15 59h-176l18 75h177l13 52h-177z" />
    <glyph glyph-name="cent" unicode="&#xa2;" horiz-adv-x="538" 
d="M325 564l75 -10l-19 -81c92 -17 135 -74 135 -132c0 -50 -31 -91 -79 -91c-41 0 -67 26 -67 63c0 32 21 58 44 69c-8 12 -30 23 -57 27l-84 -335h19c52 0 103 30 143 85l46 -36c-43 -70 -114 -131 -227 -133l-23 -95l-75 10l23 93c-97 21 -152 91 -152 189
c0 151 116 283 277 291zM168 197c0 -55 17 -86 43 -104l78 313c-86 -26 -121 -133 -121 -209z" />
    <glyph glyph-name="numbersign" unicode="#" horiz-adv-x="667" 
d="M74 404l16 78h141l50 185l86 -9l-47 -176h134l50 185l86 -9l-47 -176h122l-16 -78h-127l-47 -178h135l-16 -78h-140l-51 -193l-87 9l49 184h-135l-51 -193l-87 9l49 184h-122l16 78h127l48 178h-136zM299 404l-48 -178h135l47 178h-134z" />
    <glyph glyph-name="paragraph" unicode="&#xb6;" horiz-adv-x="649" 
d="M225 -111l68 273c-138 6 -229 82 -229 203c0 139 110 255 353 255h301l-20 -83h-75l-162 -648h-85l161 649h-66l-161 -649h-85z" />
    <glyph glyph-name="section" unicode="&#xa7;" horiz-adv-x="526" 
d="M503 291c0 -76 -58 -126 -148 -142c38 -27 67 -60 67 -108c0 -106 -111 -166 -218 -166c-118 0 -221 51 -221 130c0 46 36 81 79 81s71 -28 71 -61c0 -24 -12 -46 -32 -60c18 -15 57 -30 102 -30c61 0 88 29 88 68c0 41 -42 65 -118 103c-72 36 -138 73 -138 146
c0 74 59 124 152 139c-37 26 -64 58 -64 105c0 103 110 162 215 162c123 0 206 -54 206 -120c0 -45 -34 -79 -78 -79s-72 28 -72 60c0 21 10 42 29 57c-16 13 -48 22 -81 22c-56 0 -89 -26 -89 -65c0 -38 41 -63 115 -100c68 -34 135 -71 135 -142zM268 344
c-13 6 -25 13 -39 21c-48 -16 -68 -44 -68 -73c0 -39 48 -64 98 -89c18 -10 37 -19 51 -27c47 17 66 43 66 73c0 42 -52 68 -108 95z" />
    <glyph glyph-name="ordfeminine" unicode="&#xaa;" horiz-adv-x="442" 
d="M345 652h105l-57 -217c-5 -16 -6 -27 -6 -34c0 -12 6 -17 15 -17c13 0 27 15 45 67l39 -13c-29 -88 -69 -125 -124 -125c-41 0 -69 25 -69 66c0 5 1 11 1 18l-5 2c-28 -58 -67 -86 -112 -86c-70 0 -102 54 -102 117c0 72 31 142 70 181c32 31 65 48 105 48
c44 0 70 -31 78 -65zM222 382c51 0 90 112 90 169c0 34 -11 51 -34 51c-53 0 -90 -110 -90 -169c0 -37 14 -51 34 -51z" />
    <glyph glyph-name="ordmasculine" unicode="&#xba;" horiz-adv-x="388" 
d="M279 659c88 0 148 -57 148 -139c0 -112 -97 -207 -201 -207c-88 0 -147 58 -147 139c0 113 96 207 200 207zM318 557c0 43 -16 55 -38 55c-61 0 -93 -138 -93 -196c0 -44 17 -55 37 -55c62 0 94 137 94 196z" />
    <glyph glyph-name="degree" unicode="&#xb0;" horiz-adv-x="400" 
d="M257 413c61 0 90 66 90 119c0 48 -25 75 -68 75c-63 0 -91 -66 -91 -119c0 -48 28 -75 69 -75zM440 534c0 -109 -80 -188 -189 -188c-106 0 -157 68 -157 141c0 107 81 187 189 187c106 0 157 -68 157 -140z" />
    <glyph glyph-name="percent" unicode="%" horiz-adv-x="803" 
d="M180 267c-84 0 -138 49 -138 136c0 112 97 229 213 229c43 0 78 -13 101 -39c35 -12 66 -17 102 -17c83 0 165 28 232 86l46 -40l-574 -655l-62 49l487 535l-3 3c-42 -31 -101 -45 -150 -45c-17 0 -33 1 -49 3v-1c0 -102 -85 -244 -205 -244zM582 -14
c-84 0 -138 49 -138 137c0 112 97 229 213 229c77 0 130 -43 130 -122c0 -102 -85 -244 -205 -244zM597 44c66 0 127 112 127 188c0 38 -17 57 -44 57c-66 0 -128 -116 -128 -191c0 -39 18 -54 45 -54zM195 325c66 0 127 112 127 188c0 6 0 11 -1 16c-21 9 -41 21 -61 38
c-59 -18 -110 -120 -110 -188c0 -39 18 -54 45 -54z" />
    <glyph glyph-name="quotedbl" unicode="&#x22;" horiz-adv-x="450" 
d="M139 387l-46 29l58 141c31 79 53 113 96 113c38 0 71 -29 71 -66c0 -36 -27 -63 -98 -135zM347 387l-46 29l58 141c31 79 53 113 96 113c38 0 71 -29 71 -66c0 -36 -27 -63 -98 -135z" />
    <glyph glyph-name="quotesingle" unicode="'" horiz-adv-x="242" 
d="M139 387l-46 29l58 141c31 79 53 113 96 113c38 0 71 -29 71 -66c0 -36 -27 -63 -98 -135z" />
    <glyph glyph-name="plus" unicode="+" horiz-adv-x="525" 
d="M177 69l44 175h-172l20 81h172l43 173h89l-43 -173h172l-20 -81h-172l-44 -175h-89z" />
    <glyph glyph-name="minus" unicode="&#x2212;" horiz-adv-x="519" 
d="M457 241h-390l21 87h390z" />
    <glyph glyph-name="divide" unicode="&#xf7;" horiz-adv-x="519" 
d="M482 245h-438l20 80h437zM226 42c-39 0 -67 29 -67 69c0 44 34 84 78 84c39 0 67 -29 67 -69c0 -44 -34 -84 -78 -84zM309 374c-40 0 -68 29 -68 69c0 44 34 84 78 84c40 0 68 -29 68 -69c0 -44 -34 -84 -78 -84z" />
    <glyph glyph-name="equal" unicode="=" horiz-adv-x="525" 
d="M80 340l22 87h417l-22 -87h-417zM31 142l22 87h417l-22 -87h-417z" />
    <glyph glyph-name="multiply" unicode="&#xd7;" horiz-adv-x="520" 
d="M331 280l102 -139l-70 -55l-99 140l-170 -143l-49 64l174 142l-102 139l70 56l99 -141l170 143l49 -65z" />
    <glyph glyph-name="less" unicode="&#x3c;" horiz-adv-x="524" 
d="M402 68l-328 177l22 89l389 166l31 -77l-347 -139l270 -135z" />
    <glyph glyph-name="greater" unicode="&#x3e;" horiz-adv-x="524" 
d="M148 500l328 -177l-22 -89l-390 -166l-30 78l346 139l-269 135z" />
    <glyph glyph-name="plusminus" unicode="&#xb1;" horiz-adv-x="539" 
d="M212 163l39 157h-153l18 72h153l38 154h80l-38 -154h153l-18 -72h-153l-39 -157h-80zM412 33h-386l18 73h386z" />
    <glyph glyph-name="zero.osf" horiz-adv-x="608" 
d="M41 228c0 148 103 347 302 347c149 0 238 -94 238 -244c0 -148 -103 -347 -302 -347c-149 0 -238 94 -238 244zM424 396c0 84 -37 103 -79 103c-100 0 -147 -236 -147 -336c0 -84 37 -103 79 -103c100 0 147 236 147 336z" />
    <glyph glyph-name="one.osf" horiz-adv-x="468" 
d="M-11 0l21 83h129l81 330c-14 -4 -35 -7 -58 -7c-27 0 -58 4 -78 11l17 71c90 -4 163 24 211 79h95l-120 -484h127l-21 -83h-404z" />
    <glyph glyph-name="two.osf" horiz-adv-x="554" 
d="M203 482c23 -11 38 -34 38 -64c0 -45 -32 -81 -83 -81c-48 0 -80 32 -80 79c0 83 92 159 233 159c148 0 224 -73 224 -156c0 -122 -103 -162 -221 -187c-135 -30 -184 -61 -216 -110l3 -4c30 20 69 33 111 33c79 0 115 -30 167 -30c37 0 58 22 82 84l57 -12
c-35 -155 -85 -209 -168 -209c-108 0 -132 96 -196 96c-6 0 -18 -1 -29 -4c6 -11 8 -20 8 -29c0 -39 -29 -64 -67 -64c-32 0 -67 24 -67 77c0 107 115 174 209 216c99 45 169 77 169 154c0 47 -39 74 -96 74c-33 0 -60 -9 -78 -22z" />
    <glyph glyph-name="three.osf" horiz-adv-x="543" 
d="M116 -7c13 -9 42 -15 74 -15c93 0 126 63 126 141c0 56 -36 81 -125 81h-19l20 78h26c60 0 92 15 118 41c27 27 39 65 39 102c0 56 -29 84 -85 84c-29 0 -58 -9 -70 -19c17 -16 28 -35 28 -60c0 -44 -31 -82 -82 -82s-82 33 -82 79c0 91 107 152 228 152
c151 0 223 -71 223 -156c0 -91 -68 -170 -217 -181l-1 -4c113 -12 159 -61 159 -133c0 -105 -97 -193 -259 -193c-148 0 -230 62 -230 143c0 56 39 100 92 100c51 0 77 -37 77 -78c0 -37 -19 -64 -40 -80z" />
    <glyph glyph-name="four.osf" horiz-adv-x="576" 
d="M300 197l64 256h-6l-248 -256h190zM389 0h83l-20 -82h-303l20 82h83l27 111h-290l18 79l376 380h148l-94 -373h119l-21 -86h-119z" />
    <glyph glyph-name="five.osf" horiz-adv-x="530" 
d="M208 437l-51 -158c36 23 86 41 136 41c124 0 185 -76 185 -169c0 -112 -86 -244 -269 -244c-121 0 -215 54 -215 139c0 49 34 95 90 95c45 0 74 -32 74 -73c0 -31 -18 -58 -40 -75c8 -6 36 -15 64 -15c104 0 138 99 138 167c0 76 -51 94 -91 94c-43 0 -78 -17 -106 -35
l-60 21l102 327l32 22c56 -23 130 -33 186 -33c61 0 104 12 152 33l22 -46c-56 -79 -125 -118 -211 -118c-55 0 -104 12 -138 27z" />
    <glyph glyph-name="six.osf" horiz-adv-x="569" 
d="M396 645c111 0 186 -56 186 -132c0 -47 -30 -93 -87 -93c-48 0 -74 32 -74 69c0 27 12 52 35 70c-9 8 -26 17 -57 17c-91 0 -159 -94 -186 -238c27 29 75 55 141 55c99 0 176 -64 176 -163c0 -121 -92 -246 -254 -246c-149 0 -232 96 -232 246c0 211 142 415 352 415z
M267 54c69 0 108 90 108 175c0 67 -30 95 -73 95c-72 0 -114 -78 -114 -168c0 -62 29 -102 79 -102z" />
    <glyph glyph-name="seven.osf" horiz-adv-x="543" 
d="M242 -3c-19 -53 -43 -90 -95 -90c-48 0 -83 34 -83 75c0 93 118 215 329 378l71 57l-6 6c-42 -25 -76 -35 -108 -35c-60 0 -90 36 -129 36c-33 0 -51 -24 -89 -110h-80l63 253h86l-11 -86h7c34 66 66 92 106 92c81 0 80 -103 139 -103c4 0 8 1 11 2c-3 11 -5 23 -5 32
c0 42 27 72 72 72c39 0 68 -26 68 -63c0 -41 -23 -74 -76 -115c-103 -80 -189 -180 -270 -401z" />
    <glyph glyph-name="eight.osf" horiz-adv-x="560" 
d="M562 489c0 -82 -66 -133 -151 -149c56 -31 104 -72 104 -150c0 -114 -97 -205 -257 -205c-157 0 -238 71 -238 158c0 85 65 140 164 156c-50 29 -89 71 -89 141c0 107 97 205 247 205c146 0 220 -78 220 -156zM372 145c0 60 -64 89 -151 128c-52 -32 -81 -74 -81 -123
c0 -51 38 -97 119 -97c67 0 113 38 113 92zM242 488c0 -56 51 -86 131 -121c47 32 71 75 71 120s-31 90 -100 90c-62 0 -102 -40 -102 -89z" />
    <glyph glyph-name="nine.osf" horiz-adv-x="569" 
d="M317 505c-68 0 -108 -92 -108 -178c0 -67 30 -97 73 -97c72 0 115 80 115 171c0 63 -29 104 -80 104zM371 215c-27 -28 -75 -55 -141 -55c-100 0 -176 67 -176 166c0 123 93 249 254 249c150 0 232 -98 232 -247c0 -211 -143 -420 -352 -420c-111 0 -186 56 -186 134
c0 47 29 93 87 93c46 0 74 -33 74 -70c0 -28 -11 -52 -36 -69c10 -10 26 -20 57 -20c91 0 160 98 187 239z" />
    <glyph glyph-name="dollar.osf" horiz-adv-x="550" 
d="M339 648l75 -9l-19 -75c92 -17 158 -68 158 -131c0 -46 -28 -84 -78 -84c-41 0 -72 27 -72 63c0 23 12 47 32 61c-8 10 -27 23 -55 31l-43 -170c98 -35 169 -74 169 -158c0 -106 -90 -187 -239 -187h-15l-22 -90l-75 9l22 89c-97 18 -170 67 -170 136c0 46 30 84 81 84
c42 0 74 -28 74 -64c0 -23 -14 -50 -35 -63c11 -13 35 -25 65 -33l44 173c-93 34 -160 71 -160 149c0 112 109 189 243 191zM377 127c0 38 -30 60 -74 78l-39 -156c82 0 113 35 113 78zM208 430c0 -35 22 -54 62 -71l37 151c-65 -6 -99 -42 -99 -80z" />
    <glyph glyph-name="sterling.osf" horiz-adv-x="615" 
d="M466 240h-135c-6 -34 -22 -68 -48 -101h2c71 -24 119 -36 145 -36c43 0 61 21 91 91l56 -12c-35 -138 -79 -198 -170 -198c-67 0 -122 30 -181 78c-39 -51 -86 -76 -137 -76c-66 0 -104 34 -104 82c0 61 60 104 140 104c28 0 56 -4 84 -11c2 14 3 23 3 32
c0 17 -3 32 -7 47h-152l19 75h103c-8 20 -14 41 -14 64c0 115 120 196 258 196c135 0 201 -62 201 -122c0 -49 -34 -88 -84 -88c-45 0 -75 25 -75 62c0 33 25 57 51 66c-12 9 -38 20 -84 20c-72 0 -108 -53 -108 -130c0 -24 5 -45 8 -68h157zM98 42c32 0 60 20 83 53
c-22 12 -45 20 -70 20c-30 0 -54 -16 -54 -41c0 -21 16 -32 41 -32z" />
    <glyph glyph-name="Euro.osf" horiz-adv-x="652" 
d="M426 300h-161c-4 -21 -6 -40 -7 -58h154l-18 -72h-132c16 -74 70 -96 119 -96c64 0 118 37 168 128l67 -40c-49 -102 -135 -178 -264 -178c-124 0 -220 64 -241 185h-103l18 73h80c1 19 4 39 8 58h-74l19 73h79c53 117 167 202 309 202c137 0 207 -78 207 -153
c0 -59 -37 -102 -88 -102c-46 0 -73 28 -73 68c0 41 25 69 50 81c-11 14 -39 31 -86 31c-88 0 -141 -59 -170 -128h157z" />
    <glyph glyph-name="yen.osf" horiz-adv-x="639" 
d="M107 344h100l-55 134h-82l21 82h308l-20 -81h-72l67 -180l154 180h-74l21 81h237l-20 -82h-69l-122 -134h95l-18 -72h-143l-45 -50l-2 -5h177l-18 -72h-177l-16 -66h93l-19 -79h-322l19 79h94l16 66h-177l18 72h177l3 10l-19 45h-148z" />
    <glyph glyph-name="space" unicode=" " horiz-adv-x="174" 
 />
    <glyph glyph-name="uni00A0" unicode="&#xa0;" horiz-adv-x="174" 
 />
    <glyph glyph-name="emspace" unicode="&#x2003;" horiz-adv-x="1000" 
 />
    <glyph glyph-name="enspace" unicode="&#x2002;" horiz-adv-x="500" 
 />
    <glyph glyph-name="threeperemspace" unicode="&#x2004;" horiz-adv-x="333" 
 />
    <glyph glyph-name="fourperemspace" unicode="&#x2005;" horiz-adv-x="250" 
 />
    <glyph glyph-name="thinspace" unicode="&#x2009;" horiz-adv-x="133" 
 />
    <glyph glyph-name="hairspace" unicode="&#x200a;" horiz-adv-x="75" 
 />
    <glyph glyph-name="hfjslug" horiz-adv-x="694" 
d="M644 -200h-208l-8 14h-163l-8 -14h-207v303c18 0 32 14 32 32c0 17 -14 32 -32 32v554h100l30 79h334l29 -79h101v-921zM400 563v-172h15v78h38v14h-38v66h43v14h-58zM184 563v-172h15v79h47v-79h15v172h-15v-79h-47v79h-15zM460 394c4 -2 15 -4 21 -4c20 0 31 11 31 36
v137h-16v-137c0 -16 -5 -22 -16 -22c-5 0 -15 3 -20 6v-16zM349 438l-16 31c13 12 23 26 23 42c0 15 -9 31 -27 31c-17 0 -28 -16 -28 -31s6 -24 14 -39c-15 -12 -23 -28 -23 -45c0 -22 13 -39 31 -39c13 0 22 12 27 24h1l12 -24l11 8l-16 30c5 12 10 25 13 39l-13 3
c-2 -9 -6 -21 -9 -30zM523 323v-46h8v13l7 7l16 -20h9l-19 26l18 20h-10l-21 -24v24h-8zM488 292l10 -15h9l-12 17c6 2 10 8 10 15c0 6 -6 14 -16 14h-21v-46h8v15h12zM426 276c15 0 24 11 24 24c0 12 -10 24 -24 24s-23 -12 -23 -24c0 -13 9 -24 23 -24zM370 301l-13 22h-9
l18 -29v-17h8v17l18 29h-9zM193 323v-46h33v7h-25v13h22v7h-22v12h25v7h-33zM132 323v-46h8v32l25 -32h7v46h-8v-32l-25 32h-7zM241 323l15 -47h8l10 34h1l11 -34h8l14 47h-8l-10 -35h-1l-10 35h-8l-11 -35h-1l-10 35h-8zM327 479c-7 13 -12 22 -12 32s6 19 14 19
s13 -9 13 -19c0 -12 -5 -21 -15 -32zM342 423c-3 -10 -11 -21 -18 -21c-10 0 -17 12 -17 27c0 11 6 24 15 33zM488 299h-12v17h11c6 0 10 -3 10 -8s-4 -9 -9 -9zM426 283c-9 0 -15 8 -15 17c0 8 6 17 15 17s16 -9 16 -17c0 -9 -7 -17 -16 -17z" />
    <glyph glyph-name="i.dot" horiz-adv-x="362" 
d="M344 636c0 -44 -35 -95 -97 -95c-43 0 -75 28 -75 74c0 44 35 96 96 96c44 0 76 -29 76 -75zM292 384c0 -81 -82 -229 -82 -281c0 -15 8 -20 18 -20c18 0 38 18 70 97l52 -18c-40 -114 -101 -172 -176 -172c-59 0 -102 37 -102 99c0 82 83 229 83 280c0 15 -6 19 -15 19
c-21 0 -44 -39 -72 -99l-51 20c46 108 101 170 180 170c56 0 95 -38 95 -95z" />
    <glyph glyph-name="acute" unicode="&#xb4;" horiz-adv-x="268" 
d="M278 601l-93 -66h-70l83 134c29 48 53 82 92 82c38 0 63 -30 63 -60c0 -39 -29 -58 -75 -90z" />
    <glyph glyph-name="hungarumlaut" unicode="&#x2dd;" horiz-adv-x="334" 
d="M211 601l-84 -66h-69l72 134c27 49 49 82 86 82s63 -30 63 -60c0 -38 -26 -57 -68 -90zM399 601l-86 -66h-71l76 134c28 49 51 82 88 82s62 -29 62 -59c0 -39 -26 -58 -69 -91z" />
    <glyph glyph-name="caron.alt" horiz-adv-x="238" 
d="M256 620l-62 -93h-54l31 162c13 64 35 93 76 93c32 0 61 -25 61 -59c0 -32 -18 -54 -52 -103z" />
    <glyph glyph-name="grave" unicode="`" horiz-adv-x="268" 
d="M279 646l25 -111h-63l-53 65c-36 41 -48 65 -48 90c0 30 24 62 64 62c50 0 62 -47 75 -106z" />
    <glyph glyph-name="circumflex" unicode="&#x2c6;" horiz-adv-x="351" 
d="M88 535l172 197h81l74 -197h-81l-54 86l-102 -86h-90z" />
    <glyph glyph-name="caron" unicode="&#x2c7;" horiz-adv-x="351" 
d="M445 735l-171 -197h-81l-74 197h80l54 -86l103 86h89z" />
    <glyph glyph-name="breve" unicode="&#x2d8;" horiz-adv-x="360" 
d="M268 533c-91 0 -149 59 -122 184h68c-5 -60 25 -85 70 -85c47 0 82 28 103 85h71c-25 -124 -96 -184 -190 -184z" />
    <glyph glyph-name="tilde" unicode="&#x2dc;" horiz-adv-x="401" 
d="M217 589c-22 0 -38 -16 -57 -57h-66c33 103 65 164 138 164c64 0 109 -54 146 -54c22 0 38 16 57 57h66c-33 -104 -65 -164 -138 -164c-64 0 -108 54 -146 54z" />
    <glyph glyph-name="macron" unicode="&#xaf;" horiz-adv-x="363" 
d="M110 540l25 98h298l-24 -98h-299z" />
    <glyph glyph-name="dieresis" unicode="&#xa8;" horiz-adv-x="385" 
d="M266 625c0 -40 -31 -87 -84 -87c-38 0 -66 26 -66 68c0 39 31 86 84 86c38 0 66 -26 66 -67zM462 625c0 -40 -31 -87 -84 -87c-38 0 -66 26 -66 68c0 39 31 86 84 86c38 0 66 -26 66 -67z" />
    <glyph glyph-name="dotaccent" unicode="&#x2d9;" horiz-adv-x="213" 
d="M285 622c0 -42 -33 -91 -92 -91c-41 0 -72 27 -72 72c0 41 33 90 92 90c42 0 72 -27 72 -71z" />
    <glyph glyph-name="ring" unicode="&#x2da;" horiz-adv-x="295" 
d="M376 657c0 -68 -52 -128 -134 -128c-75 0 -118 48 -118 105c0 67 52 127 134 127c75 0 118 -48 118 -104zM199 630c0 -27 13 -51 45 -51c33 0 57 38 57 81c0 27 -13 51 -45 51c-33 0 -57 -37 -57 -81z" />
    <glyph glyph-name="commaaccent" unicode="&#x326;" horiz-adv-x="260" 
d="M-81 -364l-15 51c72 22 118 55 136 95l-7 5c-7 -4 -15 -6 -25 -6c-38 0 -63 27 -63 65c0 46 33 91 86 91c55 0 91 -41 91 -101c0 -94 -79 -169 -203 -200z" />
    <glyph glyph-name="cedilla" unicode="&#xb8;" horiz-adv-x="337" 
d="M-63 -160c24 -15 56 -27 90 -27c28 0 45 11 45 31c0 24 -34 38 -91 34l-14 39l121 90h78l-81 -66l1 -4c58 -12 92 -42 92 -84c0 -58 -53 -102 -140 -102c-43 0 -97 14 -135 41z" />
    <glyph glyph-name="ogonek" unicode="&#x2db;" horiz-adv-x="303" 
d="M167 -212c-33 -22 -74 -38 -120 -38c-67 0 -124 30 -124 96c0 61 53 105 145 157l25 13h83l-34 -25c-82 -61 -106 -91 -106 -124c0 -23 14 -45 51 -45c19 0 38 6 60 18z" />
    </font>
</defs>
</svg>
